osu file format v14

[General]
AudioFilename: sakurak.mp3
AudioLeadIn: 0
PreviewTime: 13913
Countdown: 0
SampleSet: Soft
StackLeniency: 0.7
Mode: 3
LetterboxInBreaks: 0
SpecialStyle: 1
WidescreenStoryboard: 0

[Editor]
Bookmarks: 919,6136,86847
DistanceSpacing: 1.4
BeatDivisor: 4
GridSize: 4
TimelineZoom: 1.5

[Metadata]
Title:Sakura Kagetsu
TitleUnicode:桜華月
Artist:AKITO
ArtistUnicode:AKITO
Creator:ZZHBOY
Version:MX
Source:BMS
Tags:JP-SPIRITUAL POP BJ CUP 5th
BeatmapID:1008972
BeatmapSetID:472124

[Difficulty]
HPDrainRate:8
CircleSize:4
OverallDifficulty:8
ApproachRate:6
SliderMultiplier:1.2
SliderTickRate:1

[Events]
//Background and Video events
0,0,"bg.jpg",0,0
//Break Periods
//Storyboard Layer 0 (Background)
//Storyboard Layer 1 (Fail)
//Storyboard Layer 2 (Pass)
//Storyboard Layer 3 (Foreground)
//Storyboard Sound Samples
Sample,1739,0,"orgel_001.wav",70
Sample,14347,0,"dr_008rsin.wav",70
Sample,15652,0,"dr_003.wav",70
Sample,15652,0,"piano_001.wav",70
Sample,15652,0,"dr_wind.wav",70
Sample,15869,0,"dr_005.wav",70
Sample,16086,0,"va_r_003.wav",70
Sample,16086,0,"dr_002.wav",70
Sample,16086,0,"dr_003.wav",70
Sample,16195,0,"dr_004.wav",70
Sample,16413,0,"dr_002.wav",70
Sample,16521,0,"dr_003.wav",70
Sample,16521,0,"va_r_005.wav",70
Sample,16739,0,"dr_005.wav",70
Sample,16847,0,"dr_004.wav",70
Sample,16956,0,"dr_003.wav",70
Sample,17065,0,"dr_004.wav",70
Sample,17173,0,"dr_005.wav",70
Sample,17391,0,"dr_003.wav",70
Sample,17608,0,"dr_005.wav",70
Sample,17826,0,"dr_002.wav",70
Sample,17826,0,"dr_003.wav",70
Sample,17826,0,"va_l_001.wav",70
Sample,17934,0,"dr_004.wav",70
Sample,18043,0,"dr_005.wav",70
Sample,18152,0,"dr_002.wav",70
Sample,18260,0,"dr_003.wav",70
Sample,18369,0,"dr_004.wav",70
Sample,18369,0,"dr_002.wav",70
Sample,18586,0,"dr_004.wav",70
Sample,18695,0,"piano_008.wav",70
Sample,18695,0,"dr_003.wav",70
Sample,18695,0,"dr_002.wav",70
Sample,18804,0,"dr_004.wav",70
Sample,18913,0,"dr_005.wav",70
Sample,19130,0,"dr_003.wav",70
Sample,19347,0,"dr_005.wav",70
Sample,19565,0,"va_r_003.wav",70
Sample,19565,0,"dr_003.wav",70
Sample,19565,0,"dr_002.wav",70
Sample,19673,0,"dr_004.wav",70
Sample,19891,0,"dr_002.wav",70
Sample,20000,0,"va_r_005.wav",70
Sample,20000,0,"dr_003.wav",70
Sample,20108,0,"dr_002.wav",70
Sample,20217,0,"dr_005.wav",70
Sample,20326,0,"dr_004.wav",70
Sample,20434,0,"dr_003.wav",70
Sample,20434,0,"dr_002.wav",70
Sample,20543,0,"dr_004.wav",70
Sample,20652,0,"dr_005.wav",70
Sample,20869,0,"dr_003.wav",70
Sample,20869,0,"piano_005.wav",70
Sample,21086,0,"dr_005.wav",70
Sample,21304,0,"piano_002.wav",70
Sample,21304,0,"dr_003.wav",70
Sample,21304,0,"dr_002.wav",70
Sample,21413,0,"dr_004.wav",70
Sample,21739,0,"dr_001.wav",70
Sample,21739,0,"dr_003.wav",70
Sample,21847,0,"dr_004.wav",70
Sample,21847,0,"dr_002.wav",70
Sample,22065,0,"dr_002.wav",70
Sample,22173,0,"dr_002.wav",70
Sample,22173,0,"dr_003.wav",70
Sample,22173,0,"va_007.wav",70
Sample,22282,0,"dr_004.wav",70
Sample,22391,0,"dr_005.wav",70
Sample,22391,0,"dr_002.wav",70
Sample,22608,0,"piano_001.wav",70
Sample,22608,0,"dr_003.wav",70
Sample,22826,0,"dr_005.wav",70
Sample,23043,0,"dr_001.wav",70
Sample,23043,0,"dr_002.wav",70
Sample,23043,0,"dr_003.wav",70
Sample,23152,0,"dr_004.wav",70
Sample,23369,0,"dr_002.wav",70
Sample,23478,0,"dr_003.wav",70
Sample,23478,0,"dr_001.wav",70
Sample,23586,0,"dr_004.wav",70
Sample,23804,0,"dr_004.wav",70
Sample,23913,0,"dr_003.wav",70
Sample,24021,0,"dr_004.wav",70
Sample,24347,0,"dr_003.wav",70
Sample,24782,0,"dr_002.wav",70
Sample,24782,0,"dr_003.wav",70
Sample,24782,0,"dr_001.wav",70
Sample,24891,0,"dr_004.wav",70
Sample,25000,0,"dr_005.wav",70
Sample,25108,0,"dr_002.wav",70
Sample,25217,0,"dr_003.wav",70
Sample,25326,0,"dr_004.wav",70
Sample,25326,0,"dr_002.wav",70
Sample,25434,0,"dr_005.wav",70
Sample,25543,0,"dr_004.wav",70
Sample,25652,0,"dr_003.wav",70
Sample,25652,0,"dr_002.wav",70
Sample,25652,0,"dr_001.wav",70
Sample,25760,0,"dr_004.wav",70
Sample,25869,0,"dr_005.wav",70
Sample,26086,0,"dr_003.wav",70
Sample,26521,0,"dr_003.wav",70
Sample,26521,0,"dr_001.wav",70
Sample,26521,0,"dr_002.wav",70
Sample,26630,0,"dr_004.wav",70
Sample,26739,0,"dr_005.wav",70
Sample,26847,0,"dr_002.wav",70
Sample,26956,0,"dr_003.wav",70
Sample,27065,0,"dr_004.wav",70
Sample,27065,0,"dr_002.wav",70
Sample,27173,0,"dr_005.wav",70
Sample,27282,0,"dr_004.wav",70
Sample,27391,0,"dr_001.wav",70
Sample,27391,0,"dr_003.wav",70
Sample,27391,0,"dr_002.wav",70
Sample,27500,0,"dr_004.wav",70
Sample,27608,0,"dr_005.wav",70
Sample,27826,0,"dr_002.wav",70
Sample,27826,0,"va_009.wav",70
Sample,27826,0,"piano_010.wav",70
Sample,29565,0,"dr_wind.wav",70
Sample,35652,0,"pipe_014.wav",70
Sample,35869,0,"piano_r_002.wav",70
Sample,36086,0,"piano_r_003.wav",70
Sample,36304,0,"piano_r_004.wav",70
Sample,36521,0,"dr_003.wav",70
Sample,36521,0,"pipe_001.wav",70
Sample,36956,0,"dr_003.wav",70
Sample,37826,0,"pipe_002.wav",70
Sample,37826,0,"dr_003.wav",70
Sample,38043,0,"pipe_003.wav",70
Sample,38260,0,"pipe_004.wav",70
Sample,38695,0,"dr_003.wav",70
Sample,39565,0,"dr_003.wav",70
Sample,39565,0,"dr_001.wav",70
Sample,40000,0,"pipe_015.wav",70
Sample,40434,0,"dr_001.wav",70
Sample,40652,0,"pipe_003.wav",70
Sample,40869,0,"pipe_016.wav",70
Sample,41086,0,"pipe_017.wav",70
Sample,41159,0,"pipe_018.wav",70
Sample,41231,0,"pipe_017.wav",70
Sample,41304,0,"pipe_019.wav",70
Sample,41304,0,"dr_003.wav",70
Sample,41521,0,"pipe_020.wav",70
Sample,41739,0,"pipe_001.wav",70
Sample,42173,0,"dr_003.wav",70
Sample,42608,0,"dr_003.wav",70
Sample,42717,0,"dr_004.wav",70
Sample,42826,0,"dr_005.wav",70
Sample,42934,0,"dr_004.wav",70
Sample,43043,0,"dr_003.wav",70
Sample,43043,0,"dr_002.wav",70
Sample,43152,0,"dr_004.wav",70
Sample,43478,0,"va_sq.wav",70
Sample,43478,0,"dr_001.wav",70
Sample,43478,0,"va_sqr_001.wav",70
Sample,43913,0,"dr_001.wav",70
Sample,43913,0,"dr_003.wav",70
Sample,44130,0,"dr_002.wav",70
Sample,44239,0,"dr_002.wav",70
Sample,44456,0,"dr_004.wav",70
Sample,44565,0,"dr_005.wav",70
Sample,44782,0,"dr_001.wav",70
Sample,44782,0,"dr_003.wav",70
Sample,44782,0,"dr_002.wav",70
Sample,45000,0,"dr_005.wav",70
Sample,45217,0,"va_sq.wav",70
Sample,45217,0,"dr_001.wav",70
Sample,45217,0,"dr_003.wav",70
Sample,45652,0,"dr_003.wav",70
Sample,45652,0,"dr_002.wav",70
Sample,46195,0,"dr_004.wav",70
Sample,46195,0,"dr_002.wav",70
Sample,46304,0,"dr_005.wav",70
Sample,46521,0,"dr_002.wav",70
Sample,46521,0,"dr_001.wav",70
Sample,46521,0,"dr_003.wav",70
Sample,46739,0,"dr_005.wav",70
Sample,46956,0,"dr_003.wav",70
Sample,46956,0,"dr_001.wav",70
Sample,46956,0,"va_sq.wav",70
Sample,47391,0,"dr_002.wav",70
Sample,47391,0,"dr_003.wav",70
Sample,47608,0,"dr_005.wav",70
Sample,47717,0,"dr_002.wav",70
Sample,47826,0,"dr_003.wav",70
Sample,47934,0,"dr_004.wav",70
Sample,47934,0,"dr_002.wav",70
Sample,48043,0,"dr_005.wav",70
Sample,48260,0,"dr_003.wav",70
Sample,48260,0,"dr_001.wav",70
Sample,48260,0,"dr_002.wav",70
Sample,48478,0,"dr_005.wav",70
Sample,48695,0,"va_sq.wav",70
Sample,48695,0,"dr_001.wav",70
Sample,48695,0,"dr_003.wav",70
Sample,48913,0,"dr_005.wav",70
Sample,49130,0,"dr_003.wav",70
Sample,49130,0,"dr_002.wav",70
Sample,49130,0,"dr_001.wav",70
Sample,49239,0,"dr_004.wav",70
Sample,49347,0,"dr_005.wav",70
Sample,49565,0,"dr_001.wav",70
Sample,49565,0,"dr_003.wav",70
Sample,49673,0,"dr_004.wav",70
Sample,49891,0,"dr_004.wav",70
Sample,50000,0,"dr_001.wav",70
Sample,50000,0,"dr_002.wav",70
Sample,50000,0,"dr_003.wav",70
Sample,50108,0,"dr_004.wav",70
Sample,50217,0,"dr_005.wav",70
Sample,50434,0,"dr_003.wav",70
Sample,50434,0,"dr_001.wav",70
Sample,50434,0,"va_sq.wav",70
Sample,50869,0,"dr_003.wav",70
Sample,50869,0,"dr_001.wav",70
Sample,50978,0,"dr_004.wav",70
Sample,51195,0,"dr_002.wav",70
Sample,51413,0,"dr_002.wav",70
Sample,51413,0,"dr_004.wav",70
Sample,51630,0,"dr_004.wav",70
Sample,51739,0,"dr_002.wav",70
Sample,51739,0,"dr_003.wav",70
Sample,51739,0,"dr_001.wav",70
Sample,51847,0,"dr_004.wav",70
Sample,51956,0,"dr_005.wav",70
Sample,52173,0,"piano_001.wav",70
Sample,52173,0,"va_sq.wav",70
Sample,52173,0,"dr_003.wav",70
Sample,52608,0,"dr_003.wav",70
Sample,52608,0,"dr_002.wav",70
Sample,52934,0,"dr_002.wav",70
Sample,53152,0,"dr_004.wav",70
Sample,53152,0,"dr_002.wav",70
Sample,53369,0,"dr_004.wav",70
Sample,53478,0,"dr_003.wav",70
Sample,53478,0,"dr_001.wav",70
Sample,53478,0,"va_sqr_003.wav",70
Sample,53586,0,"dr_004.wav",70
Sample,53695,0,"dr_005.wav",70
Sample,53913,0,"dr_001.wav",70
Sample,53913,0,"dr_003.wav",70
Sample,53913,0,"va_sq.wav",70
Sample,54347,0,"dr_002.wav",70
Sample,54347,0,"dr_003.wav",70
Sample,54565,0,"dr_005.wav",70
Sample,54673,0,"dr_002.wav",70
Sample,54782,0,"dr_003.wav",70
Sample,54891,0,"dr_002.wav",70
Sample,54891,0,"dr_004.wav",70
Sample,55000,0,"dr_005.wav",70
Sample,55108,0,"dr_004.wav",70
Sample,55217,0,"dr_003.wav",70
Sample,55217,0,"dr_001.wav",70
Sample,55217,0,"dr_002.wav",70
Sample,55326,0,"dr_004.wav",70
Sample,55434,0,"dr_005.wav",70
Sample,55652,0,"dr_003.wav",70
Sample,55652,0,"va_sq.wav",70
Sample,55652,0,"va_001.wav",70
Sample,55760,0,"va_001.wav",70
Sample,55869,0,"dr_005.wav",70
Sample,55869,0,"va_002.wav",70
Sample,56086,0,"dr_002.wav",70
Sample,56086,0,"dr_003.wav",70
Sample,56086,0,"dr_001.wav",70
Sample,56086,0,"va_003.wav",70
Sample,56195,0,"va_003.wav",70
Sample,56304,0,"dr_005.wav",70
Sample,56304,0,"va_004.wav",70
Sample,56413,0,"dr_002.wav",70
Sample,56521,0,"dr_003.wav",70
Sample,56521,0,"va_005.wav",70
Sample,56630,0,"va_005.wav",70
Sample,56630,0,"dr_004.wav",70
Sample,56630,0,"dr_002.wav",70
Sample,56739,0,"dr_002.wav",70
Sample,56739,0,"va_006.wav",70
Sample,56739,0,"dr_005.wav",70
Sample,56847,0,"dr_004.wav",70
Sample,56956,0,"dr_001.wav",70
Sample,56956,0,"dr_003.wav",70
Sample,56956,0,"dr_002.wav",70
Sample,56956,0,"va_007.wav",70
Sample,57065,0,"va_007.wav",70
Sample,57065,0,"dr_004.wav",70
Sample,57173,0,"dr_005.wav",70
Sample,57173,0,"va_sqr_002.wav",70
Sample,57173,0,"dr_002.wav",70
Sample,57173,0,"va_008.wav",70
Sample,57282,0,"dr_002.wav",70
Sample,57391,0,"dr_003.wav",70
Sample,57391,0,"va_sq.wav",70
Sample,57391,0,"va_009.wav",70
Sample,57391,0,"dr_001.wav",70
Sample,57826,0,"dr_003.wav",70
Sample,57826,0,"dr_001.wav",70
Sample,58043,0,"dr_005.wav",70
Sample,58152,0,"dr_002.wav",70
Sample,58369,0,"dr_002.wav",70
Sample,58369,0,"dr_004.wav",70
Sample,58586,0,"dr_004.wav",70
Sample,58695,0,"dr_003.wav",70
Sample,58695,0,"dr_002.wav",70
Sample,58695,0,"dr_001.wav",70
Sample,58804,0,"dr_004.wav",70
Sample,58913,0,"dr_005.wav",70
Sample,59130,0,"va_sq.wav",70
Sample,59130,0,"va_sqr_001.wav",70
Sample,59130,0,"dr_003.wav",70
Sample,59565,0,"dr_002.wav",70
Sample,59565,0,"dr_003.wav",70
Sample,59891,0,"dr_002.wav",70
Sample,60108,0,"dr_004.wav",70
Sample,60108,0,"dr_002.wav",70
Sample,60326,0,"dr_004.wav",70
Sample,60434,0,"dr_002.wav",70
Sample,60434,0,"dr_003.wav",70
Sample,60434,0,"dr_001.wav",70
Sample,60543,0,"dr_004.wav",70
Sample,60869,0,"dr_001.wav",70
Sample,60869,0,"va_sq.wav",70
Sample,60869,0,"dr_002.wav",70
Sample,60869,0,"dr_003.wav",70
Sample,60978,0,"va_sqr_001.wav",70
Sample,61086,0,"va_sqr_002.wav",70
Sample,61086,0,"dr_002.wav",70
Sample,61304,0,"va_sqr_003.wav",70
Sample,61304,0,"dr_003.wav",70
Sample,61413,0,"dr_004.wav",70
Sample,61521,0,"va_sqr_002.wav",70
Sample,61521,0,"dr_005.wav",70
Sample,61630,0,"va_sqr_001.wav",70
Sample,61739,0,"dr_003.wav",70
Sample,61847,0,"dr_004.wav",70
Sample,61847,0,"va_sqr_001.wav",70
Sample,61956,0,"va_sqr_002.wav",70
Sample,61956,0,"dr_005.wav",70
Sample,62065,0,"dr_004.wav",70
Sample,62173,0,"dr_003.wav",70
Sample,62173,0,"va_sqr_003.wav",70
Sample,62282,0,"dr_004.wav",70
Sample,62391,0,"va_sqr_002.wav",70
Sample,62391,0,"dr_005.wav",70
Sample,62608,0,"dr_001.wav",70
Sample,62608,0,"dr_003.wav",70
Sample,62826,0,"dr_005.wav",70
Sample,63043,0,"dr_003.wav",70
Sample,63152,0,"dr_004.wav",70
Sample,63260,0,"dr_008rsin.wav",70
Sample,63260,0,"pipe_021.wav",70
Sample,63260,0,"dr_005.wav",70
Sample,63369,0,"pipe_021.wav",70
Sample,63478,0,"pipe_022.wav",70
Sample,63478,0,"dr_003.wav",70
Sample,63586,0,"dr_004.wav",70
Sample,63695,0,"pipe_023.wav",70
Sample,63695,0,"dr_005.wav",70
Sample,63804,0,"dr_004.wav",70
Sample,63913,0,"dr_003.wav",70
Sample,63913,0,"pipe_024.wav",70
Sample,64021,0,"dr_004.wav",70
Sample,64130,0,"pipe_023.wav",70
Sample,64130,0,"dr_005.wav",70
Sample,64347,0,"dr_explotion.wav",70
Sample,64347,0,"piano_011.wav",70
Sample,65000,0,"piano_011.wav",70
Sample,66086,0,"piano_011.wav",70
Sample,66739,0,"orgel_015.wav",70
Sample,67826,0,"piano_011.wav",70
Sample,68478,0,"piano_011.wav",70
Sample,69565,0,"piano_011.wav",70
Sample,69565,0,"dr_008rsin.wav",70
Sample,71304,0,"dr_003.wav",70
Sample,71304,0,"dr_001.wav",70
Sample,71739,0,"dr_003.wav",70
Sample,71847,0,"dr_004.wav",70
Sample,71956,0,"dr_005.wav",70
Sample,71956,0,"piano_008.wav",70
Sample,72065,0,"dr_002.wav",70
Sample,72065,0,"dr_005.wav",70
Sample,72173,0,"dr_003.wav",70
Sample,72282,0,"dr_004.wav",70
Sample,72500,0,"dr_004.wav",70
Sample,72608,0,"dr_001.wav",70
Sample,72608,0,"dr_003.wav",70
Sample,72717,0,"dr_004.wav",70
Sample,72826,0,"dr_005.wav",70
Sample,73043,0,"dr_001.wav",70
Sample,73043,0,"dr_003.wav",70
Sample,73478,0,"dr_003.wav",70
Sample,73478,0,"dr_002.wav",70
Sample,73586,0,"dr_004.wav",70
Sample,73695,0,"dr_005.wav",70
Sample,73804,0,"dr_002.wav",70
Sample,73804,0,"dr_005.wav",70
Sample,73913,0,"dr_003.wav",70
Sample,73913,0,"dr_001.wav",70
Sample,74021,0,"dr_004.wav",70
Sample,74239,0,"dr_004.wav",70
Sample,74347,0,"dr_001.wav",70
Sample,74347,0,"dr_003.wav",70
Sample,74347,0,"dr_002.wav",70
Sample,74456,0,"dr_004.wav",70
Sample,74565,0,"dr_005.wav",70
Sample,74782,0,"dr_003.wav",70
Sample,74782,0,"dr_001.wav",70
Sample,75217,0,"dr_003.wav",70
Sample,75326,0,"dr_004.wav",70
Sample,75434,0,"dr_005.wav",70
Sample,75543,0,"dr_005.wav",70
Sample,75652,0,"dr_001.wav",70
Sample,75652,0,"dr_003.wav",70
Sample,75760,0,"dr_004.wav",70
Sample,75869,0,"dr_005.wav",70
Sample,75978,0,"dr_004.wav",70
Sample,76086,0,"dr_002.wav",70
Sample,76086,0,"dr_003.wav",70
Sample,76086,0,"dr_001.wav",70
Sample,76195,0,"dr_004.wav",70
Sample,76304,0,"dr_005.wav",70
Sample,76413,0,"dr_005.wav",70
Sample,76521,0,"dr_003.wav",70
Sample,76521,0,"dr_001.wav",70
Sample,76956,0,"dr_003.wav",70
Sample,76956,0,"dr_001.wav",70
Sample,77065,0,"dr_004.wav",70
Sample,77173,0,"dr_005.wav",70
Sample,77282,0,"dr_002.wav",70
Sample,77282,0,"dr_005.wav",70
Sample,77391,0,"dr_003.wav",70
Sample,77500,0,"dr_004.wav",70
Sample,77717,0,"dr_004.wav",70
Sample,77826,0,"vasr_004.wav",70
Sample,77826,0,"dr_003.wav",70
Sample,77934,0,"dr_004.wav",70
Sample,78260,0,"dr_001.wav",70
Sample,78260,0,"dr_003.wav",70
Sample,78695,0,"dr_003.wav",70
Sample,78804,0,"dr_004.wav",70
Sample,78913,0,"dr_005.wav",70
Sample,79021,0,"dr_005.wav",70
Sample,79021,0,"dr_002.wav",70
Sample,79130,0,"dr_003.wav",70
Sample,79456,0,"dr_004.wav",70
Sample,79565,0,"dr_003.wav",70
Sample,79565,0,"dr_001.wav",70
Sample,79565,0,"dr_002.wav",70
Sample,79673,0,"dr_004.wav",70
Sample,79782,0,"dr_005.wav",70
Sample,80000,0,"dr_001.wav",70
Sample,80000,0,"dr_003.wav",70
Sample,80434,0,"dr_003.wav",70
Sample,80543,0,"dr_004.wav",70
Sample,80652,0,"dr_005.wav",70
Sample,80760,0,"dr_005.wav",70
Sample,80760,0,"dr_002.wav",70
Sample,80869,0,"dr_003.wav",70
Sample,80978,0,"dr_004.wav",70
Sample,81195,0,"dr_004.wav",70
Sample,81304,0,"dr_suzu_s.wav",70
Sample,81304,0,"dr_003.wav",70
Sample,81304,0,"dr_001.wav",70
Sample,81304,0,"dr_002.wav",70
Sample,81413,0,"dr_004.wav",70
Sample,81521,0,"dr_005.wav",70
Sample,81739,0,"dr_003.wav",70
Sample,81739,0,"dr_001.wav",70
Sample,82173,0,"dr_003.wav",70
Sample,82282,0,"dr_004.wav",70
Sample,82391,0,"dr_005.wav",70
Sample,82500,0,"dr_005.wav",70
Sample,82608,0,"dr_003.wav",70
Sample,82717,0,"dr_004.wav",70
Sample,82934,0,"dr_004.wav",70
Sample,83043,0,"dr_003.wav",70
Sample,83043,0,"dr_002.wav",70
Sample,83043,0,"dr_001.wav",70
Sample,83152,0,"dr_004.wav",70
Sample,83478,0,"dr_001.wav",70
Sample,83478,0,"dr_003.wav",70
Sample,83913,0,"dr_003.wav",70
Sample,83913,0,"dr_002.wav",70
Sample,84021,0,"dr_004.wav",70
Sample,84130,0,"dr_005.wav",70
Sample,84239,0,"dr_002.wav",70
Sample,84239,0,"dr_005.wav",70
Sample,84347,0,"dr_003.wav",70
Sample,84456,0,"dr_004.wav",70
Sample,84565,0,"dr_005.wav",70
Sample,84673,0,"dr_004.wav",70
Sample,84782,0,"dr_003.wav",70
Sample,84782,0,"dr_001.wav",70
Sample,84891,0,"dr_004.wav",70
Sample,85000,0,"dr_005.wav",70
Sample,85000,0,"dr_001.wav",70
Sample,85108,0,"dr_002.wav",70
Sample,85108,0,"dr_005.wav",70
Sample,85217,0,"dr_003.wav",70
Sample,85217,0,"dr_001.wav",70
Sample,85217,0,"pipe_036.wav",70
Sample,85652,0,"pipe_002.wav",70
Sample,85652,0,"dr_002.wav",70
Sample,85652,0,"dr_003.wav",70
Sample,85760,0,"dr_004.wav",70
Sample,85869,0,"dr_005.wav",70
Sample,85869,0,"piano_008.wav",70
Sample,85869,0,"pipe_003.wav",70
Sample,85978,0,"dr_005.wav",70
Sample,85978,0,"dr_002.wav",70
Sample,86086,0,"pipe_004.wav",70
Sample,86086,0,"dr_003.wav",70
Sample,86195,0,"dr_004.wav",70
Sample,86413,0,"dr_004.wav",70
Sample,86521,0,"dr_002.wav",70
Sample,86521,0,"dr_003.wav",70
Sample,86521,0,"dr_001.wav",70
Sample,86630,0,"dr_004.wav",70
Sample,86847,0,"dr_005.wav",70
Sample,86956,0,"dr_001.wav",70
Sample,86956,0,"dr_003.wav",70
Sample,87391,0,"dr_002.wav",70
Sample,87391,0,"dr_003.wav",70
Sample,87391,0,"dr_001.wav",70
Sample,87391,0,"pipe_019.wav",70
Sample,87500,0,"dr_004.wav",70
Sample,87608,0,"pipe_020.wav",70
Sample,87608,0,"dr_005.wav",70
Sample,87717,0,"dr_002.wav",70
Sample,87717,0,"dr_005.wav",70
Sample,87826,0,"pipe_042.wav",70
Sample,87826,0,"dr_001.wav",70
Sample,87826,0,"dr_003.wav",70
Sample,87934,0,"dr_004.wav",70
Sample,88152,0,"dr_004.wav",70
Sample,88260,0,"dr_002.wav",70
Sample,88260,0,"dr_007crap.wav",70
Sample,88260,0,"pipe_014.wav",70
Sample,88260,0,"dr_003.wav",70
Sample,88260,0,"dr_001.wav",70
Sample,88369,0,"dr_004.wav",70
Sample,88586,0,"dr_005.wav",70
Sample,88695,0,"dr_003.wav",70
Sample,88695,0,"dr_001.wav",70
Sample,89130,0,"dr_003.wav",70
Sample,89130,0,"dr_001.wav",70
Sample,89130,0,"pipe_005.wav",70
Sample,89239,0,"dr_004.wav",70
Sample,89347,0,"dr_005.wav",70
Sample,89347,0,"pipe_006.wav",70
Sample,89456,0,"dr_002.wav",70
Sample,89456,0,"dr_005.wav",70
Sample,89565,0,"dr_003.wav",70
Sample,89565,0,"pipe_002.wav",70
Sample,89673,0,"dr_004.wav",70
Sample,89782,0,"dr_005.wav",70
Sample,89782,0,"pipe_003.wav",70
Sample,89782,0,"piano_005.wav",70
Sample,89891,0,"dr_004.wav",70
Sample,90000,0,"dr_003.wav",70
Sample,90000,0,"dr_001.wav",70
Sample,90000,0,"dr_002.wav",70
Sample,90000,0,"pipe_037.wav",70
Sample,90108,0,"dr_004.wav",70
Sample,90217,0,"dr_005.wav",70
Sample,90326,0,"dr_005.wav",70
Sample,90434,0,"dr_003.wav",70
Sample,90434,0,"pipe_019.wav",70
Sample,90434,0,"dr_001.wav",70
Sample,90652,0,"pipe_020.wav",70
Sample,90652,0,"dr_005.wav",70
Sample,90869,0,"dr_003.wav",70
Sample,90869,0,"dr_001.wav",70
Sample,90869,0,"pipe_042.wav",70
Sample,90869,0,"dr_002.wav",70
Sample,90978,0,"dr_004.wav",70
Sample,91086,0,"dr_005.wav",70
Sample,91195,0,"dr_005.wav",70
Sample,91195,0,"dr_002.wav",70
Sample,91304,0,"pipe_036.wav",70
Sample,91304,0,"dr_003.wav",70
Sample,91413,0,"dr_004.wav",70
Sample,91630,0,"dr_004.wav",70
Sample,91739,0,"pipe_037.wav",70
Sample,91739,0,"dr_007crap.wav",70
Sample,91739,0,"dr_002.wav",70
Sample,91739,0,"dr_001.wav",70
Sample,91847,0,"dr_004.wav",70
Sample,92065,0,"dr_005.wav",70
Sample,92173,0,"pipe_036.wav",70
Sample,92173,0,"dr_001.wav",70
Sample,92173,0,"dr_003.wav",70
Sample,92608,0,"pipe_002.wav",70
Sample,92608,0,"dr_003.wav",70
Sample,92608,0,"dr_002.wav",70
Sample,92717,0,"dr_004.wav",70
Sample,92826,0,"dr_005.wav",70
Sample,92826,0,"pipe_003.wav",70
Sample,92934,0,"dr_005.wav",70
Sample,92934,0,"dr_002.wav",70
Sample,93043,0,"dr_003.wav",70
Sample,93043,0,"pipe_004.wav",70
Sample,93152,0,"dr_004.wav",70
Sample,93369,0,"dr_004.wav",70
Sample,93478,0,"dr_002.wav",70
Sample,93478,0,"dr_007crap.wav",70
Sample,93478,0,"dr_003.wav",70
Sample,93478,0,"dr_001.wav",70
Sample,93586,0,"dr_004.wav",70
Sample,93695,0,"dr_005.wav",70
Sample,93804,0,"dr_005.wav",70
Sample,93913,0,"dr_001.wav",70
Sample,93913,0,"dr_003.wav",70
Sample,94347,0,"pipe_020.wav",70
Sample,94347,0,"dr_003.wav",70
Sample,94347,0,"dr_001.wav",70
Sample,94456,0,"dr_004.wav",70
Sample,94565,0,"pipe_019.wav",70
Sample,94565,0,"dr_005.wav",70
Sample,94673,0,"dr_005.wav",70
Sample,94782,0,"dr_003.wav",70
Sample,94782,0,"pipe_038.wav",70
Sample,94891,0,"dr_004.wav",70
Sample,95108,0,"dr_004.wav",70
Sample,95217,0,"dr_001.wav",70
Sample,95217,0,"dr_suzu_s.wav",70
Sample,95217,0,"piano_007.wav",70
Sample,95217,0,"dr_003.wav",70
Sample,95217,0,"pipe_042.wav",70
Sample,95217,0,"dr_002.wav",70
Sample,95326,0,"dr_004.wav",70
Sample,95434,0,"dr_005.wav",70
Sample,95543,0,"dr_005.wav",70
Sample,95652,0,"dr_003.wav",70
Sample,95652,0,"dr_001.wav",70
Sample,95652,0,"pipe_039.wav",70
Sample,96086,0,"dr_003.wav",70
Sample,96086,0,"dr_001.wav",70
Sample,96195,0,"dr_004.wav",70
Sample,96304,0,"dr_005.wav",70
Sample,96304,0,"pipe_002.wav",70
Sample,96413,0,"dr_002.wav",70
Sample,96413,0,"dr_005.wav",70
Sample,96521,0,"dr_003.wav",70
Sample,96521,0,"pipe_003.wav",70
Sample,96630,0,"dr_004.wav",70
Sample,96739,0,"dr_005.wav",70
Sample,96739,0,"pipe_019.wav",70
Sample,96847,0,"dr_004.wav",70
Sample,96956,0,"dr_001.wav",70
Sample,96956,0,"piano_012.wav",70
Sample,96956,0,"pipe_040.wav",70
Sample,96956,0,"dr_003.wav",70
Sample,96956,0,"dr_007crap.wav",70
Sample,97065,0,"dr_004.wav",70
Sample,97173,0,"pipe_041.wav",70
Sample,97282,0,"dr_005.wav",70
Sample,97391,0,"piano_011.wav",70
Sample,97391,0,"pipe_036.wav",70
Sample,97391,0,"dr_003.wav",70
Sample,97826,0,"pipe_002.wav",70
Sample,97826,0,"dr_007crap.wav",70
Sample,97826,0,"dr_001.wav",70
Sample,97826,0,"dr_003.wav",70
Sample,97934,0,"dr_004.wav",70
Sample,98043,0,"pipe_019.wav",70
Sample,98260,0,"pipe_039.wav",70
Sample,98369,0,"dr_004.wav",70
Sample,98586,0,"dr_004.wav",70
Sample,98695,0,"dr_003.wav",70
Sample,98695,0,"dr_001.wav",70
Sample,98804,0,"dr_004.wav",70
Sample,98913,0,"dr_005.wav",70
Sample,99130,0,"dr_001.wav",70
Sample,99130,0,"dr_003.wav",70
Sample,99130,0,"pipe_036.wav",70
Sample,99130,0,"dr_001.wav",70
Sample,99130,0,"zen_008.wav",70
Sample,99347,0,"zen_009.wav",70
Sample,99565,0,"dr_001.wav",70
Sample,99565,0,"zen_010.wav",70
Sample,99565,0,"dr_003.wav",70
Sample,99565,0,"pipe_002.wav",70
Sample,99673,0,"dr_004.wav",70
Sample,99782,0,"pipe_003.wav",70
Sample,99782,0,"zen_011.wav",70
Sample,99782,0,"dr_005.wav",70
Sample,99891,0,"dr_005.wav",70
Sample,99891,0,"dr_002.wav",70
Sample,100000,0,"pipe_004.wav",70
Sample,100000,0,"dr_003.wav",70
Sample,100000,0,"zen_012.wav",70
Sample,100108,0,"dr_004.wav",70
Sample,100108,0,"dr_002.wav",70
Sample,100326,0,"dr_004.wav",70
Sample,100434,0,"dr_002.wav",70
Sample,100434,0,"dr_003.wav",70
Sample,100543,0,"dr_004.wav",70
Sample,100760,0,"dr_005.wav",70
Sample,100869,0,"dr_003.wav",70
Sample,100869,0,"va_b_003.wav",70
Sample,101304,0,"dr_002.wav",70
Sample,101304,0,"dr_003.wav",70
Sample,101304,0,"zen_009.wav",70
Sample,101304,0,"dr_007crap.wav",70
Sample,101304,0,"pipe_019.wav",70
Sample,101413,0,"dr_004.wav",70
Sample,101521,0,"pipe_020.wav",70
Sample,101630,0,"dr_005.wav",70
Sample,101739,0,"dr_003.wav",70
Sample,101739,0,"pipe_042.wav",70
Sample,101739,0,"dr_001.wav",70
Sample,101739,0,"zen_013.wav",70
Sample,101847,0,"dr_002.wav",70
Sample,101847,0,"dr_004.wav",70
Sample,102065,0,"dr_004.wav",70
Sample,102173,0,"dr_001.wav",70
Sample,102173,0,"dr_003.wav",70
Sample,102173,0,"pipe_014.wav",70
Sample,102173,0,"dr_002.wav",70
Sample,102173,0,"zen_014.wav",70
Sample,102282,0,"dr_004.wav",70
Sample,102500,0,"dr_005.wav",70
Sample,102608,0,"dr_003.wav",70
Sample,102608,0,"dr_001.wav",70
Sample,102608,0,"zen_015.wav",70
Sample,103043,0,"pipe_005.wav",70
Sample,103043,0,"dr_002.wav",70
Sample,103043,0,"dr_003.wav",70
Sample,103152,0,"dr_004.wav",70
Sample,103260,0,"pipe_006.wav",70
Sample,103369,0,"dr_005.wav",70
Sample,103369,0,"dr_002.wav",70
Sample,103478,0,"pipe_002.wav",70
Sample,103478,0,"dr_003.wav",70
Sample,103586,0,"dr_002.wav",70
Sample,103586,0,"dr_004.wav",70
Sample,103695,0,"pipe_003.wav",70
Sample,103695,0,"dr_005.wav",70
Sample,103804,0,"dr_004.wav",70
Sample,103913,0,"dr_002.wav",70
Sample,103913,0,"pipe_037.wav",70
Sample,103913,0,"dr_001.wav",70
Sample,103913,0,"dr_003.wav",70
Sample,104021,0,"dr_004.wav",70
Sample,104130,0,"dr_005.wav",70
Sample,104239,0,"dr_005.wav",70
Sample,104347,0,"pipe_019.wav",70
Sample,104347,0,"dr_003.wav",70
Sample,104347,0,"zen_008.wav",70
Sample,104347,0,"dr_001.wav",70
Sample,104565,0,"dr_005.wav",70
Sample,104565,0,"zen_009.wav",70
Sample,104565,0,"pipe_020.wav",70
Sample,104782,0,"dr_003.wav",70
Sample,104782,0,"dr_001.wav",70
Sample,104782,0,"dr_002.wav",70
Sample,104782,0,"zen_010.wav",70
Sample,104782,0,"pipe_042.wav",70
Sample,104891,0,"dr_004.wav",70
Sample,105000,0,"zen_011.wav",70
Sample,105000,0,"dr_005.wav",70
Sample,105108,0,"dr_002.wav",70
Sample,105108,0,"dr_005.wav",70
Sample,105217,0,"dr_003.wav",70
Sample,105217,0,"pipe_036.wav",70
Sample,105217,0,"zen_016.wav",70
Sample,105326,0,"dr_004.wav",70
Sample,105326,0,"dr_002.wav",70
Sample,105434,0,"dr_005.wav",70
Sample,105434,0,"zen_017.wav",70
Sample,105543,0,"dr_004.wav",70
Sample,105652,0,"dr_003.wav",70
Sample,105652,0,"dr_007crap.wav",70
Sample,105652,0,"dr_002.wav",70
Sample,105652,0,"zen_018.wav",70
Sample,105652,0,"pipe_037.wav",70
Sample,105652,0,"dr_001.wav",70
Sample,105760,0,"dr_001.wav",70
Sample,105760,0,"dr_004.wav",70
Sample,105869,0,"zen_019.wav",70
Sample,105869,0,"dr_005.wav",70
Sample,105978,0,"dr_005.wav",70
Sample,106086,0,"pipe_036.wav",70
Sample,106086,0,"dr_001.wav",70
Sample,106086,0,"dr_003.wav",70
Sample,106086,0,"zen_017.wav",70
Sample,106521,0,"pipe_002.wav",70
Sample,106521,0,"dr_002.wav",70
Sample,106521,0,"dr_003.wav",70
Sample,106630,0,"dr_004.wav",70
Sample,106739,0,"pipe_003.wav",70
Sample,106847,0,"dr_005.wav",70
Sample,106847,0,"dr_002.wav",70
Sample,106956,0,"pipe_004.wav",70
Sample,106956,0,"dr_003.wav",70
Sample,107065,0,"dr_002.wav",70
Sample,107065,0,"dr_004.wav",70
Sample,107282,0,"dr_004.wav",70
Sample,107391,0,"dr_002.wav",70
Sample,107391,0,"zen_016.wav",70
Sample,107391,0,"dr_003.wav",70
Sample,107500,0,"dr_004.wav",70
Sample,107608,0,"zen_017.wav",70
Sample,107717,0,"dr_005.wav",70
Sample,107826,0,"zen_011.wav",70
Sample,107826,0,"dr_003.wav",70
Sample,108260,0,"dr_003.wav",70
Sample,108260,0,"pipe_020.wav",70
Sample,108260,0,"dr_001.wav",70
Sample,108260,0,"dr_002.wav",70
Sample,108369,0,"dr_004.wav",70
Sample,108478,0,"pipe_019.wav",70
Sample,108478,0,"dr_005.wav",70
Sample,108586,0,"dr_005.wav",70
Sample,108586,0,"dr_002.wav",70
Sample,108695,0,"dr_001.wav",70
Sample,108695,0,"dr_003.wav",70
Sample,108695,0,"pipe_038.wav",70
Sample,108804,0,"dr_002.wav",70
Sample,108804,0,"dr_004.wav",70
Sample,109021,0,"dr_004.wav",70
Sample,109130,0,"zen_010.wav",70
Sample,109130,0,"dr_003.wav",70
Sample,109130,0,"dr_002.wav",70
Sample,109130,0,"pipe_042.wav",70
Sample,109239,0,"dr_004.wav",70
Sample,109347,0,"zen_011.wav",70
Sample,109456,0,"dr_005.wav",70
Sample,109565,0,"dr_003.wav",70
Sample,109565,0,"dr_002.wav",70
Sample,109565,0,"dr_001.wav",70
Sample,109565,0,"va_009.wav",70
Sample,109565,0,"zen_008.wav",70
Sample,109565,0,"pipe_039.wav",70
Sample,109673,0,"dr_002.wav",70
Sample,109782,0,"dr_005.wav",70
Sample,109891,0,"dr_002.wav",70
Sample,110000,0,"dr_003.wav",70
Sample,110000,0,"dr_001.wav",70
Sample,110000,0,"dr_002.wav",70
Sample,110108,0,"dr_004.wav",70
Sample,110108,0,"dr_002.wav",70
Sample,110217,0,"dr_005.wav",70
Sample,110217,0,"dr_002.wav",70
Sample,110217,0,"pipe_002.wav",70
Sample,110326,0,"dr_002.wav",70
Sample,110326,0,"dr_005.wav",70
Sample,110434,0,"dr_002.wav",70
Sample,110434,0,"pipe_003.wav",70
Sample,110434,0,"dr_003.wav",70
Sample,110434,0,"dr_001.wav",70
Sample,110543,0,"dr_004.wav",70
Sample,110543,0,"dr_002.wav",70
Sample,110652,0,"dr_005.wav",70
Sample,110652,0,"pipe_019.wav",70
Sample,110760,0,"dr_004.wav",70
Sample,110760,0,"dr_002.wav",70
Sample,110869,0,"dr_002.wav",70
Sample,110869,0,"pipe_040.wav",70
Sample,110869,0,"dr_001.wav",70
Sample,110869,0,"dr_003.wav",70
Sample,110978,0,"dr_004.wav",70
Sample,110978,0,"dr_002.wav",70
Sample,111086,0,"dr_002.wav",70
Sample,111086,0,"pipe_041.wav",70
Sample,111195,0,"dr_002.wav",70
Sample,111195,0,"dr_005.wav",70
Sample,111304,0,"dr_002.wav",70
Sample,111304,0,"dr_001.wav",70
Sample,111304,0,"pipe_036.wav",70
Sample,111739,0,"pipe_002.wav",70
Sample,111739,0,"dr_001.wav",70
Sample,111956,0,"pipe_019.wav",70
Sample,112173,0,"pipe_039.wav",70
Sample,112282,0,"dr_001.wav",70
Sample,112500,0,"dr_002.wav",70
Sample,112608,0,"dr_001.wav",70
Sample,113043,0,"dr_wind.wav",70
Sample,113043,0,"dr_explotion.wav",70

[TimingPoints]
0,434.782608695652,4,2,0,70,1,0

[HitObjects]
64,192,1739,5,0,0:0:0:0:orgel_013.wav
320,192,2173,1,0,0:0:0:0:orgel_002.wav
448,192,2173,1,0,0:0:0:0:orgel_014.wav
192,192,2391,1,0,0:0:0:0:orgel_013.wav
320,192,2608,1,0,0:0:0:0:orgel_003.wav
64,192,2608,1,0,0:0:0:0:orgel_015.wav
64,192,3478,1,0,0:0:0:0:orgel_004.wav
192,192,3913,1,0,0:0:0:0:orgel_005.wav
448,192,3913,1,0,0:0:0:0:orgel_016.wav
320,192,4130,1,0,0:0:0:0:orgel_017.wav
192,192,4347,1,0,0:0:0:0:orgel_006.wav
64,192,4347,1,0,0:0:0:0:orgel_014.wav
448,192,4782,1,0,0:0:0:0:orgel_015.wav
320,192,5217,1,0,0:0:0:0:orgel_007.wav
448,192,5652,1,0,0:0:0:0:orgel_008.wav
64,192,5652,1,0,0:0:0:0:orgel_018.wav
192,192,5869,1,0,0:0:0:0:orgel_015.wav
320,192,6086,1,0,0:0:0:0:orgel_014.wav
64,192,6086,1,0,0:0:0:0:orgel_009.wav
448,192,6304,1,0,0:0:0:0:orgel_013.wav
320,192,6521,1,0,0:0:0:0:orgel_015.wav
448,192,6956,1,0,0:0:0:0:orgel_016.wav
64,192,6956,1,0,0:0:0:0:orgel_010.wav
320,192,7173,1,0,0:0:0:0:orgel_017.wav
192,192,7391,1,0,0:0:0:0:orgel_009.wav
448,192,7391,1,0,0:0:0:0:orgel_014.wav
320,192,7826,1,0,0:0:0:0:orgel_013.wav
64,192,7826,1,0,0:0:0:0:orgel_011.wav
192,192,8260,1,0,0:0:0:0:orgel_015.wav
320,192,8695,1,0,0:0:0:0:orgel_001.wav
448,192,8695,1,0,0:0:0:0:orgel_013.wav
192,192,9130,1,0,0:0:0:0:orgel_002.wav
64,192,9130,1,0,0:0:0:0:orgel_014.wav
320,192,9347,1,0,0:0:0:0:orgel_013.wav
448,192,9565,1,0,0:0:0:0:orgel_015.wav
64,192,9565,1,0,0:0:0:0:orgel_003.wav
192,192,10434,1,0,0:0:0:0:orgel_004.wav
448,192,10434,1,0,0:0:0:0:orgel_019.wav
320,192,10652,1,0,0:0:0:0:orgel_016.wav
192,192,10869,1,0,0:0:0:0:orgel_005.wav
64,192,10869,1,0,0:0:0:0:orgel_017.wav
320,192,11304,1,0,0:0:0:0:orgel_006.wav
64,192,11304,1,0,0:0:0:0:orgel_014.wav
192,192,11739,1,0,0:0:0:0:orgel_015.wav
64,192,12173,1,0,0:0:0:0:orgel_010.wav
192,192,12608,1,0,0:0:0:0:orgel_017.wav
448,192,12608,1,0,0:0:0:0:orgel_009.wav
64,192,12826,1,0,0:0:0:0:orgel_016.wav
320,192,13043,1,0,0:0:0:0:orgel_003.wav
448,192,13043,1,0,0:0:0:0:orgel_019.wav
192,192,13478,1,0,0:0:0:0:orgel_017.wav
64,192,13478,1,0,0:0:0:0:orgel_012.wav
192,192,13913,1,0,0:0:0:0:orgel_013.wav
448,192,13913,1,0,0:0:0:0:orgel_011.wav
64,192,14999,1,0,0:0:0:0:dr_002.wav
192,192,15072,1,0,0:0:0:0:dr_002.wav
320,192,15144,1,0,0:0:0:0:dr_002.wav
448,192,15217,1,0,0:0:0:0:dr_002.wav
320,192,15326,1,0,0:0:0:0:dr_002.wav
192,192,15434,1,0,0:0:0:0:dr_002.wav
64,192,15543,1,0,0:0:0:0:dr_002.wav
192,192,15652,1,0,0:0:0:0:va_r_001.wav
320,192,15652,1,0,0:0:0:0:dr_001.wav
448,192,15652,1,0,0:0:0:0:dr_006sin.wav
64,192,15760,1,0,0:0:0:0:va_r_001.wav
64,192,15869,1,0,0:0:0:0:va_r_002.wav
320,192,16086,1,0,0:0:0:0:piano_002.wav
448,192,16086,1,0,0:0:0:0:dr_001.wav
64,192,16195,1,0,0:0:0:0:va_r_002.wav
192,192,16304,1,0,0:0:0:0:dr_005.wav
448,192,16304,1,0,0:0:0:0:piano_003.wav
320,192,16413,1,0,0:0:0:0:va_r_004.wav
192,192,16521,1,0,0:0:0:0:piano_004.wav
64,192,16521,1,0,0:0:0:0:dr_001.wav
320,192,16630,1,0,0:0:0:0:dr_004.wav
448,192,16630,1,0,0:0:0:0:dr_002.wav
64,192,16739,1,0,0:0:0:0:va_r_004.wav
192,192,16847,1,0,0:0:0:0:va_r_002.wav
320,192,16956,1,0,0:0:0:0:dr_002.wav
64,192,16956,1,0,0:0:0:0:dr_001.wav
448,192,17065,1,0,0:0:0:0:va_r_004.wav
320,192,17173,1,0,0:0:0:0:va_r_005.wav
192,192,17391,1,0,0:0:0:0:va_l_001.wav
448,192,17391,1,0,0:0:0:0:dr_001.wav
64,192,17499,1,0,0:0:0:0:va_l_002.wav
320,192,17608,1,0,0:0:0:0:va_l_003.wav
192,192,17717,1,0,0:0:0:0:va_l_004.wav
448,192,17826,1,0,0:0:0:0:dr_001.wav
64,192,17826,1,0,0:0:0:0:piano_005.wav
192,192,18043,1,0,0:0:0:0:piano_006.wav
320,192,18043,1,0,0:0:0:0:va_l_005.wav
448,192,18152,1,0,0:0:0:0:va_l_001.wav
320,192,18260,1,0,0:0:0:0:piano_002.wav
64,192,18260,1,0,0:0:0:0:dr_001.wav
192,192,18369,1,0,0:0:0:0:va_l_001.wav
64,192,18478,1,0,0:0:0:0:va_l_002.wav
192,192,18695,1,0,0:0:0:0:va_l_006.wav
320,192,18695,128,0,18913:0:0:0:0:dr_001.wav
448,192,18913,1,0,0:0:0:0:va_l_004.wav
192,192,19130,1,0,0:0:0:0:dr_001.wav
64,192,19130,1,0,0:0:0:0:va_r_001.wav
448,192,19239,1,0,0:0:0:0:va_r_001.wav
448,192,19347,1,0,0:0:0:0:va_r_002.wav
192,192,19565,1,0,0:0:0:0:dr_001.wav
448,192,19565,1,0,0:0:0:0:piano_007.wav
320,192,19673,1,0,0:0:0:0:va_r_002.wav
192,192,19782,1,0,0:0:0:0:piano_008.wav
64,192,19782,1,0,0:0:0:0:dr_005.wav
320,192,19891,1,0,0:0:0:0:va_r_004.wav
448,192,19999,1,0,0:0:0:0:piano_002.wav
64,192,19999,1,0,0:0:0:0:dr_001.wav
320,192,20108,1,0,0:0:0:0:dr_004.wav
192,192,20217,1,0,0:0:0:0:va_r_004.wav
448,192,20217,1,0,0:0:0:0:piano_003.wav
320,192,20326,1,0,0:0:0:0:va_r_002.wav
448,192,20434,1,0,0:0:0:0:dr_001.wav
64,192,20434,1,0,0:0:0:0:piano_008.wav
192,192,20543,1,0,0:0:0:0:va_r_004.wav
320,192,20652,1,0,0:0:0:0:va_r_005.wav
192,192,20869,1,0,0:0:0:0:va_001.wav
64,192,20869,1,0,0:0:0:0:dr_001.wav
448,192,20978,1,0,0:0:0:0:va_001.wav
192,192,21086,1,0,0:0:0:0:piano_006.wav
64,192,21086,1,0,0:0:0:0:va_002.wav
320,192,21304,1,0,0:0:0:0:dr_001.wav
448,192,21304,1,0,0:0:0:0:va_003.wav
64,192,21413,1,0,0:0:0:0:va_003.wav
320,192,21521,1,0,0:0:0:0:va_004.wav
448,192,21521,1,0,0:0:0:0:dr_005.wav
192,192,21630,1,0,0:0:0:0:dr_002.wav
64,192,21739,1,0,0:0:0:0:va_005.wav
448,192,21739,1,0,0:0:0:0:piano_003.wav
192,192,21847,1,0,0:0:0:0:va_005.wav
448,192,21956,1,0,0:0:0:0:va_006.wav
320,192,21956,1,0,0:0:0:0:dr_005.wav
192,192,22065,1,0,0:0:0:0:dr_004.wav
320,192,22173,1,0,0:0:0:0:dr_001.wav
64,192,22173,1,0,0:0:0:0:piano_008.wav
448,192,22282,1,0,0:0:0:0:va_007.wav
320,192,22391,1,0,0:0:0:0:va_008.wav
192,192,22499,1,0,0:0:0:0:dr_002.wav
320,192,22608,1,0,0:0:0:0:dr_006sin.wav
448,192,22608,1,0,0:0:0:0:dr_001.wav
64,192,22608,1,0,0:0:0:0:va_r_001.wav
192,192,22717,1,0,0:0:0:0:va_r_001.wav
192,192,22826,1,0,0:0:0:0:va_r_002.wav
320,192,23043,1,0,0:0:0:0:va_r_003.wav
448,192,23043,1,0,0:0:0:0:piano_002.wav
192,192,23152,1,0,0:0:0:0:va_r_002.wav
448,192,23260,1,0,0:0:0:0:dr_005.wav
64,192,23260,1,0,0:0:0:0:piano_003.wav
320,192,23369,1,0,0:0:0:0:va_r_004.wav
192,192,23478,1,0,0:0:0:0:va_r_005.wav
448,192,23478,1,0,0:0:0:0:piano_004.wav
64,192,23586,1,0,0:0:0:0:dr_002.wav
192,192,23695,1,0,0:0:0:0:va_r_004.wav
448,192,23695,1,0,0:0:0:0:dr_005.wav
320,192,23804,1,0,0:0:0:0:va_r_002.wav
192,192,23913,1,0,0:0:0:0:dr_001.wav
64,192,23913,1,0,0:0:0:0:dr_002.wav
320,192,24021,1,0,0:0:0:0:va_r_004.wav
448,192,24130,1,0,0:0:0:0:va_r_005.wav
320,192,24347,1,0,0:0:0:0:va_l_001.wav
448,192,24347,1,0,0:0:0:0:dr_001.wav
192,192,24456,1,0,0:0:0:0:va_l_002.wav
448,192,24565,1,0,0:0:0:0:dr_005.wav
64,192,24565,1,0,0:0:0:0:va_l_003.wav
320,192,24673,1,0,0:0:0:0:va_l_004.wav
192,192,24782,1,0,0:0:0:0:va_l_001.wav
448,192,24782,1,0,0:0:0:0:piano_009.wav
320,192,24999,1,0,0:0:0:0:va_l_005.wav
64,192,24999,1,0,0:0:0:0:piano_005.wav
192,192,25108,1,0,0:0:0:0:va_l_001.wav
448,192,25217,1,0,0:0:0:0:dr_001.wav
64,192,25217,1,0,0:0:0:0:piano_006.wav
320,192,25326,1,0,0:0:0:0:va_l_001.wav
192,192,25434,1,0,0:0:0:0:va_l_002.wav
320,192,25652,1,0,0:0:0:0:piano_004.wav
448,192,25652,128,0,25869:0:0:0:0:va_l_006.wav
64,192,25869,1,0,0:0:0:0:va_l_004.wav
192,192,26086,1,0,0:0:0:0:dr_001.wav
448,192,26086,1,0,0:0:0:0:va_r_006.wav
64,192,26195,1,0,0:0:0:0:va_l_001.wav
320,192,26304,1,0,0:0:0:0:dr_005.wav
192,192,26413,1,0,0:0:0:0:va_r_006.wav
448,192,26521,1,0,0:0:0:0:piano_006.wav
64,192,26521,1,0,0:0:0:0:va_l_001.wav
192,192,26739,1,0,0:0:0:0:piano_005.wav
64,192,26739,1,0,0:0:0:0:va_r_006.wav
320,192,26847,1,0,0:0:0:0:va_l_001.wav
448,192,26956,1,0,0:0:0:0:dr_001.wav
64,192,26956,1,0,0:0:0:0:piano_009.wav
192,192,27065,1,0,0:0:0:0:va_r_006.wav
320,192,27173,1,0,0:0:0:0:va_l_001.wav
320,192,27391,1,0,0:0:0:0:piano_006.wav
448,192,27391,1,0,0:0:0:0:va_r_006.wav
64,192,27499,1,0,0:0:0:0:va_l_002.wav
192,192,27608,1,0,0:0:0:0:va_l_003.wav
320,192,27717,1,0,0:0:0:0:va_l_004.wav
448,192,27826,1,0,0:0:0:0:dr_001.wav
64,192,27826,1,0,0:0:0:0:piano_010.wav
192,192,27934,1,0,0:0:0:0:dr_002.wav
320,192,28043,1,0,0:0:0:0:dr_002.wav
192,192,28152,1,0,0:0:0:0:dr_002.wav
320,192,28260,1,0,0:0:0:0:dr_002.wav
448,192,28260,1,0,0:0:0:0:dr_001.wav
192,192,28369,1,0,0:0:0:0:dr_002.wav
64,192,28369,1,0,0:0:0:0:dr_001.wav
320,192,28478,1,0,0:0:0:0:dr_002.wav
448,192,28478,1,0,0:0:0:0:dr_001.wav
192,192,28586,1,0,0:0:0:0:dr_002.wav
64,192,28586,1,0,0:0:0:0:dr_001.wav
320,192,28695,1,0,0:0:0:0:dr_001.wav
448,192,28695,1,0,0:0:0:0:dr_002.wav
192,192,28768,1,0,0:0:0:0:dr_002.wav
64,192,28840,1,0,0:0:0:0:dr_002.wav
192,192,28913,1,0,0:0:0:0:dr_002.wav
320,192,28913,1,0,0:0:0:0:dr_001.wav
448,192,28985,1,0,0:0:0:0:dr_002.wav
320,192,29057,1,0,0:0:0:0:dr_002.wav
448,192,29130,1,0,0:0:0:0:dr_001.wav
64,192,29130,1,0,0:0:0:0:dr_002.wav
192,192,29202,1,0,0:0:0:0:dr_002.wav
320,192,29275,1,0,0:0:0:0:dr_002.wav
192,192,29347,1,0,0:0:0:0:dr_001.wav
64,192,29347,1,0,0:0:0:0:dr_002.wav
448,192,29420,1,0,0:0:0:0:dr_002.wav
320,192,29492,1,0,0:0:0:0:dr_002.wav
192,192,29565,1,0,0:0:0:0:dr_suzu.wav
448,192,29565,128,0,30869:0:0:0:0:pipe_001.wav
192,192,30869,128,0,31086:0:0:0:0:pipe_002.wav
320,192,31086,128,0,31304:0:0:0:0:pipe_003.wav
64,192,31304,128,0,32608:0:0:0:0:pipe_004.wav
320,192,32608,128,0,32826:0:0:0:0:pipe_005.wav
448,192,32826,128,0,33043:0:0:0:0:pipe_006.wav
192,192,33043,128,0,33695:0:0:0:0:pipe_007.wav
320,192,33695,128,0,33913:0:0:0:0:pipe_008.wav
64,192,33913,128,0,34130:0:0:0:0:pipe_005.wav
192,192,34130,128,0,34347:0:0:0:0:pipe_006.wav
320,192,34347,1,0,0:0:0:0:pipe_009.wav
448,192,34402,1,0,0:0:0:0:pipe_010.wav
192,192,34456,1,0,0:0:0:0:pipe_009.wav
64,192,34565,128,0,34782:0:0:0:0:pipe_011.wav
320,192,34782,128,0,34999:0:0:0:0:pipe_012.wav
448,192,34999,128,0,35217:0:0:0:0:pipe_008.wav
192,192,35217,1,0,0:0:0:0:zen_001.wav
64,192,35217,1,0,0:0:0:0:pipe_013.wav
448,192,35434,1,0,0:0:0:0:zen_002.wav
64,192,35434,1,0,0:0:0:0:pipe_002.wav
192,192,35652,1,0,0:0:0:0:zen_003.wav
320,192,35652,1,0,0:0:0:0:piano_r_001.wav
448,192,35869,1,0,0:0:0:0:dr_002.wav
64,192,35869,1,0,0:0:0:0:zen_004.wav
320,192,35942,1,0,0:0:0:0:dr_002.wav
192,192,36014,1,0,0:0:0:0:dr_002.wav
448,192,36086,1,0,0:0:0:0:zen_005.wav
64,192,36086,1,0,0:0:0:0:dr_002.wav
320,192,36195,1,0,0:0:0:0:dr_002.wav
192,192,36304,1,0,0:0:0:0:dr_002.wav
448,192,36304,1,0,0:0:0:0:zen_006.wav
64,192,36413,1,0,0:0:0:0:dr_002.wav
192,192,36521,1,0,0:0:0:0:piano_r_005.wav
320,192,36521,1,0,0:0:0:0:zen_007.wav
448,192,36521,1,0,0:0:0:0:dr_suzu.wav
448,192,36739,1,0,0:0:0:0:dr_005.wav
192,192,36956,1,0,0:0:0:0:dr_001.wav
64,192,36956,1,0,0:0:0:0:dr_002.wav
320,192,37065,1,0,0:0:0:0:dr_004.wav
448,192,37173,1,0,0:0:0:0:dr_005.wav
192,192,37282,1,0,0:0:0:0:dr_002.wav
320,192,37391,1,0,0:0:0:0:dr_003.wav
64,192,37391,1,0,0:0:0:0:dr_001.wav
192,192,37499,1,0,0:0:0:0:dr_002.wav
448,192,37499,1,0,0:0:0:0:dr_004.wav
320,192,37608,1,0,0:0:0:0:dr_005.wav
64,192,37717,1,0,0:0:0:0:dr_004.wav
192,192,37826,1,0,0:0:0:0:dr_001.wav
448,192,37826,1,0,0:0:0:0:dr_002.wav
320,192,37934,1,0,0:0:0:0:dr_004.wav
448,192,38043,1,0,0:0:0:0:dr_005.wav
448,192,38260,1,0,0:0:0:0:dr_003.wav
64,192,38260,1,0,0:0:0:0:dr_001.wav
192,192,38478,1,0,0:0:0:0:dr_005.wav
320,192,38695,1,0,0:0:0:0:dr_001.wav
64,192,38695,1,0,0:0:0:0:dr_002.wav
448,192,38804,1,0,0:0:0:0:dr_004.wav
192,192,38913,1,0,0:0:0:0:dr_005.wav
320,192,39021,1,0,0:0:0:0:dr_002.wav
192,192,39130,1,0,0:0:0:0:dr_003.wav
64,192,39130,1,0,0:0:0:0:dr_001.wav
320,192,39239,1,0,0:0:0:0:dr_002.wav
448,192,39239,1,0,0:0:0:0:dr_004.wav
192,192,39347,1,0,0:0:0:0:dr_005.wav
64,192,39456,1,0,0:0:0:0:dr_004.wav
192,192,39565,1,0,0:0:0:0:dr_002.wav
448,192,39565,1,0,0:0:0:0:pipe_005.wav
320,192,39673,1,0,0:0:0:0:dr_004.wav
192,192,39782,1,0,0:0:0:0:pipe_006.wav
64,192,39782,1,0,0:0:0:0:dr_005.wav
192,192,39999,1,0,0:0:0:0:dr_001.wav
448,192,39999,1,0,0:0:0:0:dr_003.wav
64,192,40217,1,0,0:0:0:0:dr_005.wav
320,192,40434,1,0,0:0:0:0:dr_003.wav
448,192,40434,1,0,0:0:0:0:dr_002.wav
192,192,40543,1,0,0:0:0:0:dr_004.wav
64,192,40652,1,0,0:0:0:0:dr_005.wav
320,192,40760,1,0,0:0:0:0:dr_002.wav
192,192,40869,1,0,0:0:0:0:dr_001.wav
448,192,40869,1,0,0:0:0:0:dr_003.wav
320,192,40978,1,0,0:0:0:0:dr_002.wav
64,192,40978,1,0,0:0:0:0:dr_004.wav
192,192,41086,1,0,0:0:0:0:dr_005.wav
448,192,41195,1,0,0:0:0:0:dr_004.wav
192,192,41304,1,0,0:0:0:0:dr_001.wav
64,192,41304,1,0,0:0:0:0:dr_002.wav
320,192,41413,1,0,0:0:0:0:dr_004.wav
448,192,41521,1,0,0:0:0:0:dr_005.wav
320,192,41739,1,0,0:0:0:0:dr_003.wav
64,192,41739,1,0,0:0:0:0:dr_001.wav
192,192,41956,1,0,0:0:0:0:dr_005.wav
448,192,42173,1,0,0:0:0:0:dr_002.wav
64,192,42173,1,0,0:0:0:0:dr_001.wav
192,192,42282,1,0,0:0:0:0:dr_004.wav
320,192,42391,1,0,0:0:0:0:dr_005.wav
448,192,42499,1,0,0:0:0:0:dr_002.wav
64,192,42608,1,0,0:0:0:0:dr_001.wav
192,192,42608,128,0,42717:0:0:0:0:piano_003.wav
448,192,42717,1,0,0:0:0:0:dr_002.wav
320,192,42717,128,0,42826:0:0:0:0:piano_005.wav
64,192,42826,128,0,42934:0:0:0:0:piano_002.wav
448,192,42934,128,0,43043:0:0:0:0:piano_001.wav
64,192,43043,1,0,0:0:0:0:dr_001.wav
192,192,43043,128,0,43152:0:0:0:0:piano_004.wav
320,192,43152,128,0,43260:0:0:0:0:piano_002.wav
448,192,43260,1,0,0:0:0:0:dr_005.wav
64,192,43260,128,0,43369:0:0:0:0:piano_007.wav
192,192,43369,128,0,43478:0:0:0:0:piano_008.wav
320,192,43478,1,0,0:0:0:0:dr_006sin.wav
448,192,43478,1,0,0:0:0:0:dr_003.wav
64,192,43478,1,0,0:0:0:0:piano_011.wav
64,192,43586,1,0,0:0:0:0:va_sqr_001.wav
192,192,43695,1,0,0:0:0:0:va_sqr_002.wav
448,192,43695,1,0,0:0:0:0:dr_005.wav
192,192,43913,1,0,0:0:0:0:va_sqr_003.wav
64,192,43913,1,0,0:0:0:0:dr_002.wav
448,192,44021,1,0,0:0:0:0:dr_004.wav
64,192,44130,1,0,0:0:0:0:va_sqr_002.wav
320,192,44130,1,0,0:0:0:70:dr_005.wav
192,192,44239,1,0,0:0:0:0:va_sqr_001.wav
320,192,44347,1,0,0:0:0:0:dr_001.wav
448,192,44347,1,0,0:0:0:70:dr_003.wav
64,192,44456,1,0,0:0:0:0:va_sqr_001.wav
192,192,44565,1,0,0:0:0:0:va_sqr_002.wav
448,192,44565,1,0,0:0:0:0:piano_011.wav
320,192,44673,1,0,0:0:0:0:dr_004.wav
448,192,44782,1,0,0:0:0:0:va_sqr_003.wav
64,192,44782,1,0,0:0:0:0:piano_012.wav
320,192,44891,1,0,0:0:0:0:dr_004.wav
192,192,44999,1,0,0:0:0:0:piano_011.wav
64,192,44999,1,0,0:0:0:0:va_sqr_002.wav
320,192,45217,1,0,0:0:0:0:piano_007.wav
448,192,45217,1,0,0:0:0:0:va_sqr_001.wav
448,192,45326,1,0,0:0:0:0:va_sqr_001.wav
192,192,45434,1,0,0:0:0:0:dr_005.wav
64,192,45434,1,0,0:0:0:0:va_sqr_002.wav
320,192,45652,1,0,0:0:0:0:va_sqr_003.wav
448,192,45652,1,0,0:0:0:70:dr_001.wav
192,192,45760,1,0,0:0:0:0:dr_004.wav
320,192,45869,1,0,0:0:0:0:va_sqr_002.wav
64,192,45869,1,0,0:0:0:0:dr_005.wav
448,192,45978,1,0,0:0:0:0:va_sqr_001.wav
192,192,46086,1,0,0:0:0:0:dr_001.wav
64,192,46086,1,0,0:0:0:70:dr_003.wav
320,192,46195,1,0,0:0:0:0:va_sqr_001.wav
448,192,46304,1,0,0:0:0:0:va_sqr_002.wav
64,192,46304,1,0,0:0:0:0:piano_007.wav
192,192,46413,1,0,0:0:0:0:dr_004.wav
320,192,46521,1,0,0:0:0:0:piano_008.wav
64,192,46521,1,0,0:0:0:0:va_sqr_003.wav
192,192,46630,1,0,0:0:0:0:dr_004.wav
320,192,46739,1,0,0:0:0:0:piano_002.wav
448,192,46739,1,0,0:0:0:0:va_sqr_002.wav
192,192,46956,1,0,0:0:0:0:va_sqr_001.wav
64,192,46956,1,0,0:0:0:0:piano_001.wav
192,192,47065,1,0,0:0:0:0:va_sqr_001.wav
320,192,47173,1,0,0:0:0:0:va_sqr_002.wav
448,192,47173,1,0,0:0:0:0:dr_005.wav
192,192,47391,1,0,0:0:0:0:va_sqr_003.wav
64,192,47391,1,0,0:0:0:0:dr_001.wav
320,192,47499,1,0,0:0:0:0:dr_004.wav
192,192,47608,1,0,0:0:0:0:piano_002.wav
448,192,47608,1,0,0:0:0:0:va_sqr_002.wav
64,192,47717,1,0,0:0:0:0:va_sqr_001.wav
320,192,47826,1,0,0:0:0:0:piano_001.wav
448,192,47826,1,0,0:0:0:0:dr_001.wav
192,192,47934,1,0,0:0:0:0:va_sqr_001.wav
64,192,48043,1,0,0:0:0:0:piano_005.wav
448,192,48043,1,0,0:0:0:0:va_sqr_002.wav
192,192,48152,1,0,0:0:0:0:dr_004.wav
448,192,48260,1,0,0:0:0:0:piano_009.wav
320,192,48260,1,0,0:0:0:0:va_sqr_003.wav
192,192,48369,1,0,0:0:0:0:dr_004.wav
64,192,48478,1,0,0:0:0:0:va_sqr_002.wav
320,192,48478,1,0,0:0:0:0:piano_013.wav
192,192,48695,1,0,0:0:0:0:piano_009.wav
64,192,48695,1,0,0:0:0:0:va_sqr_001.wav
64,192,48804,1,0,0:0:0:0:va_sqr_001.wav
320,192,48913,1,0,0:0:0:0:piano_013.wav
448,192,48913,1,0,0:0:0:0:va_sqr_002.wav
192,192,49021,1,0,0:0:0:0:piano_009.wav
448,192,49130,1,0,0:0:0:0:va_sqr_003.wav
64,192,49130,1,0,0:0:0:0:piano_001.wav
64,192,49347,1,0,0:0:0:0:piano_002.wav
320,192,49347,1,0,0:0:0:0:va_sqr_002.wav
448,192,49456,1,0,0:0:0:0:dr_002.wav
192,192,49456,1,0,0:0:0:0:va_sqr_001.wav
320,192,49565,1,0,0:0:0:0:piano_001.wav
64,192,49673,1,0,0:0:0:0:dr_002.wav
192,192,49673,1,0,0:0:0:0:va_sqr_001.wav
448,192,49782,1,0,0:0:0:0:va_sqr_002.wav
320,192,49782,1,0,0:0:0:0:dr_005.wav
192,192,49999,1,0,0:0:0:0:va_sqr_003.wav
64,192,49999,1,0,0:0:0:0:piano_001.wav
320,192,50108,1,0,0:0:0:0:piano_005.wav
448,192,50217,1,0,0:0:0:0:piano_009.wav
64,192,50217,1,0,0:0:0:0:va_sqr_002.wav
320,192,50326,1,0,0:0:0:0:piano_013.wav
192,192,50434,1,0,0:0:0:0:piano_001.wav
448,192,50434,1,0,0:0:0:0:va_sqr_001.wav
64,192,50434,1,0,0:0:0:0:dr_suzu_s.wav
448,192,50543,1,0,0:0:0:0:va_sqr_001.wav
192,192,50652,1,0,0:0:0:0:va_sqr_002.wav
64,192,50652,1,0,0:0:0:0:dr_005.wav
448,192,50869,1,0,0:0:0:0:dr_002.wav
64,192,50869,1,0,0:0:0:0:va_sqr_003.wav
192,192,51086,1,0,0:0:0:0:dr_005.wav
320,192,51086,1,0,0:0:0:0:va_sqr_002.wav
448,192,51195,1,0,0:0:0:0:va_sqr_001.wav
320,192,51304,1,0,0:0:0:0:dr_003.wav
64,192,51304,1,0,0:0:0:0:dr_001.wav
192,192,51413,1,0,0:0:0:0:va_sqr_001.wav
448,192,51521,1,0,0:0:0:0:dr_005.wav
64,192,51521,1,0,0:0:0:0:va_sqr_002.wav
320,192,51739,1,0,0:0:0:0:piano_001.wav
448,192,51739,1,0,0:0:0:0:va_sqr_003.wav
192,192,51847,1,0,0:0:0:0:piano_005.wav
320,192,51956,1,0,0:0:0:0:piano_009.wav
64,192,51956,1,0,0:0:0:0:va_sqr_002.wav
192,192,52065,1,0,0:0:0:0:piano_013.wav
320,192,52173,1,0,0:0:0:0:dr_suzu.wav
448,192,52173,1,0,0:0:0:0:dr_001.wav
64,192,52173,1,0,0:0:0:0:va_sqr_001.wav
192,192,52282,1,0,0:0:0:0:va_sqr_001.wav
320,192,52391,1,0,0:0:0:0:dr_005.wav
64,192,52391,1,0,0:0:0:0:va_sqr_002.wav
192,192,52608,1,0,0:0:0:0:va_sqr_003.wav
448,192,52608,1,0,0:0:0:0:dr_001.wav
320,192,52717,1,0,0:0:0:0:dr_004.wav
192,192,52826,1,0,0:0:0:0:dr_005.wav
64,192,52826,1,0,0:0:0:0:va_sqr_002.wav
320,192,52934,1,0,0:0:0:0:va_sqr_001.wav
448,192,53043,1,0,0:0:0:0:dr_001.wav
64,192,53043,1,0,0:0:0:0:dr_003.wav
320,192,53152,1,0,0:0:0:0:va_sqr_001.wav
192,192,53260,1,0,0:0:0:0:dr_005.wav
448,192,53260,1,0,0:0:0:0:va_sqr_002.wav
192,192,53478,1,0,0:0:0:0:piano_001.wav
64,192,53478,1,0,0:0:0:0:dr_002.wav
320,192,53586,1,0,0:0:0:0:piano_005.wav
448,192,53695,1,0,0:0:0:0:va_sqr_002.wav
64,192,53695,1,0,0:0:0:0:piano_009.wav
320,192,53804,1,0,0:0:0:0:piano_013.wav
192,192,53913,1,0,0:0:0:0:va_sqr_001.wav
448,192,53913,1,0,0:0:0:0:piano_001.wav
64,192,53913,1,0,0:0:0:0:dr_suzu_s.wav
320,192,54021,1,0,0:0:0:0:va_sqr_001.wav
192,192,54130,1,0,0:0:0:0:va_sqr_002.wav
448,192,54130,1,0,0:0:0:0:dr_005.wav
320,192,54347,1,0,0:0:0:0:dr_001.wav
64,192,54347,1,0,0:0:0:0:va_sqr_003.wav
192,192,54456,1,0,0:0:0:0:dr_004.wav
448,192,54565,1,0,0:0:0:0:piano_002.wav
64,192,54565,1,0,0:0:0:0:va_sqr_002.wav
192,192,54673,1,0,0:0:0:0:va_sqr_001.wav
320,192,54782,1,0,0:0:0:0:piano_001.wav
448,192,54782,1,0,0:0:0:0:dr_001.wav
64,192,54891,1,0,0:0:0:0:va_sqr_001.wav
192,192,54999,1,0,0:0:0:0:piano_005.wav
320,192,54999,1,0,0:0:0:0:va_sqr_002.wav
192,192,55217,1,0,0:0:0:0:va_sqr_003.wav
64,192,55217,1,0,0:0:0:0:piano_009.wav
192,192,55434,1,0,0:0:0:0:piano_013.wav
448,192,55434,1,0,0:0:0:0:va_sqr_002.wav
320,192,55652,1,0,0:0:0:0:va_sqr_001.wav
448,192,55652,1,0,0:0:0:0:dr_suzu.wav
64,192,55652,1,0,0:0:0:0:dr_001.wav
192,192,55760,1,0,0:0:0:0:piano_013.wav
64,192,55760,1,0,0:0:0:0:va_sqr_001.wav
320,192,55869,1,0,0:0:0:0:piano_009.wav
448,192,55869,1,0,0:0:0:0:va_sqr_002.wav
320,192,56086,1,0,0:0:0:0:va_sqr_003.wav
64,192,56086,1,0,0:0:0:0:piano_005.wav
192,192,56195,1,0,0:0:0:0:dr_004.wav
320,192,56304,1,0,0:0:0:0:va_sqr_002.wav
64,192,56304,1,0,0:0:0:0:piano_009.wav
192,192,56413,1,0,0:0:0:0:piano_013.wav
448,192,56413,1,0,0:0:0:0:va_sqr_001.wav
64,192,56521,1,0,0:0:0:0:dr_001.wav
320,192,56630,1,0,0:0:0:0:piano_014.wav
448,192,56630,1,0,0:0:0:0:va_sqr_001.wav
192,192,56739,1,0,0:0:0:0:va_sqr_002.wav
64,192,56739,1,0,0:0:0:0:piano_013.wav
192,192,56956,1,0,0:0:0:0:piano_001.wav
448,192,56956,1,0,0:0:0:0:dr_006sin.wav
64,192,56956,1,0,0:0:0:0:va_sqr_003.wav
320,192,57065,1,0,0:0:0:0:piano_005.wav
448,192,57173,1,0,0:0:0:0:piano_009.wav
192,192,57282,1,0,0:0:0:0:piano_013.wav
320,192,57391,1,0,0:0:0:0:piano_001.wav
448,192,57391,1,0,0:0:0:0:dr_suzu_s.wav
64,192,57391,1,0,0:0:0:0:va_sqr_001.wav
192,192,57499,1,0,0:0:0:0:va_sqr_001.wav
320,192,57608,1,0,0:0:0:0:va_sqr_002.wav
448,192,57608,1,0,0:0:0:0:dr_005.wav
448,192,57826,1,0,0:0:0:0:dr_002.wav
64,192,57826,1,0,0:0:0:0:va_sqr_003.wav
192,192,57934,1,0,0:0:0:0:dr_004.wav
320,192,58043,1,0,0:0:0:0:va_sqr_002.wav
448,192,58152,1,0,0:0:0:0:va_sqr_001.wav
192,192,58260,1,0,0:0:0:0:dr_003.wav
64,192,58260,1,0,0:0:0:0:dr_001.wav
320,192,58369,1,0,0:0:0:0:va_sqr_001.wav
192,192,58478,1,0,0:0:0:0:dr_005.wav
448,192,58478,1,0,0:0:0:0:va_sqr_002.wav
320,192,58695,1,0,0:0:0:0:va_sqr_003.wav
64,192,58695,1,0,0:0:0:0:piano_001.wav
448,192,58804,1,0,0:0:0:0:piano_005.wav
192,192,58913,1,0,0:0:0:0:piano_009.wav
320,192,58913,1,0,0:0:0:0:va_sqr_002.wav
64,192,59021,1,0,0:0:0:0:piano_013.wav
192,192,59130,1,0,0:0:0:0:piano_001.wav
320,192,59130,1,0,0:0:0:0:dr_suzu.wav
448,192,59130,1,0,0:0:0:0:dr_001.wav
64,192,59239,1,0,0:0:0:0:va_sqr_001.wav
192,192,59347,1,0,0:0:0:0:va_sqr_002.wav
320,192,59347,1,0,0:0:0:0:dr_005.wav
448,192,59565,1,0,0:0:0:0:dr_001.wav
64,192,59565,1,0,0:0:0:0:va_sqr_003.wav
192,192,59673,1,0,0:0:0:0:dr_004.wav
320,192,59782,1,0,0:0:0:0:dr_005.wav
448,192,59782,1,0,0:0:0:0:va_sqr_002.wav
192,192,59891,1,0,0:0:0:0:va_sqr_001.wav
320,192,59999,1,0,0:0:0:0:dr_003.wav
64,192,59999,1,0,0:0:0:0:dr_001.wav
448,192,60108,1,0,0:0:0:0:va_sqr_001.wav
192,192,60217,1,0,0:0:0:0:va_sqr_002.wav
64,192,60217,1,0,0:0:0:0:dr_005.wav
320,192,60434,1,0,0:0:0:0:piano_002.wav
448,192,60434,1,0,0:0:0:0:va_sqr_003.wav
320,192,60652,1,0,0:0:0:0:va_sqr_002.wav
64,192,60652,1,0,0:0:0:0:dr_005.wav
192,192,60869,1,0,0:0:0:0:dr_suzu_s.wav
448,192,60869,1,0,0:0:0:0:piano_001.wav
64,192,60869,1,0,0:0:0:0:va_sqr_001.wav
320,192,60978,1,0,0:0:0:0:dr_002.wav
192,192,61086,1,0,0:0:0:0:dr_005.wav
64,192,61195,1,0,0:0:0:0:dr_002.wav
192,192,61304,1,0,0:0:0:0:dr_002.wav
448,192,61304,1,0,0:0:0:0:dr_001.wav
320,192,61413,1,0,0:0:0:0:dr_002.wav
192,192,61521,1,0,0:0:0:0:dr_002.wav
64,192,61630,1,0,0:0:0:0:dr_002.wav
320,192,61739,1,0,0:0:0:0:dr_001.wav
448,192,61739,1,0,0:0:0:0:dr_002.wav
192,192,61847,1,0,0:0:0:0:dr_002.wav
320,192,61956,1,0,0:0:0:0:dr_002.wav
448,192,62065,1,0,0:0:0:0:dr_002.wav
192,192,62173,1,0,0:0:0:0:dr_002.wav
64,192,62173,1,0,0:0:0:0:dr_001.wav
448,192,62282,1,0,0:0:0:0:dr_002.wav
320,192,62391,1,0,0:0:0:0:dr_002.wav
192,192,62499,1,0,0:0:0:0:dr_002.wav
448,192,62608,1,0,0:0:0:0:dr_006sin.wav
64,192,62608,1,0,0:0:0:0:dr_002.wav
192,192,62681,1,0,0:0:0:0:dr_002.wav
320,192,62753,1,0,0:0:0:0:dr_002.wav
448,192,62826,1,0,0:0:0:0:dr_002.wav
320,192,62898,1,0,0:0:0:0:dr_002.wav
192,192,62971,1,0,0:0:0:0:dr_002.wav
448,192,63043,1,0,0:0:0:0:dr_001.wav
64,192,63043,1,0,0:0:0:0:dr_002.wav
320,192,63115,1,0,0:0:0:0:dr_002.wav
192,192,63188,1,0,0:0:0:0:dr_002.wav
64,192,63260,1,0,0:0:0:0:dr_002.wav
192,192,63333,1,0,0:0:0:0:dr_002.wav
320,192,63405,1,0,0:0:0:0:dr_002.wav
448,192,63478,1,0,0:0:0:0:dr_001.wav
64,192,63478,1,0,0:0:0:0:dr_002.wav
192,192,63550,1,0,0:0:0:0:dr_002.wav
320,192,63623,1,0,0:0:0:0:dr_002.wav
192,192,63695,1,0,0:0:0:0:dr_001.wav
64,192,63695,1,0,0:0:0:0:dr_002.wav
448,192,63768,1,0,0:0:0:0:dr_002.wav
320,192,63840,1,0,0:0:0:0:dr_002.wav
448,192,63913,1,0,0:0:0:0:dr_002.wav
64,192,63913,1,0,0:0:0:0:dr_001.wav
192,192,63985,1,0,0:0:0:0:dr_002.wav
320,192,64057,1,0,0:0:0:0:dr_002.wav
192,192,64130,1,0,0:0:0:0:dr_002.wav
448,192,64130,1,0,0:0:0:0:dr_001.wav
64,192,64202,1,0,0:0:0:0:dr_002.wav
320,192,64275,1,0,0:0:0:0:dr_002.wav
192,192,64347,1,0,0:0:0:0:orgel_013.wav
448,192,64347,1,0,0:0:0:0:dr_wind.wav
64,192,64347,128,0,64999:0:0:0:0:pipe_025.wav
448,192,64565,1,0,0:0:0:0:orgel_015.wav
192,192,64782,1,0,0:0:0:0:orgel_018.wav
448,192,64999,1,0,0:0:0:0:orgel_015.wav
320,192,64999,128,0,65108:0:0:0:0:pipe_021.wav
192,192,65108,128,0,65217:0:0:0:0:pipe_021.wav
64,192,65217,128,0,65434:0:0:0:0:pipe_022.wav
192,192,65434,1,0,0:0:0:0:orgel_003.wav
320,192,65434,128,0,65652:0:0:0:0:pipe_023.wav
448,192,65652,1,0,0:0:0:0:orgel_018.wav
64,192,65652,128,0,65869:0:0:0:0:pipe_024.wav
320,192,65869,1,0,0:0:0:0:orgel_015.wav
192,192,65869,128,0,66086:0:0:0:0:pipe_023.wav
448,192,66086,1,0,0:0:0:0:orgel_013.wav
64,192,66086,128,0,66739:0:0:0:0:pipe_025.wav
320,192,66304,1,0,0:0:0:0:orgel_015.wav
192,192,66521,1,0,0:0:0:0:orgel_018.wav
448,192,66739,1,0,0:0:0:0:piano_011.wav
320,192,66739,128,0,66847:0:0:0:0:pipe_026.wav
192,192,66847,128,0,66956:0:0:0:0:pipe_027.wav
64,192,66956,128,0,67173:0:0:0:0:pipe_008.wav
320,192,67173,1,0,0:0:0:0:orgel_003.wav
448,192,67173,128,0,67391:0:0:0:0:pipe_028.wav
192,192,67391,1,0,0:0:0:0:orgel_018.wav
64,192,67391,128,0,67608:0:0:0:0:pipe_008.wav
320,192,67608,1,0,0:0:0:0:orgel_015.wav
192,192,67608,128,0,67826:0:0:0:0:pipe_005.wav
64,192,67826,1,0,0:0:0:0:orgel_013.wav
448,192,67826,128,0,68478:0:0:0:0:pipe_029.wav
320,192,68043,1,0,0:0:0:0:orgel_015.wav
192,192,68260,1,0,0:0:0:0:orgel_018.wav
320,192,68478,1,0,0:0:0:0:pipe_030.wav
64,192,68478,1,0,0:0:0:0:orgel_015.wav
192,192,68532,1,0,0:0:0:0:pipe_031.wav
64,192,68586,1,0,0:0:0:0:pipe_032.wav
320,192,68695,128,0,68913:0:0:0:0:pipe_006.wav
64,192,68913,1,0,0:0:0:0:orgel_003.wav
192,192,68913,128,0,69130:0:0:0:0:pipe_002.wav
320,192,69130,1,0,0:0:0:0:orgel_018.wav
448,192,69130,128,0,69347:0:0:0:0:pipe_033.wav
192,192,69347,1,0,0:0:0:0:orgel_015.wav
320,192,69347,128,0,69565:0:0:0:0:pipe_020.wav
448,192,69565,1,0,0:0:0:0:orgel_003.wav
64,192,69565,128,0,69782:0:0:0:0:pipe_019.wav
192,192,69782,128,0,69999:0:0:0:0:pipe_034.wav
320,192,69999,128,0,70217:0:0:0:0:pipe_035.wav
192,192,70217,1,0,0:0:0:0:vasr_001.wav
192,192,70326,1,0,0:0:0:0:vasr_001.wav
320,192,70434,1,0,0:0:0:0:vasr_002.wav
448,192,70652,1,0,0:0:0:0:dr_002.wav
64,192,70652,1,0,0:0:0:0:vasr_003.wav
320,192,70724,1,0,0:0:0:0:dr_002.wav
192,192,70797,1,0,0:0:0:0:dr_002.wav
448,192,70869,1,0,0:0:0:0:dr_002.wav
64,192,70869,1,0,0:0:0:0:vasr_004.wav
320,192,70978,1,0,0:0:0:0:dr_002.wav
192,192,71086,1,0,0:0:0:0:vasr_003.wav
448,192,71086,1,0,0:0:0:0:dr_002.wav
64,192,71195,1,0,0:0:0:0:dr_002.wav
192,192,71304,1,0,0:0:0:0:vasr_005.wav
320,192,71304,1,0,0:0:0:0:dr_006sin.wav
448,192,71304,1,0,0:0:0:0:piano_011.wav
64,192,71521,1,0,0:0:0:0:dr_005.wav
192,192,71739,1,0,0:0:0:0:dr_002.wav
448,192,71739,1,0,0:0:0:0:dr_001.wav
64,192,71956,1,0,0:0:0:0:vasr_001.wav
64,192,72065,1,0,0:0:0:0:vasr_001.wav
320,192,72173,1,0,0:0:0:0:vasr_002.wav
448,192,72173,1,0,0:0:0:0:dr_001.wav
192,192,72282,1,0,0:0:0:0:dr_002.wav
64,192,72391,1,0,0:0:0:0:vasr_003.wav
448,192,72391,1,0,0:0:0:0:dr_005.wav
320,192,72608,1,0,0:0:0:0:vasr_004.wav
192,192,72608,1,0,0:0:0:0:dr_002.wav
448,192,72826,1,0,0:0:0:0:vasr_003.wav
320,192,72934,1,0,0:0:0:0:dr_005.wav
192,192,73043,1,0,0:0:0:0:piano_007.wav
448,192,73043,1,0,0:0:0:0:vasr_005.wav
64,192,73260,1,0,0:0:0:0:dr_005.wav
320,192,73478,1,0,0:0:0:0:piano_008.wav
448,192,73478,1,0,0:0:0:0:dr_001.wav
64,192,73695,1,0,0:0:0:0:vasl_001.wav
192,192,73804,1,0,0:0:0:0:vasl_002.wav
320,192,73913,1,0,0:0:0:0:vasl_003.wav
448,192,73913,1,0,0:0:0:0:piano_002.wav
192,192,74021,1,0,0:0:0:0:dr_002.wav
320,192,74130,1,0,0:0:0:0:vasl_004.wav
64,192,74130,1,0,0:0:0:0:dr_005.wav
192,192,74347,1,0,0:0:0:0:vasl_003.wav
448,192,74347,1,0,0:0:0:0:piano_001.wav
64,192,74347,1,0,0:0:0:0:dr_suzu_s.wav
320,192,74565,1,0,0:0:0:0:vasl_005.wav
192,192,74673,1,0,0:0:0:0:dr_005.wav
64,192,74782,1,0,0:0:0:0:piano_008.wav
448,192,74782,128,0,75434:0:0:0:0:vasl_006.wav
192,192,74999,1,0,0:0:0:0:dr_005.wav
320,192,75217,1,0,0:0:0:0:dr_002.wav
64,192,75217,1,0,0:0:0:0:dr_001.wav
64,192,75434,1,0,0:0:0:0:vasl_007.wav
192,192,75489,1,0,0:0:0:0:vasl_008.wav
320,192,75543,1,0,0:0:0:0:vasl_009.wav
64,192,75543,1,0,0:0:0:0:dr_002.wav
192,192,75652,1,0,0:0:0:0:dr_001.wav
448,192,75652,1,0,0:0:0:0:vasl_010.wav
320,192,75760,1,0,0:0:0:0:dr_002.wav
192,192,75869,1,0,0:0:0:0:piano_005.wav
64,192,75869,1,0,0:0:0:0:vasl_011.wav
320,192,76086,1,0,0:0:0:0:piano_001.wav
448,192,76086,1,0,0:0:0:0:vasl_012.wav
192,192,76304,1,0,0:0:0:0:vasl_013.wav
64,192,76304,1,0,0:0:0:0:piano_002.wav
192,192,76521,1,0,0:0:0:0:vasl_014.wav
448,192,76521,1,0,0:0:0:0:piano_001.wav
320,192,76739,1,0,0:0:0:0:dr_005.wav
64,192,76739,1,0,0:0:0:0:vasl_013.wav
192,192,76956,1,0,0:0:0:0:dr_002.wav
448,192,76956,1,0,0:0:0:0:vasl_015.wav
64,192,77173,1,0,0:0:0:0:vasr_001.wav
64,192,77282,1,0,0:0:0:0:vasr_001.wav
448,192,77391,1,0,0:0:0:0:dr_001.wav
320,192,77391,1,0,0:0:0:0:vasr_002.wav
192,192,77499,1,0,0:0:0:0:dr_002.wav
320,192,77608,1,0,0:0:0:0:vasr_003.wav
64,192,77608,1,0,0:0:0:0:dr_005.wav
192,192,77826,1,0,0:0:0:0:dr_002.wav
320,192,77826,1,0,0:0:0:0:dr_suzu_s.wav
448,192,77826,1,0,0:0:0:0:dr_001.wav
64,192,78043,1,0,0:0:0:0:dr_005.wav
192,192,78043,1,0,0:0:0:0:vasr_003.wav
320,192,78152,1,0,0:0:0:0:dr_005.wav
192,192,78260,1,0,0:0:0:0:vasr_005.wav
64,192,78260,1,0,0:0:0:0:piano_001.wav
448,192,78260,1,0,0:0:0:0:dr_suzu.wav
448,192,78478,1,0,0:0:0:0:dr_005.wav
64,192,78695,1,0,0:0:0:0:dr_002.wav
320,192,78695,1,0,0:0:0:0:dr_001.wav
192,192,78913,1,0,0:0:0:0:vasr_001.wav
192,192,79021,1,0,0:0:0:0:vasr_001.wav
320,192,79130,1,0,0:0:0:0:vasr_002.wav
448,192,79130,1,0,0:0:0:0:dr_001.wav
192,192,79239,1,0,0:0:0:0:dr_002.wav
64,192,79239,1,0,0:0:0:0:dr_004.wav
320,192,79347,1,0,0:0:0:0:vasr_003.wav
448,192,79347,1,0,0:0:0:70:dr_005.wav
192,192,79565,1,0,0:0:0:0:vasr_004.wav
448,192,79565,1,0,0:0:0:0:piano_002.wav
320,192,79782,1,0,0:0:0:0:piano_001.wav
64,192,79782,1,0,0:0:0:0:vasr_003.wav
192,192,79891,1,0,0:0:0:0:dr_005.wav
320,192,79999,1,0,0:0:0:0:vasr_005.wav
448,192,79999,1,0,0:0:0:0:piano_004.wav
192,192,80217,1,0,0:0:0:0:dr_005.wav
320,192,80434,1,0,0:0:0:0:dr_002.wav
64,192,80434,1,0,0:0:0:0:dr_001.wav
448,192,80652,1,0,0:0:0:0:vasl_001.wav
320,192,80760,1,0,0:0:0:0:vasl_002.wav
192,192,80869,1,0,0:0:0:0:vasl_003.wav
64,192,80869,1,0,0:0:0:0:dr_001.wav
320,192,80978,1,0,0:0:0:0:dr_002.wav
192,192,81086,1,0,0:0:0:0:vasl_004.wav
448,192,81086,1,0,0:0:0:0:dr_005.wav
320,192,81304,1,0,0:0:0:0:piano_007.wav
64,192,81304,1,0,0:0:0:0:vasl_003.wav
320,192,81521,1,0,0:0:0:0:piano_004.wav
448,192,81521,1,0,0:0:0:0:vasl_005.wav
192,192,81630,1,0,0:0:0:0:dr_005.wav
448,192,81739,1,0,0:0:0:0:piano_011.wav
64,192,81739,1,0,0:0:0:0:vasl_006.wav
320,192,81956,1,0,0:0:0:0:dr_005.wav
192,192,82173,1,0,0:0:0:0:dr_001.wav
448,192,82173,1,0,0:0:0:0:dr_002.wav
64,192,82391,1,0,0:0:0:0:vasl_007.wav
192,192,82445,1,0,0:0:0:0:vasl_008.wav
320,192,82499,1,0,0:0:0:0:vasl_009.wav
448,192,82499,1,0,0:0:0:0:dr_002.wav
192,192,82608,1,0,0:0:0:0:dr_001.wav
64,192,82608,1,0,0:0:0:0:vasl_010.wav
320,192,82717,1,0,0:0:0:0:dr_002.wav
192,192,82826,1,0,0:0:0:0:dr_005.wav
448,192,82826,1,0,0:0:0:0:vasl_011.wav
320,192,83043,1,0,0:0:0:0:vasl_012.wav
64,192,83043,1,0,0:0:0:0:piano_012.wav
192,192,83260,1,0,0:0:0:0:vasl_013.wav
448,192,83260,1,0,0:0:0:0:dr_005.wav
320,192,83369,1,0,0:0:0:0:dr_005.wav
448,192,83478,1,0,0:0:0:0:piano_011.wav
64,192,83478,1,0,0:0:0:0:vasl_014.wav
192,192,83695,1,0,0:0:0:0:vasl_013.wav
320,192,83695,1,0,0:0:0:0:dr_005.wav
320,192,83913,1,0,0:0:0:0:dr_001.wav
64,192,83913,1,0,0:0:0:0:vasl_015.wav
448,192,84130,1,0,0:0:0:0:vasr_001.wav
448,192,84239,1,0,0:0:0:0:vasr_001.wav
192,192,84347,1,0,0:0:0:0:vasr_002.wav
64,192,84347,1,0,0:0:0:0:dr_001.wav
448,192,84565,1,0,0:0:0:0:vasr_003.wav
64,192,84565,1,0,0:0:0:0:dr_002.wav
192,192,84637,1,0,0:0:0:0:dr_002.wav
320,192,84710,1,0,0:0:0:0:dr_002.wav
448,192,84782,1,0,0:0:0:0:dr_002.wav
64,192,84782,1,0,0:0:0:0:vasr_004.wav
320,192,84891,1,0,0:0:0:0:dr_002.wav
192,192,84999,1,0,0:0:0:0:vasr_003.wav
64,192,84999,1,0,0:0:0:0:dr_002.wav
320,192,85217,1,0,0:0:0:0:dr_suzu.wav
448,192,85217,1,0,0:0:0:0:vasr_005.wav
64,192,85217,1,0,0:0:0:0:piano_011.wav
192,192,85434,1,0,0:0:0:0:dr_005.wav
320,192,85652,1,0,0:0:0:0:dr_007crap.wav
448,192,85652,1,0,0:0:0:0:dr_001.wav
64,192,85869,1,0,0:0:0:0:vasr_001.wav
64,192,85978,1,0,0:0:0:0:vasr_001.wav
448,192,86086,1,0,0:0:0:0:dr_001.wav
320,192,86086,1,0,0:0:0:0:vasr_002.wav
192,192,86195,1,0,0:0:0:0:dr_002.wav
64,192,86304,1,0,0:0:0:0:vasr_003.wav
448,192,86304,1,0,0:0:0:0:dr_005.wav
192,192,86521,1,0,0:0:0:0:dr_007crap.wav
320,192,86521,1,0,0:0:0:0:vasr_004.wav
192,192,86739,1,0,0:0:0:0:dr_005.wav
64,192,86739,1,0,0:0:0:0:vasr_003.wav
192,192,86956,1,0,0:0:0:0:vasr_005.wav
448,192,86956,1,0,0:0:0:0:piano_007.wav
320,192,87173,1,0,0:0:0:0:dr_005.wav
448,192,87391,1,0,0:0:0:0:dr_007crap.wav
64,192,87391,1,0,0:0:0:0:piano_008.wav
192,192,87608,1,0,0:0:0:0:vasl_001.wav
320,192,87717,1,0,0:0:0:0:vasl_002.wav
448,192,87826,1,0,0:0:0:0:vasl_003.wav
64,192,87826,1,0,0:0:0:0:piano_002.wav
320,192,87934,1,0,0:0:0:0:dr_002.wav
192,192,88043,1,0,0:0:0:0:dr_005.wav
64,192,88043,1,0,0:0:0:0:vasl_004.wav
320,192,88260,1,0,0:0:0:0:vasl_003.wav
448,192,88260,1,0,0:0:0:0:dr_suzu_s.wav
64,192,88260,1,0,0:0:0:0:piano_001.wav
192,192,88478,1,0,0:0:0:0:dr_005.wav
320,192,88478,1,0,0:0:0:0:vasl_005.wav
192,192,88695,1,0,0:0:0:0:piano_008.wav
448,192,88695,1,0,0:0:0:0:vasl_006.wav
64,192,88913,1,0,0:0:0:0:dr_005.wav
192,192,89130,1,0,0:0:0:0:dr_002.wav
320,192,89130,1,0,0:0:0:0:dr_007crap.wav
448,192,89347,1,0,0:0:0:0:vasl_007.wav
320,192,89402,1,0,0:0:0:0:vasl_008.wav
192,192,89456,1,0,0:0:0:0:vasl_009.wav
448,192,89565,1,0,0:0:0:0:dr_001.wav
64,192,89565,1,0,0:0:0:0:vasl_010.wav
192,192,89673,1,0,0:0:0:0:dr_002.wav
320,192,89782,1,0,0:0:0:0:vasl_011.wav
192,192,89999,1,0,0:0:0:0:piano_001.wav
448,192,89999,1,0,0:0:0:0:dr_007crap.wav
64,192,89999,1,0,0:0:0:0:vasl_012.wav
192,192,90217,1,0,0:0:0:0:piano_002.wav
320,192,90217,1,0,0:0:0:0:vasl_013.wav
448,192,90434,1,0,0:0:0:0:vasl_014.wav
64,192,90434,1,0,0:0:0:0:piano_001.wav
192,192,90652,1,0,0:0:0:0:vasl_013.wav
448,192,90869,1,0,0:0:0:0:dr_007crap.wav
64,192,90869,1,0,0:0:0:0:vasl_015.wav
320,192,91086,1,0,0:0:0:0:vasr_001.wav
320,192,91195,1,0,0:0:0:0:vasr_001.wav
448,192,91304,1,0,0:0:0:0:vasr_002.wav
64,192,91304,1,0,0:0:0:0:dr_001.wav
192,192,91413,1,0,0:0:0:0:dr_002.wav
320,192,91521,1,0,0:0:0:0:dr_005.wav
448,192,91521,1,0,0:0:0:0:vasr_003.wav
320,192,91739,1,0,0:0:0:0:vasr_004.wav
448,192,91739,1,0,0:0:0:0:dr_suzu_s.wav
192,192,91739,1,0,0:0:0:0:dr_003.wav
192,192,91956,1,0,0:0:0:0:dr_005.wav
64,192,91956,1,0,0:0:0:0:vasr_003.wav
320,192,92173,1,0,0:0:0:0:vasr_005.wav
448,192,92173,1,0,0:0:0:0:piano_001.wav
64,192,92173,1,0,0:0:0:0:dr_suzu.wav
192,192,92391,1,0,0:0:0:0:dr_005.wav
320,192,92608,1,0,0:0:0:0:dr_001.wav
448,192,92608,1,0,0:0:0:0:dr_007crap.wav
64,192,92826,1,0,0:0:0:0:vasr_001.wav
64,192,92934,1,0,0:0:0:0:vasr_001.wav
448,192,93043,1,0,0:0:0:0:dr_001.wav
320,192,93043,1,0,0:0:0:0:vasr_002.wav
192,192,93152,1,0,0:0:0:0:dr_002.wav
64,192,93260,1,0,0:0:0:0:vasr_003.wav
448,192,93260,1,0,0:0:0:0:dr_005.wav
192,192,93478,1,0,0:0:0:0:vasr_004.wav
448,192,93478,1,0,0:0:0:0:piano_002.wav
320,192,93695,1,0,0:0:0:0:piano_001.wav
64,192,93695,1,0,0:0:0:0:vasr_003.wav
192,192,93913,1,0,0:0:0:0:vasr_005.wav
448,192,93913,1,0,0:0:0:0:piano_004.wav
64,192,94130,1,0,0:0:0:0:dr_005.wav
192,192,94347,1,0,0:0:0:0:dr_002.wav
448,192,94347,1,0,0:0:0:0:dr_007crap.wav
320,192,94565,1,0,0:0:0:0:vasl_001.wav
192,192,94673,1,0,0:0:0:0:vasl_002.wav
448,192,94673,1,0,0:0:0:0:dr_002.wav
320,192,94782,1,0,0:0:0:0:vasl_003.wav
64,192,94782,1,0,0:0:0:70:dr_001.wav
192,192,94891,1,0,0:0:0:0:dr_002.wav
320,192,94999,1,0,0:0:0:0:vasl_004.wav
448,192,94999,1,0,0:0:0:0:dr_005.wav
64,192,95217,1,0,0:0:0:0:vasl_003.wav
192,192,95217,1,0,0:0:0:0:dr_007crap.wav
192,192,95434,1,0,0:0:0:0:vasl_005.wav
320,192,95434,1,0,0:0:0:0:piano_004.wav
448,192,95652,1,0,0:0:0:0:vasl_006.wav
64,192,95652,1,0,0:0:0:0:piano_011.wav
192,192,95869,1,0,0:0:0:0:dr_005.wav
320,192,96086,1,0,0:0:0:0:dr_002.wav
448,192,96086,1,0,0:0:0:0:dr_007crap.wav
64,192,96304,1,0,0:0:0:0:vasl_007.wav
192,192,96358,1,0,0:0:0:0:vasl_008.wav
320,192,96413,1,0,0:0:0:0:vasl_009.wav
448,192,96521,1,0,0:0:0:0:vasl_010.wav
64,192,96521,1,0,0:0:0:0:dr_001.wav
192,192,96630,1,0,0:0:0:0:dr_002.wav
320,192,96739,1,0,0:0:0:0:vasl_011.wav
192,192,96956,1,0,0:0:0:0:dr_002.wav
448,192,96956,1,0,0:0:0:0:vasl_012.wav
320,192,97173,1,0,0:0:0:0:dr_005.wav
64,192,97173,1,0,0:0:0:0:vasl_013.wav
192,192,97391,1,0,0:0:0:0:vasl_014.wav
448,192,97391,1,0,0:0:0:0:dr_001.wav
320,192,97608,1,0,0:0:0:0:dr_005.wav
448,192,97608,1,0,0:0:0:0:vasl_013.wav
320,192,97826,1,0,0:0:0:0:dr_002.wav
64,192,97826,1,0,0:0:0:0:vasl_015.wav
192,192,98043,1,0,0:0:0:0:dr_005.wav
448,192,98152,1,0,0:0:0:0:dr_002.wav
64,192,98152,1,0,0:0:0:0:dr_005.wav
192,192,98260,1,0,0:0:0:0:dr_003.wav
320,192,98260,1,0,0:0:0:0:dr_001.wav
64,192,98478,1,0,0:0:0:0:dr_005.wav
320,192,98586,1,0,0:0:0:0:dr_001.wav
448,192,98586,1,0,0:0:0:0:dr_002.wav
192,192,98695,1,0,0:0:0:0:dr_002.wav
64,192,98695,1,0,0:0:0:0:dr_007crap.wav
320,192,98913,1,0,0:0:0:0:dr_002.wav
448,192,98913,1,0,0:0:0:0:dr_001.wav
192,192,99021,1,0,0:0:0:0:dr_005.wav
320,192,99130,1,0,0:0:0:0:piano_011.wav
448,192,99130,1,0,0:0:0:0:va_b_001.wav
64,192,99130,1,0,0:0:0:0:dr_006sin.wav
192,192,99239,1,0,0:0:0:0:va_b_001.wav
320,192,99347,1,0,0:0:0:0:va_b_001.wav
448,192,99347,1,0,0:0:0:0:dr_005.wav
64,192,99456,1,0,0:0:0:0:va_b_002.wav
192,192,99565,1,0,0:0:0:0:dr_007crap.wav
448,192,99565,1,0,0:0:0:0:dr_002.wav
320,192,99673,1,0,0:0:0:0:va_b_001.wav
448,192,99782,1,0,0:0:0:0:va_b_001.wav
64,192,99782,1,0,0:0:0:0:piano_008.wav
192,192,99891,1,0,0:0:0:0:va_b_001.wav
448,192,99999,1,0,0:0:0:0:va_b_001.wav
64,192,99999,1,0,0:0:0:0:dr_001.wav
320,192,100108,1,0,0:0:0:0:va_b_001.wav
192,192,100217,1,0,0:0:0:0:va_b_001.wav
448,192,100217,1,0,0:0:0:0:dr_005.wav
320,192,100326,1,0,0:0:0:0:va_b_002.wav
192,192,100434,1,0,0:0:0:0:dr_001.wav
448,192,100434,1,0,0:0:0:0:dr_007crap.wav
64,192,100434,1,0,0:0:0:0:dr_suzu.wav
320,192,100543,1,0,0:0:0:0:va_b_001.wav
192,192,100652,1,0,0:0:0:0:va_b_001.wav
448,192,100652,1,0,0:0:0:0:dr_005.wav
64,192,100760,1,0,0:0:0:0:va_b_001.wav
192,192,100869,1,0,0:0:0:0:dr_001.wav
448,192,100869,1,0,0:0:0:0:piano_007.wav
320,192,100978,1,0,0:0:0:0:va_b_003.wav
448,192,101086,1,0,0:0:0:0:va_b_003.wav
64,192,101086,1,0,0:0:0:0:dr_005.wav
192,192,101195,1,0,0:0:0:0:va_b_004.wav
320,192,101304,1,0,0:0:0:0:dr_001.wav
64,192,101304,1,0,0:0:0:0:piano_008.wav
192,192,101413,1,0,0:0:0:0:va_b_003.wav
448,192,101521,1,0,0:0:0:0:dr_005.wav
64,192,101521,1,0,0:0:0:0:va_b_003.wav
192,192,101630,1,0,0:0:0:0:dr_002.wav
320,192,101630,1,0,0:0:0:0:va_b_003.wav
448,192,101739,1,0,0:0:0:0:va_b_003.wav
64,192,101739,1,0,0:0:0:0:piano_002.wav
320,192,101847,1,0,0:0:0:0:va_b_003.wav
192,192,101956,1,0,0:0:0:0:va_b_003.wav
64,192,101956,1,0,0:0:0:0:dr_005.wav
320,192,102065,1,0,0:0:0:0:va_b_004.wav
192,192,102173,1,0,0:0:0:0:dr_suzu.wav
448,192,102173,1,0,0:0:0:0:piano_001.wav
64,192,102173,1,0,0:0:0:0:dr_007crap.wav
320,192,102282,1,0,0:0:0:0:va_b_003.wav
192,192,102391,1,0,0:0:0:0:va_b_003.wav
448,192,102391,1,0,0:0:0:0:dr_005.wav
64,192,102499,1,0,0:0:0:0:va_b_003.wav
320,192,102608,1,0,0:0:0:0:va_b_007.wav
448,192,102608,1,0,0:0:0:0:piano_008.wav
192,192,102717,1,0,0:0:0:0:va_b_007.wav
320,192,102826,1,0,0:0:0:0:dr_005.wav
64,192,102826,1,0,0:0:0:0:va_b_007.wav
192,192,102934,1,0,0:0:0:0:va_b_008.wav
320,192,103043,1,0,0:0:0:0:dr_001.wav
448,192,103043,1,0,0:0:0:0:dr_007crap.wav
192,192,103152,1,0,0:0:0:0:va_b_007.wav
320,192,103260,1,0,0:0:0:0:va_b_007.wav
64,192,103260,1,0,0:0:0:0:dr_005.wav
448,192,103369,1,0,0:0:0:0:va_b_007.wav
192,192,103478,1,0,0:0:0:0:dr_001.wav
64,192,103478,1,0,0:0:0:0:va_b_007.wav
448,192,103586,1,0,0:0:0:0:va_b_007.wav
320,192,103695,1,0,0:0:0:0:piano_005.wav
64,192,103695,1,0,0:0:0:0:va_b_007.wav
192,192,103804,1,0,0:0:0:0:va_b_008.wav
320,192,103913,1,0,0:0:0:0:dr_suzu.wav
448,192,103913,1,0,0:0:0:0:dr_007crap.wav
64,192,103913,1,0,0:0:0:0:piano_001.wav
192,192,104021,1,0,0:0:0:0:va_b_007.wav
64,192,104130,1,0,0:0:0:0:va_b_007.wav
448,192,104130,1,0,0:0:0:0:piano_002.wav
320,192,104239,1,0,0:0:0:0:va_b_007.wav
64,192,104347,1,0,0:0:0:0:va_b_001.wav
448,192,104347,1,0,0:0:0:0:piano_001.wav
64,192,104456,1,0,0:0:0:0:va_b_001.wav
192,192,104565,128,0,104782:0:0:0:0:va_b_002.wav
64,192,104782,1,0,0:0:0:0:va_b_003.wav
448,192,104782,1,0,0:0:0:0:dr_007crap.wav
448,192,104891,1,0,0:0:0:0:va_b_003.wav
320,192,104999,128,0,105217:0:0:0:0:va_b_004.wav
448,192,105217,1,0,0:0:0:0:dr_001.wav
64,192,105217,1,0,0:0:0:0:va_b_005.wav
64,192,105326,1,0,0:0:0:0:va_b_005.wav
192,192,105434,128,0,105652:0:0:0:0:va_b_006.wav
64,192,105652,1,0,0:0:0:0:dr_suzu.wav
448,192,105652,1,0,0:0:0:0:va_b_007.wav
448,192,105760,1,0,0:0:0:0:va_b_007.wav
192,192,105869,128,0,106086:0:0:0:0:va_b_008.wav
320,192,106086,1,0,0:0:0:0:va_b_001.wav
448,192,106086,1,0,0:0:0:0:dr_006sin.wav
64,192,106086,1,0,0:0:0:0:piano_001.wav
192,192,106195,1,0,0:0:0:0:va_b_001.wav
320,192,106304,1,0,0:0:0:0:va_b_001.wav
448,192,106304,1,0,0:0:0:0:dr_005.wav
192,192,106413,1,0,0:0:0:0:va_b_002.wav
448,192,106521,1,0,0:0:0:0:dr_001.wav
64,192,106521,1,0,0:0:0:0:dr_007crap.wav
320,192,106630,1,0,0:0:0:0:va_b_001.wav
192,192,106739,1,0,0:0:0:0:va_b_001.wav
64,192,106739,1,0,0:0:0:0:dr_005.wav
320,192,106847,1,0,0:0:0:0:va_b_001.wav
192,192,106956,1,0,0:0:0:0:va_b_001.wav
448,192,106956,1,0,0:0:0:0:dr_001.wav
64,192,107065,1,0,0:0:0:0:va_b_001.wav
448,192,107173,1,0,0:0:0:0:dr_005.wav
192,192,107173,1,0,0:0:0:0:va_b_001.wav
320,192,107282,1,0,0:0:0:0:va_b_002.wav
192,192,107391,1,0,0:0:0:0:dr_001.wav
448,192,107391,1,0,0:0:0:0:dr_suzu.wav
64,192,107391,1,0,0:0:0:0:dr_007crap.wav
320,192,107499,1,0,0:0:0:0:va_b_001.wav
448,192,107608,1,0,0:0:0:0:va_b_001.wav
64,192,107608,1,0,0:0:0:0:dr_005.wav
192,192,107717,1,0,0:0:0:0:va_b_001.wav
320,192,107826,1,0,0:0:0:0:va_b_003.wav
64,192,107826,1,0,0:0:0:0:dr_001.wav
448,192,107934,1,0,0:0:0:0:va_b_003.wav
192,192,108043,1,0,0:0:0:0:va_b_003.wav
64,192,108043,1,0,0:0:0:0:dr_005.wav
320,192,108152,1,0,0:0:0:0:va_b_004.wav
448,192,108260,1,0,0:0:0:0:piano_002.wav
64,192,108260,1,0,0:0:0:0:dr_007crap.wav
192,192,108369,1,0,0:0:0:0:va_b_003.wav
320,192,108478,1,0,0:0:0:0:piano_001.wav
448,192,108478,1,0,0:0:0:0:va_b_003.wav
192,192,108586,1,0,0:0:0:0:va_b_003.wav
320,192,108695,1,0,0:0:0:0:va_b_003.wav
64,192,108695,1,0,0:0:0:0:piano_004.wav
448,192,108804,1,0,0:0:0:0:va_b_003.wav
192,192,108913,1,0,0:0:0:0:va_b_003.wav
64,192,108913,1,0,0:0:0:0:dr_005.wav
320,192,109021,1,0,0:0:0:0:va_b_004.wav
192,192,109130,1,0,0:0:0:0:dr_suzu.wav
448,192,109130,1,0,0:0:0:0:dr_001.wav
64,192,109130,1,0,0:0:0:0:dr_007crap.wav
320,192,109239,1,0,0:0:0:0:va_b_003.wav
448,192,109347,1,0,0:0:0:0:va_b_003.wav
64,192,109347,1,0,0:0:0:0:dr_005.wav
192,192,109456,1,0,0:0:0:0:va_b_003.wav
448,192,109565,1,0,0:0:0:0:dr_002.wav
64,192,109565,1,0,0:0:0:0:va_b_007.wav
192,192,109673,1,0,0:0:0:0:va_b_007.wav
320,192,109782,1,0,0:0:0:0:va_b_007.wav
64,192,109782,1,0,0:0:0:0:dr_002.wav
192,192,109891,1,0,0:0:0:0:va_b_008.wav
448,192,109999,1,0,0:0:0:0:piano_007.wav
64,192,109999,1,0,0:0:0:0:dr_007crap.wav
320,192,110108,1,0,0:0:0:0:va_b_007.wav
192,192,110217,1,0,0:0:0:0:va_b_007.wav
448,192,110217,1,0,0:0:0:0:piano_004.wav
64,192,110326,1,0,0:0:0:0:va_b_007.wav
192,192,110434,1,0,0:0:0:0:va_b_007.wav
448,192,110434,1,0,0:0:0:0:piano_011.wav
320,192,110543,1,0,0:0:0:0:va_b_007.wav
448,192,110652,1,0,0:0:0:0:va_b_007.wav
64,192,110652,1,0,0:0:0:0:dr_002.wav
192,192,110760,1,0,0:0:0:0:va_b_008.wav
320,192,110869,1,0,0:0:0:0:dr_007crap.wav
448,192,110869,1,0,0:0:0:0:piano_012.wav
192,192,110978,1,0,0:0:0:0:va_b_007.wav
320,192,111086,1,0,0:0:0:0:dr_005.wav
64,192,111086,1,0,0:0:0:0:va_b_007.wav
192,192,111195,1,0,0:0:0:0:va_b_007.wav
448,192,111304,1,0,0:0:0:0:piano_011.wav
64,192,111304,1,0,0:0:0:0:va_009.wav
320,192,111376,1,0,0:0:0:0:dr_002.wav
192,192,111449,1,0,0:0:0:0:dr_002.wav
448,192,111521,1,0,0:0:0:0:dr_001.wav
64,192,111521,1,0,0:0:0:0:dr_002.wav
320,192,111630,1,0,0:0:0:0:dr_002.wav
448,192,111739,1,0,0:0:0:0:dr_007crap.wav
64,192,111739,1,0,0:0:0:0:dr_002.wav
192,192,111811,1,0,0:0:0:0:dr_002.wav
320,192,111884,1,0,0:0:0:0:dr_002.wav
448,192,111956,1,0,0:0:0:0:dr_002.wav
64,192,111956,1,0,0:0:0:0:dr_001.wav
192,192,112065,1,0,0:0:0:0:dr_002.wav
448,192,112173,1,0,0:0:0:0:dr_001.wav
64,192,112173,1,0,0:0:0:0:dr_002.wav
192,192,112282,1,0,0:0:0:0:dr_002.wav
448,192,112391,1,0,0:0:0:0:dr_002.wav
64,192,112391,1,0,0:0:0:0:dr_001.wav
320,192,112499,1,0,0:0:0:0:dr_001.wav
192,192,112608,1,0,0:0:0:0:dr_002.wav
64,192,112608,1,0,0:0:0:0:dr_007crap.wav
320,192,112717,1,0,0:0:0:0:dr_001.wav
448,192,112717,1,0,0:0:0:0:dr_002.wav
192,192,112826,1,0,0:0:0:0:dr_001.wav
64,192,112826,1,0,0:0:0:0:dr_002.wav
320,192,112934,1,0,0:0:0:0:dr_002.wav
448,192,112934,1,0,0:0:0:0:dr_001.wav
192,192,113043,1,0,0:0:0:0:dr_006sin.wav
448,192,113043,1,0,0:0:0:0:orgel_001.wav
64,192,113043,1,0,0:0:0:0:orgel_013.wav
320,192,113478,1,0,0:0:0:0:orgel_014.wav
64,192,113478,1,0,0:0:0:0:orgel_002.wav
192,192,113695,1,0,0:0:0:0:orgel_013.wav
448,192,113913,1,0,0:0:0:0:orgel_003.wav
64,192,113913,1,0,0:0:0:0:orgel_015.wav
64,192,114782,1,0,0:0:0:0:orgel_004.wav
448,192,115217,1,0,0:0:0:0:orgel_005.wav
64,192,115217,1,0,0:0:0:0:orgel_016.wav
320,192,115434,1,0,0:0:0:0:orgel_017.wav
192,192,115652,1,0,0:0:0:0:orgel_014.wav
448,192,115652,1,0,0:0:0:0:orgel_006.wav
64,192,116086,1,0,0:0:0:0:orgel_015.wav
320,192,116521,1,0,0:0:0:0:orgel_007.wav
448,192,116956,1,0,0:0:0:0:orgel_018.wav
64,192,116956,1,0,0:0:0:0:orgel_008.wav
192,192,117173,1,0,0:0:0:0:orgel_015.wav
320,192,117391,1,0,0:0:0:0:orgel_009.wav
64,192,117391,1,0,0:0:0:0:orgel_014.wav
448,192,117608,1,0,0:0:0:0:orgel_013.wav
320,192,117826,1,0,0:0:0:0:orgel_015.wav
192,192,118260,1,0,0:0:0:0:orgel_016.wav
448,192,118260,1,0,0:0:0:0:orgel_010.wav
320,192,118478,1,0,0:0:0:0:orgel_017.wav
192,192,118695,1,0,0:0:0:0:orgel_014.wav
64,192,118695,1,0,0:0:0:0:orgel_009.wav
320,192,119130,1,0,0:0:0:0:orgel_011.wav
448,192,119130,1,0,0:0:0:0:orgel_013.wav
192,192,119565,1,0,0:0:0:0:orgel_015.wav
448,192,119999,1,0,0:0:0:0:orgel_013.wav
64,192,119999,1,0,0:0:0:0:orgel_001.wav
192,192,120434,1,0,0:0:0:0:orgel_014.wav
64,192,120434,1,0,0:0:0:0:orgel_002.wav
320,192,120652,1,0,0:0:0:0:orgel_013.wav
448,192,120869,1,0,0:0:0:0:orgel_015.wav
64,192,120869,1,0,0:0:0:0:orgel_003.wav
192,192,121739,1,0,0:0:0:0:orgel_004.wav
448,192,121739,1,0,0:0:0:0:orgel_019.wav
320,192,121956,1,0,0:0:0:0:orgel_016.wav
192,192,122173,1,0,0:0:0:0:orgel_005.wav
64,192,122173,1,0,0:0:0:0:orgel_017.wav
448,192,122608,1,0,0:0:0:0:orgel_006.wav
64,192,122608,1,0,0:0:0:0:orgel_014.wav
192,192,123043,1,0,0:0:0:0:orgel_015.wav
448,192,123478,1,0,0:0:0:0:orgel_010.wav
320,192,123913,1,0,0:0:0:0:orgel_017.wav
64,192,123913,1,0,0:0:0:0:orgel_009.wav
192,192,124130,1,0,0:0:0:0:orgel_016.wav
448,192,124347,1,0,0:0:0:0:orgel_003.wav
64,192,124347,1,0,0:0:0:0:orgel_019.wav
192,192,124782,1,0,0:0:0:0:orgel_017.wav
320,192,124782,1,0,0:0:0:0:orgel_012.wav
320,192,125217,1,0,0:0:0:0:orgel_010.wav
64,192,125217,1,0,0:0:0:0:orgel_013.wav
192,192,125434,1,0,0:0:0:0:orgel_009.wav
448,192,125434,1,0,0:0:0:0:orgel_009.wav
320,192,125652,1,0,0:0:0:0:orgel_003.wav
448,192,125652,1,0,0:0:0:0:orgel_003.wav
192,192,125869,1,0,0:0:0:0:orgel_015.wav
320,192,125869,1,0,0:0:0:0:orgel_015.wav
64,192,126086,1,0,0:0:0:0:orgel_003.wav
192,192,126141,1,0,0:0:0:0:orgel_011.wav
320,192,126195,1,0,0:0:0:0:orgel_015.wav
448,192,126249,1,0,0:0:0:0:orgel_013.wav
448,192,126956,1,0,0:0:0:0:dr_suzu_l.wav
