osu file format v14

[General]
AudioFilename: audio.mp3
AudioLeadIn: 0
PreviewTime: 56529
Countdown: 0
SampleSet: Soft
StackLeniency: 0.7
Mode: 0
LetterboxInBreaks: 0
WidescreenStoryboard: 0

[Editor]
Bookmarks: 89526
DistanceSpacing: 1.6
BeatDivisor: 4
GridSize: 4
TimelineZoom: 1.6

[Metadata]
Title:cross the line
TitleUnicode:cross the line
Artist:AKINO with bless4
ArtistUnicode:AKINO with bless4
Creator:Silver Crow
Version:Izetta
Source:
Tags:
BeatmapID:1167743
BeatmapSetID:551304

[Difficulty]
HPDrainRate:5
CircleSize:4
OverallDifficulty:8
ApproachRate:9
SliderMultiplier:1.6
SliderTickRate:1

[Events]
//Background and Video events
0,0,"cover.png",0,0
//Break Periods
//Storyboard Layer 0 (Background)
//Storyboard Layer 1 (Fail)
//Storyboard Layer 2 (Pass)
//Storyboard Layer 3 (Foreground)
//Storyboard Sound Samples

[TimingPoints]
4430,315.756236185665,4,1,0,50,1,0
12008,-200,4,2,0,50,0,0
15797,-100,4,1,0,50,0,0
27795,-133.333333333333,4,2,0,50,0,0
28980,-100,4,1,0,50,0,0
32848,-133.333333333333,4,2,0,50,0,0
33953,-100,4,1,0,50,0,0
47214,-100,4,1,0,50,0,0
47372,-100,4,1,0,50,0,0
54319,-100,4,1,0,50,0,0
57477,-100,4,1,0,50,0,1
62529,-100,4,2,0,50,0,1
66160,-100,4,1,0,50,0,1
76264,-100,4,1,0,50,0,1
90157,-100,4,1,0,50,0,0
116264,-100,4,2,0,50,0,1
130732,-100,4,1,0,50,0,1
163255,-100,4,1,0,50,0,0
207777,-100,4,1,0,50,0,1
235563,-100,4,1,0,50,0,0

[Colours]
Combo1 : 255,128,128
Combo2 : 0,128,255
Combo3 : 0,255,255
Combo4 : 255,0,0

[HitObjects]
80,68,4430,6,0,P|144:108|236:112,1,160
136,204,4903,2,0,P|56:204|12:268,1,160
120,336,5377,2,0,P|200:344|280:340,1,160
404,304,5850,1,0,0:0:0:0:
476,196,6008,1,0,0:0:0:0:
444,72,6166,1,0,0:0:0:0:
332,12,6324,1,0,0:0:0:0:
332,12,6956,6,0,P|304:56|208:104,1,160
296,196,7429,2,0,P|368:240|444:252,1,160
352,348,7903,2,0,L|192:348,1,160
72,300,8376,1,0,0:0:0:0:
152,200,8534,2,0,L|240:200,1,80
232,200,8850,1,0,0:0:0:0:
388,128,9324,5,0,0:0:0:0:
272,72,9482,2,0,P|296:32|416:12,1,160
504,185,9955,2,0,P|453:245|376:252,2,160
248,272,10745,2,0,L|160:308,1,80
180,172,11061,2,0,L|264:140,1,80
160,60,11376,2,0,L|80:92,2,80
160,60,12008,6,0,P|200:68|244:64,1,80
356,116,12639,2,0,P|392:100|432:96,1,80
256,184,13271,2,0,P|248:224|224:264,1,80
80,344,13902,2,0,P|79:304|96:268,1,80
95,268,14534,6,0,B|100:240|100:240|120:252|120:252|120:232|120:232|136:244|136:244|144:232|144:232|160:240|160:240|176:232|176:232|184:244|184:244|208:256|208:256|236:252|236:252|256:232|256:232|260:208|260:208|272:188|272:188|288:184,1,300
272,172,15797,5,0,0:0:0:0:
260,164,15876,1,0,0:0:0:0:
244,160,15955,1,0,0:0:0:0:
228,160,16034,1,0,0:0:0:0:
212,164,16112,1,0,0:0:0:0:
196,164,16191,1,0,0:0:0:0:
180,164,16270,1,0,0:0:0:0:
164,160,16349,1,0,0:0:0:0:
148,152,16428,2,0,L|120:112,5,40
120,104,16902,6,0,B|188:56|188:56|272:36,1,160
380,92,17376,2,0,B|416:112|416:112|460:120,1,80
344,188,17691,2,0,B|380:208|380:208|424:216,1,80
308,284,18007,2,0,B|344:304|344:304|382:310,1,80
188,328,18323,5,0,0:0:0:0:
76,268,18481,1,0,0:0:0:0:
180,192,18639,1,0,0:0:0:0:
60,144,18796,1,0,0:0:0:0:
160,64,18954,5,0,0:0:0:0:
192,68,19033,1,0,0:0:0:0:
224,64,19112,1,0,0:0:0:0:
256,52,19191,1,0,0:0:0:0:
288,44,19270,1,0,0:0:0:0:
320,48,19349,1,0,0:0:0:0:
348,60,19428,2,0,B|400:84|452:72|452:72|492:56|512:80,1,160
292,168,19902,5,0,0:0:0:0:
168,200,20059,1,0,0:0:0:0:
152,184,20138,1,0,0:0:0:0:
132,168,20217,1,0,0:0:0:0:
60,64,20375,1,0,0:0:0:0:
184,32,20533,1,0,0:0:0:0:
264,132,20691,1,0,0:0:0:0:
328,296,20849,5,0,0:0:0:0:
340,276,20928,1,0,0:0:0:0:
352,256,21007,1,0,0:0:0:0:
232,304,21165,1,0,0:0:0:0:
244,284,21244,1,0,0:0:0:0:
256,264,21323,1,0,0:0:0:0:
140,312,21480,1,0,0:0:0:0:
92,192,21638,1,0,0:0:0:0:
212,144,21796,1,0,0:0:0:0:
256,264,21954,1,0,0:0:0:0:
256,120,22270,6,0,P|224:104|196:68,2,80
49,233,22743,2,0,P|75:204|112:188,2,80
416,288,23217,2,0,B|339:279|339:279|255:287,1,160
416,288,23691,1,0,0:0:0:0:
368,168,23849,1,0,0:0:0:0:
488,208,24006,1,0,0:0:0:0:
452,84,24164,1,0,0:0:0:0:
328,56,24322,1,0,0:0:0:0:
328,56,24401,1,0,0:0:0:0:
328,56,24480,2,0,B|316:80|276:36|200:56|200:56|176:80,1,160
180,75,24954,5,0,0:0:0:0:
436,68,25269,1,0,0:0:0:0:
304,288,25585,1,0,0:0:0:0:
48,296,25901,1,0,0:0:0:0:
184,80,26217,1,0,0:0:0:0:
416,192,26532,6,0,P|424:232|416:272,1,80
316,348,26848,1,0,0:0:0:0:
99,195,27006,2,0,P|171:227|255:235,1,160
172,136,27480,1,0,0:0:0:0:
348,64,27795,6,0,B|392:80|440:72|484:48|484:48|508:88,1,180.000006866455
407,252,28427,2,0,B|363:236|315:244|271:268|271:268|251:234,1,180.000006866455
176,128,29058,1,0,0:0:0:0:
72,204,29216,1,0,0:0:0:0:
148,308,29374,1,0,0:0:0:0:
80,108,29532,6,0,B|96:48|148:40|148:40|216:40,1,160
336,40,30006,1,0,0:0:0:0:
124,184,30322,1,0,0:0:0:0:
372,124,30637,1,0,0:0:0:0:
156,260,30953,1,0,0:0:0:0:
408,208,31269,1,0,0:0:0:0:
188,340,31585,2,0,P|224:312|240:280,2,80
260,200,32058,2,0,B|288:200|320:224|324:256|320:276|320:276|324:308|352:320,1,160
168,96,32848,6,0,P|144:128|72:168,1,120
344,288,33479,2,0,P|368:256|440:216,1,120
468,142,34111,2,0,P|429:136|392:148,1,80
392,147,34426,1,0,0:0:0:0:
153,93,34584,2,0,P|224:128|304:136,1,160
153,93,35058,6,0,L|124:16,1,80
160,216,35374,2,0,L|100:156,1,80
224,312,35689,2,0,L|140:296,1,80
312,352,36005,1,0,0:0:0:0:
336,332,36084,1,0,0:0:0:0:
364,320,36163,1,0,0:0:0:0:
396,320,36242,1,0,0:0:0:0:
388,288,36321,5,0,0:0:0:0:
360,272,36400,1,0,0:0:0:0:
328,264,36479,1,0,0:0:0:0:
296,260,36558,1,0,0:0:0:0:
288,228,36637,5,0,0:0:0:0:
316,208,36716,1,0,0:0:0:0:
348,200,36795,1,0,0:0:0:0:
380,200,36873,1,0,0:0:0:0:
412,208,36952,1,0,0:0:0:0:
440,224,37031,1,0,0:0:0:0:
464,244,37110,2,0,P|492:208|504:172,1,80
464,24,37426,5,0,0:0:0:0:
464,24,37584,2,0,P|392:52|432:128,1,160
364,312,38058,1,0,0:0:0:0:
284,212,38215,2,0,P|320:188|360:184,1,80
252,292,38531,2,0,L|164:296,1,80
32,244,38847,2,0,L|120:244,1,80
183,51,39163,1,0,0:0:0:0:
183,51,39321,2,0,P|200:129|188:208,1,160
188,207,39952,6,0,P|225:192|253:164,1,80
428,208,40268,1,0,0:0:0:0:
428,208,40426,2,0,P|391:222|363:251,1,80
312,368,40741,1,0,0:0:0:0:
340,148,40899,2,0,P|376:120|400:88,1,80
316,60,41215,2,0,P|328:16|328:-24,1,80
236,4,41531,2,0,B|208:16|208:16|208:40|192:60|176:48|176:48|148:92|116:96,1,160
56,164,42004,2,0,P|92:192|132:192,1,80
125,193,42478,5,0,0:0:0:0:
228,268,42636,1,0,0:0:0:0:
244,140,42794,1,0,0:0:0:0:
428,84,42952,1,0,0:0:0:0:
496,264,43110,1,0,0:0:0:0:
312,320,43268,1,0,0:0:0:0:
184,312,43425,6,0,P|144:296|104:292,1,80
220,232,43741,2,0,P|180:216|140:212,1,80
256,152,44057,2,0,P|216:136|176:132,1,80
292,72,44373,2,0,P|252:56|212:52,1,80
364,24,44688,5,0,0:0:0:0:
372,36,44767,1,0,0:0:0:0:
384,48,44846,1,0,0:0:0:0:
396,60,44925,1,0,0:0:0:0:
408,68,45004,1,0,0:0:0:0:
424,76,45083,1,0,0:0:0:0:
440,80,45162,1,0,0:0:0:0:
456,84,45241,1,0,0:0:0:0:
472,84,45320,1,0,0:0:0:0:
484,76,45399,1,0,0:0:0:0:
492,64,45478,6,0,P|512:128|476:176,1,120
485,169,45794,1,0,0:0:0:0:
388,252,45951,1,0,0:0:0:0:
344,372,46109,2,0,L|380:344,3,40
308,304,46425,2,0,L|276:328,3,40
212,336,46741,1,0,0:0:0:0:
160,296,46820,1,0,0:0:0:0:
160,232,46899,1,0,0:0:0:0:
196,180,46978,1,0,0:0:0:0:
260,168,47057,1,0,0:0:0:0:
156,20,47372,6,0,P|144:36|128:48,2,40
72,264,47846,2,0,P|64:248|44:228,2,40
324,324,48320,2,0,P|336:344|352:352,2,40
496,136,48793,2,0,L|468:176,1,40
480,104,48951,2,0,P|440:96|400:72,1,80
406,76,49267,1,0,0:0:0:0:
300,148,49425,1,0,0:0:0:0:
172,132,49583,1,0,0:0:0:0:
172,132,49741,1,0,0:0:0:0:
276,56,49898,5,0,0:0:0:0:
264,44,49977,1,0,0:0:0:0:
248,40,50056,1,0,0:0:0:0:
56,212,50372,1,0,0:0:0:0:
64,224,50451,1,0,0:0:0:0:
64,240,50530,1,0,0:0:0:0:
300,144,50846,1,0,0:0:0:0:
312,136,50925,1,0,0:0:0:0:
328,132,51004,1,0,0:0:0:0:
472,344,51319,6,0,P|452:332|436:304,1,40
456,212,51477,2,0,P|488:236|512:268,1,80
511,267,51793,1,0,0:0:0:0:
460,112,51951,2,0,L|396:124,1,60
344,60,52148,2,0,L|408:44,2,60
332,80,52424,1,0,0:0:0:0:
260,227,54319,5,0,0:0:0:0:
276,232,54398,1,0,0:0:0:0:
292,228,54477,1,0,0:0:0:0:
304,220,54556,1,0,0:0:0:0:
312,208,54635,1,0,0:0:0:0:
312,192,54714,1,0,0:0:0:0:
308,176,54793,1,0,0:0:0:0:
296,164,54872,1,0,0:0:0:0:
284,156,54950,5,0,0:0:0:0:
48,56,55108,1,0,0:0:0:0:
200,260,55266,1,0,0:0:0:0:
412,120,55424,5,0,0:0:0:0:
156,152,55582,1,0,0:0:0:0:
352,316,55740,1,0,0:0:0:0:
340,60,55898,5,0,0:0:0:0:
468,284,56056,1,0,0:0:0:0:
200,260,56214,1,0,0:0:0:0:
132,92,56529,5,0,0:0:0:0:
256,316,56845,1,0,0:0:0:0:
384,92,57161,1,0,0:0:0:0:
472,184,57319,1,0,0:0:0:0:
472,184,57398,1,0,0:0:0:0:
472,184,57477,6,0,P|448:212|408:228,1,80
180,56,57792,2,0,P|216:80|256:88,1,80
28,272,58108,2,0,B|48:312|48:312|56:348,1,80
340,292,58424,1,0,0:0:0:0:
340,292,58582,2,0,P|376:260|416:252,1,80
436,376,58897,1,0,0:0:0:0:
456,176,59055,2,0,L|372:156,1,80
292,64,59371,5,0,0:0:0:0:
276,124,59450,1,0,0:0:0:0:
224,160,59529,1,0,0:0:0:0:
160,172,59608,1,0,0:0:0:0:
108,132,59687,1,0,0:0:0:0:
80,148,59766,1,0,0:0:0:0:
60,172,59845,1,0,0:0:0:0:
56,204,59924,1,0,0:0:0:0:
72,232,60003,6,0,P|88:268|16:352,1,160
260,272,60476,2,0,P|249:196|310:152,1,160
310,152,60950,1,0,0:0:0:0:
364,36,61108,1,0,0:0:0:0:
396,48,61187,1,0,0:0:0:0:
420,72,61266,1,0,0:0:0:0:
436,100,61345,1,0,0:0:0:0:
436,132,61424,1,0,0:0:0:0:
428,164,61502,1,0,0:0:0:0:
404,188,61581,6,0,P|440:232|500:264,1,120
428,320,61897,2,0,P|392:300|348:288,1,80
354,289,62213,1,0,0:0:0:0:
232,324,62371,1,0,0:0:0:0:
108,288,62529,5,0,0:0:0:0:
188,44,62687,1,0,0:0:0:0:
212,168,63002,1,0,0:0:0:0:
104,96,63318,1,0,0:0:0:0:
140,220,63634,1,0,0:0:0:0:
140,220,63792,5,0,0:0:0:0:
312,32,63950,1,0,0:0:0:0:
428,80,64265,1,0,0:0:0:0:
420,208,64581,1,0,0:0:0:0:
328,296,64897,1,0,0:0:0:0:
328,296,65055,5,0,0:0:0:0:
80,236,65213,1,0,0:0:0:0:
124,116,65528,1,0,0:0:0:0:
216,208,65844,1,0,0:0:0:0:
216,208,66002,1,0,0:0:0:0:
404,84,66160,2,0,P|367:154|301:197,1,160
240,312,66633,5,0,0:0:0:0:
240,312,66712,1,0,0:0:0:0:
240,312,66791,1,0,0:0:0:0:
240,312,66870,1,0,0:0:0:0:
184,280,66949,5,0,0:0:0:0:
184,280,67028,1,0,0:0:0:0:
184,280,67107,1,0,0:0:0:0:
184,280,67186,1,0,0:0:0:0:
120,280,67265,5,0,0:0:0:0:
72,240,67344,1,0,0:0:0:0:
72,176,67423,1,0,0:0:0:0:
104,120,67502,1,0,0:0:0:0:
168,108,67581,6,0,P|216:112|248:20,1,160
464,116,68054,2,0,P|428:88|408:56,1,80
368,288,68370,2,0,P|424:224|464:216,1,120
420,184,68686,2,0,P|392:156|348:180,1,80
192,64,69002,2,0,L|284:92,1,80
268,87,69317,1,0,0:0:0:0:
148,132,69475,5,0,0:0:0:0:
168,156,69554,1,0,0:0:0:0:
176,188,69633,1,0,0:0:0:0:
168,220,69712,1,0,0:0:0:0:
148,244,69791,1,0,0:0:0:0:
120,260,69870,1,0,0:0:0:0:
88,264,69949,1,0,0:0:0:0:
60,248,70028,1,0,0:0:0:0:
48,220,70107,6,0,B|24:296|24:296|-20:364,1,160
48,220,70580,2,0,B|72:144|72:144|116:76,1,160
115,76,71212,1,0,0:0:0:0:
232,132,71370,1,0,0:0:0:0:
284,248,71528,1,0,0:0:0:0:
216,356,71686,1,0,0:0:0:0:
104,300,71843,5,0,0:0:0:0:
144,176,72001,1,0,0:0:0:0:
240,92,72159,1,0,0:0:0:0:
368,92,72317,1,0,0:0:0:0:
468,172,72475,1,0,0:0:0:0:
468,172,72554,1,0,0:0:0:0:
468,172,72633,1,0,0:0:0:0:
264,112,72791,6,0,P|276:152|308:184,1,80
196,28,73106,2,0,B|156:28|128:84|144:128|144:128|124:144|56:148|28:84|28:84|68:48,1,320
65,50,73896,1,0,0:0:0:0:
144,228,74054,1,0,0:0:0:0:
332,272,74212,1,0,0:0:0:0:
236,356,74370,2,0,P|220:224|372:160,1,320
371,159,75159,5,0,0:0:0:0:
288,64,75317,1,0,0:0:0:0:
356,244,75475,1,0,0:0:0:0:
220,108,75633,1,0,0:0:0:0:
352,324,75790,1,0,0:0:0:0:
160,152,75948,1,0,0:0:0:0:
444,304,76106,1,0,0:0:0:0:
132,224,76264,6,0,B|60:232|8:192|8:192|-4:160,1,160
208,292,76738,1,0,0:0:0:0:
208,292,77053,1,0,0:0:0:0:
260,256,77132,1,0,0:0:0:0:
324,260,77211,1,0,0:0:0:0:
376,296,77290,1,0,0:0:0:0:
404,356,77369,1,0,0:0:0:0:
432,344,77448,1,0,0:0:0:0:
452,316,77527,1,0,0:0:0:0:
460,284,77606,1,0,0:0:0:0:
448,252,77685,6,0,P|428:192|472:112,1,160
444,36,78080,1,0,0:0:0:0:
444,36,78159,2,0,P|372:68|288:68,1,160
220,40,78553,1,0,0:0:0:0:
220,40,78632,2,0,B|196:76|228:112|232:144|232:144|220:232|144:208,1,240
143,207,79264,1,0,0:0:0:0:
132,80,79422,1,0,0:0:0:0:
56,184,79579,1,0,0:0:0:0:
56,184,79658,1,0,0:0:0:0:
56,184,79737,1,0,0:0:0:0:
60,312,79895,1,0,0:0:0:0:
356,40,80211,6,0,P|356:108|440:112,1,160
320,344,80685,2,0,P|376:280|412:204,1,160
292,264,81158,2,0,B|248:272|220:320|232:368|232:368|128:336,1,240
92,128,81790,2,0,L|68:92,1,40
132,116,81948,2,0,L|136:76,1,40
176,128,82106,2,0,P|224:144|260:144,1,80
300,100,82342,1,0,0:0:0:0:
344,52,82421,2,0,P|388:60|416:80,1,80
476,60,82658,5,0,0:0:0:0:
492,88,82737,2,0,L|504:128,3,40
436,176,83053,2,0,L|452:220,3,40
396,296,83369,2,0,L|384:257,3,40
332,368,83684,2,0,L|316:324,3,40
272,284,84000,5,0,0:0:0:0:
212,264,84079,1,0,0:0:0:0:
148,272,84158,1,0,0:0:0:0:
88,288,84237,1,0,0:0:0:0:
80,224,84316,1,0,0:0:0:0:
48,168,84395,1,0,0:0:0:0:
8,120,84474,1,0,0:0:0:0:
48,72,84553,5,0,0:0:0:0:
76,16,84632,1,0,0:0:0:0:
128,52,84711,1,0,0:0:0:0:
188,68,84789,1,0,0:0:0:0:
248,44,84868,1,0,0:0:0:0:
304,16,84947,1,0,0:0:0:0:
256,192,85263,12,0,87473,0:0:0:0:
256,192,87789,12,0,88894,0:0:0:0:
188,132,89052,6,0,P|148:120|116:96,1,80
244,68,89368,1,0,0:0:0:0:
324,252,89526,2,0,P|362:263|394:286,1,80
268,316,89842,1,0,0:0:0:0:
144,284,89999,1,0,0:0:0:0:
144,284,90078,1,0,0:0:0:0:
144,284,90157,1,0,0:0:0:0:
144,284,90473,6,0,B|132:240|104:212|104:212|80:184|76:136,1,160
188,76,90947,1,0,0:0:0:0:
300,140,91105,1,0,0:0:0:0:
474,103,91262,2,0,P|436:90|404:68,1,80
224,286,91578,2,0,P|249:255|284:236,1,80
24,304,91894,2,0,P|48:268|60:228,1,80
164,160,92210,1,0,0:0:0:0:
136,144,92289,1,0,0:0:0:0:
116,120,92368,1,0,0:0:0:0:
108,88,92447,1,0,0:0:0:0:
116,56,92525,1,0,0:0:0:0:
116,56,92683,6,0,P|180:24|248:72,1,160
343,364,93157,2,0,P|316:336|320:296,1,80
318,298,93394,1,0,0:0:0:0:
318,298,93473,1,0,0:0:0:0:
448,100,93631,2,0,P|456:140|468:184,1,80
466,177,93946,1,0,0:0:0:0:
276,72,94104,5,0,0:0:0:0:
268,60,94183,1,0,0:0:0:0:
260,48,94262,1,0,0:0:0:0:
132,36,94420,1,0,0:0:0:0:
36,120,94578,1,0,0:0:0:0:
164,140,94736,1,0,0:0:0:0:
204,264,94894,1,0,0:0:0:0:
292,160,95052,1,0,0:0:0:0:
332,280,95209,1,0,0:0:0:0:
400,72,95525,6,0,B|360:52|360:52|336:24,2,80
156,56,95999,2,0,P|196:68|248:64,2,80
408,192,96472,2,0,B|368:176|368:176|308:184|316:252|348:260,1,160
345,259,96946,5,0,0:0:0:0:
224,228,97104,1,0,0:0:0:0:
256,352,97262,1,0,0:0:0:0:
132,320,97420,1,0,0:0:0:0:
176,116,97578,2,0,P|192:96|216:104,1,40
136,132,97735,2,0,P|104:160|48:80,1,160
41,90,98209,5,0,0:0:0:0:
192,300,98525,1,0,0:0:0:0:
448,288,98841,1,0,0:0:0:0:
304,76,99156,1,0,0:0:0:0:
48,96,99472,1,0,0:0:0:0:
292,168,99788,2,0,P|340:160|368:144,1,80
200,124,100104,1,0,0:0:0:0:
512,176,100262,2,0,P|443:202|384:256,1,160
384,255,100735,1,0,0:0:0:0:
100,116,101051,6,0,P|128:140|172:152,1,80
168,151,101367,1,0,0:0:0:0:
220,268,101525,1,0,0:0:0:0:
360,28,101682,2,0,L|200:28,2,160
452,120,102472,1,0,0:0:0:0:
452,120,102630,1,0,0:0:0:0:
384,228,102788,6,0,B|344:208|324:176|324:176|324:120|352:88,1,160
343,99,103261,1,0,0:0:0:0:
92,44,103577,1,0,0:0:0:0:
304,188,103893,1,0,0:0:0:0:
52,132,104209,1,0,0:0:0:0:
252,288,104524,1,0,0:0:0:0:
0,232,104840,1,0,0:0:0:0:
184,152,104998,2,0,P|180:200|164:236,1,80
216,68,105314,2,0,B|260:84|272:128|272:128|312:132|336:96,1,160
