osu file format v14

[General]
AudioFilename: audio.mp3
AudioLeadIn: 0
PreviewTime: 53782
Countdown: 1
SampleSet: None
StackLeniency: 0.7
Mode: 0
LetterboxInBreaks: 0
WidescreenStoryboard: 1

[Editor]
Bookmarks: 10521,26625,32151,51256,63730,73835,75730
DistanceSpacing: 1.5
BeatDivisor: 4
GridSize: 4
TimelineZoom: 2.8

[Metadata]
Title:cross the line
TitleUnicode:cross the line
Artist:AKINO with bless4
ArtistUnicode:AKINO with bless4
Creator:Keada
Version:Hard
Source:終末のイゼッタ
Tags:Last Witch
BeatmapID:1569919
BeatmapSetID:677280

[Difficulty]
HPDrainRate:6
CircleSize:4
OverallDifficulty:6
ApproachRate:7
SliderMultiplier:1.2
SliderTickRate:1

[Events]
//Background and Video events
0,0,"izetta.jpg",0,0
Video,-120,"OPening.flv"
//Break Periods
2,14668,18619
//Storyboard Layer 0 (Background)
//Storyboard Layer 1 (Fail)
//Storyboard Layer 2 (Pass)
//Storyboard Layer 3 (Foreground)
//Storyboard Sound Samples

[TimingPoints]
1995,315.789473684211,4,3,1,50,1,0
1995,-100,4,3,1,50,0,0
12100,-100,4,3,1,30,0,0
13363,-100,4,3,1,60,0,0
13995,270.676284697316,4,3,1,50,1,0
14468,315.789473684211,4,3,3,70,1,0
14468,-100,4,3,3,70,0,0
14625,315.789473684211,4,3,1,70,1,0
14625,-100,4,3,1,70,0,0
15730,-100,4,3,6,70,0,0
17467,-100,4,3,1,70,0,0
18256,-100,4,3,6,70,0,0
18572,-100,4,3,1,70,0,0
19519,-100,4,3,6,70,0,0
19993,-100,4,3,1,70,0,0
20782,-100,4,3,6,70,0,0
22519,-100,4,3,1,70,0,0
24572,-100,4,3,6,70,0,0
24888,-100,4,3,1,70,0,0
26625,-100,4,3,1,65,0,0
27098,-100,4,3,6,65,0,0
27572,-100,4,3,2,65,0,0
29625,-100,4,3,6,65,0,0
30098,-100,4,3,1,65,0,0
32151,-100,4,3,6,65,0,0
32625,-100,4,3,2,65,0,0
34677,-100,4,3,6,65,0,0
34993,-100,4,3,2,65,0,0
39730,-100,4,3,6,65,0,0
40046,-100,4,3,2,65,0,0
42256,-100,4,3,6,65,0,0
42730,-100,4,3,2,65,0,0
44625,-100,4,3,1,65,0,0
44940,-100,4,3,2,70,0,0
49993,-133.333333333333,4,3,1,65,0,0
51888,-100,4,3,1,70,0,0
55046,-90.9090909090909,4,3,3,80,0,1
55361,-90.9090909090909,4,3,2,80,0,1
60098,-90.9090909090909,4,3,3,80,0,1
60256,-90.9090909090909,4,3,2,80,0,1
63730,-90.9090909090909,4,3,6,80,0,1
64203,-90.9090909090909,4,3,2,80,0,1
65151,-90.9090909090909,4,3,3,80,0,1
65309,-90.9090909090909,4,3,2,80,0,1
70203,-90.9090909090909,4,3,3,80,0,1
70361,-90.9090909090909,4,3,2,80,0,1
75256,-90.9090909090909,4,3,6,80,0,1
76519,-90.9090909090909,4,3,2,80,0,1
77782,-90.9090909090909,4,3,6,80,0,1
79046,-90.9090909090909,4,3,2,80,0,1
80309,-90.9090909090909,4,3,1,80,0,1
82835,-133.333333333333,4,3,3,80,0,0
84572,-100,4,3,3,5,0,0
84888,-100,4,3,3,70,0,0
85361,-100,4,3,6,75,0,0
86625,-100,4,3,2,80,0,1
86703,-100,4,3,2,80,0,0
87098,-100,4,3,2,80,0,1
87177,-100,4,3,2,80,0,0
87572,-100,4,3,2,80,0,1
87651,-100,4,3,2,80,0,0

[Colours]
Combo1 : 220,227,130
Combo2 : 214,91,78
Combo3 : 0,105,234
Combo4 : 192,192,192

[HitObjects]
104,288,1995,6,0,B|172:280|172:280|208:292|208:292|284:284,1,180,2|0,2:0|2:0,2:0:0:0:
296,280,2626,1,0,2:0:0:0:
280,100,2942,6,0,P|200:72|128:124,1,180,0|0,2:0|2:0,2:0:0:0:
136,212,3573,1,0,2:0:0:0:
212,164,3731,1,0,2:0:0:0:
220,252,3889,1,0,2:0:0:0:
220,252,4521,6,0,B|261:268|300:248|300:248|343:227|400:248,1,180,2|0,2:0|2:0,2:0:0:0:
404,252,5152,1,0,2:0:0:0:
220,336,5468,6,0,P|147:290|154:205,1,180,0|0,2:0|2:0,2:0:0:0:
228,152,6100,2,0,L|356:144,2,120,0|0|0,2:0|2:0|2:0,2:0:0:0:
72,60,7047,6,0,B|40:132|40:132|52:192,1,120,2|0,2:0|2:0,2:0:0:0:
80,276,7521,2,0,P|122:250|144:180,1,120,0|0,2:0|2:0,2:0:0:0:
164,60,8152,6,0,P|180:116|228:150,1,120,0|0,2:0|2:0,2:0:0:0:
332,232,8784,2,0,P|274:217|221:242,1,120,0|0,2:0|2:0,2:0:0:0:
450,358,9573,6,0,B|510:278|446:194|446:194|506:114|438:22,1,360,2|0,2:0|2:0,2:0:0:0:
441,26,10679,1,0,2:0:0:0:
363,115,10837,6,0,P|252:168|340:32,1,420,2|0,2:0|2:0,2:0:0:0:
284,92,12100,6,0,B|240:104|192:92|192:92|148:104|120:136|120:136|60:104|0:132,1,300,0|0,2:0|2:0,2:0:0:0:
56,212,13047,2,0,L|64:276,1,60,0|0,2:0|2:0,2:0:0:0:
148,300,13363,6,0,L|156:340,3,30,8|2|2|2,0:0|0:0|0:0|0:0,0:0:0:0:
224,272,13679,2,0,L|229:242,3,30,2|2|2|2,0:0|0:0|0:0|0:0,0:0:0:0:
232,352,13995,6,0,L|272:356,7,30,8|8|8|8|8|8|8|6,0:0|0:0|0:0|0:0|0:0|0:0|0:0|0:0,0:0:0:0:
148,256,19519,6,0,B|220:264|220:264|256:248|256:248|348:256,1,180,6|12,0:0|0:0,0:0:0:0:
416,264,20151,1,2,0:0:0:0:
484,204,20309,2,0,P|496:160|492:136,2,60,6|2|8,0:0|0:0|0:0,0:0:0:0:
400,176,20782,6,0,B|260:168,1,120,6|2,0:0|0:0,0:0:0:0:
280,169,21256,1,8,0:0:0:0:
208,72,21414,6,0,B|348:64,1,120,6|2,0:0|0:0,0:0:0:0:
327,65,21888,1,8,0:0:0:0:
280,169,22046,6,0,B|240:184|240:184|152:172,1,120,6|2,0:0|0:0,0:0:0:0:
76,148,22519,1,12,0:0:0:0:
76,148,22835,2,0,L|56:28,1,120,6|12,0:0|0:0,0:0:0:0:
163,173,23467,6,0,L|143:291,1,120,6|12,0:0|0:0,0:0:0:0:
56,320,24098,1,12,0:0:0:0:
75,232,24256,1,8,0:0:0:0:
143,291,24414,1,8,0:0:0:0:
0,260,24572,6,0,P|-4:208|56:156,1,120,6|6,0:0|0:0,0:0:0:0:
156,208,25046,1,6,0:0:0:0:
156,208,26625,5,8,0:0:0:0:
240,176,26782,1,8,0:0:0:0:
172,120,26940,1,8,0:0:0:0:
228,264,27098,6,0,P|284:256|324:184,1,120,6|0,0:0|0:0,0:0:0:0:
316,116,27572,2,0,B|352:100|352:100|448:112,2,120,12|6|12,0:0|0:0|0:0,0:0:0:0:
152,192,28519,6,0,P|128:152|140:80,1,120,6|12,0:0|0:0,0:0:0:0:
224,244,29151,1,6,0:0:0:0:
144,280,29309,1,8,0:0:0:0:
152,192,29467,1,8,0:0:0:0:
216,332,29625,6,0,P|176:364|96:352,1,120,6|2,0:0|0:0,0:0:0:0:
56,288,30098,1,6,0:0:0:0:
56,288,31677,5,8,0:0:0:0:
108,216,31835,1,8,0:0:0:0:
144,300,31993,1,8,0:0:0:0:
24,208,32151,6,0,P|40:164|116:132,1,120,6|2,0:0|0:0,0:0:0:0:
188,164,32625,2,0,B|224:176|224:176|320:156,2,120,12|6|12,0:0|0:0|0:0,0:0:0:0:
340,68,33572,6,0,L|376:64,3,30,8|2|2|2,0:0|0:0|0:0|0:0,0:0:0:0:
408,132,33888,2,0,L|437:135,3,30,8|2|2|2,0:0|0:0|0:0|0:0,0:0:0:0:
334,155,34203,2,0,L|304:158,3,30,8|2|2|2,0:0|0:0|0:0|0:0,0:0:0:0:
392,212,34519,1,12,0:0:0:0:
444,284,34677,6,0,P|392:300|320:264,1,120,6|6,0:0|0:0,0:0:0:0:
260,224,35151,2,0,P|228:212|180:220,1,60,8|4,0:0|0:0,0:0:0:0:
148,140,35467,2,0,P|177:139|205:128,1,60,2|4,0:0|0:0,0:0:0:0:
272,68,35782,1,8,0:0:0:0:
168,0,35940,6,0,L|160:72,1,60,6|2,0:0|0:0,0:0:0:0:
76,84,36256,2,0,L|69:24,1,60,6|8,0:0|0:0,0:0:0:0:
8,124,36572,2,0,P|28:152|60:160,1,60,6|2,0:0|0:0,0:0:0:0:
88,244,36888,2,0,P|60:232|31:238,1,60,6|8,0:0|0:0,0:0:0:0:
124,320,37203,6,0,B|164:312|164:312|196:320|196:320|256:316,1,120,6|4,0:0|0:0,0:0:0:0:
328,348,37677,2,0,P|332:312|316:268,1,60,8|4,0:0|0:0,0:0:0:0:
256,236,37993,2,0,P|251:206|257:177,1,60,2|4,0:0|0:0,0:0:0:0:
340,144,38309,1,8,0:0:0:0:
396,72,38467,6,0,B|372:56|372:56|320:52,1,60,4|2,0:0|0:0,0:0:0:0:
256,84,38782,1,4,0:0:0:0:
340,144,38940,2,0,B|363:164|363:164|391:169,1,60,10|4,0:0|0:0,0:0:0:0:
468,120,39256,2,0,B|480:91|480:91|477:62,2,60,2|6|8,0:0|0:0|0:0,0:0:0:0:
432,252,39730,6,0,B|384:260|384:260|304:232,1,120,6|4,0:0|0:0,0:0:0:0:
244,180,40203,2,0,P|208:176|176:188,1,60,8|4,0:0|0:0,0:0:0:0:
128,252,40519,1,2,0:0:0:0:
96,168,40677,1,4,0:0:0:0:
152,96,40835,1,8,0:0:0:0:
112,15,40993,6,0,P|140:8|170:8,1,60,4|2,0:0|0:0,0:0:0:0:
240,68,41309,2,0,P|268:75|298:75,1,60,4|8,0:0|0:0,0:0:0:0:
380,36,41625,2,0,L|376:176,1,120,6|6,0:0|0:0,0:0:0:0:
432,224,42098,1,8,0:0:0:0:
308,240,42256,6,0,L|232:232,1,60,6|2,0:0|0:0,0:0:0:0:
168,188,42572,2,0,L|120:188,2,30,2|2|12,0:0|0:0|0:0,0:0:0:0:
244,140,42888,2,0,L|292:140,2,30,2|2|12,0:0|0:0|0:0,0:0:0:0:
164,100,43203,1,0,0:0:0:0:
240,48,43361,2,0,L|304:48,1,60,12|2,0:0|0:0,0:0:0:0:
364,112,43677,6,0,P|368:132|368:152,3,30,8|2|2|2,0:0|0:0|0:0|0:0,0:0:0:0:
440,72,43993,2,0,P|441:57|444:42,3,30,8|2|2|2,0:0|0:0|0:0|0:0,0:0:0:0:
444,152,44309,2,0,P|447:166|448:181,3,30,8|2|2|2,0:0|0:0|0:0|0:0,0:0:0:0:
380,228,44625,1,12,0:0:0:0:
372,240,44940,6,0,L|368:280,2,30,6|2|2,0:0|0:0|0:0,0:0:0:0:
208,168,45414,2,0,L|205:138,2,30,6|2|8,0:0|0:0|0:0,0:0:0:0:
48,248,45888,2,0,L|45:277,2,30,6|2|2,0:0|0:0|0:0,0:0:0:0:
80,72,46361,5,6,0:0:0:0:
80,72,46519,2,0,L|156:60,1,60,8|2,0:0|0:0,0:0:0:0:
228,56,46835,1,8,0:0:0:0:
316,36,46993,2,0,P|320:12|320:0,2,30,2|2|8,0:0|0:0|0:0,0:0:0:0:
260,208,47467,6,0,L|220:212,2,30,6|2|2,0:0|0:0|0:0,0:0:0:0:
424,280,47940,2,0,L|464:284,2,30,6|2|8,0:0|0:0|0:0,0:0:0:0:
264,364,48414,2,0,L|224:368,2,30,6|2|2,0:0|0:0|0:0,0:0:0:0:
376,224,48888,5,8,0:0:0:0:
376,224,49046,2,0,P|388:184|376:148,1,60,6|2,0:0|0:0,0:0:0:0:
336,92,49361,2,0,L|288:80,2,30,2|2|2,0:0|0:0|0:0,0:0:0:0:
424,88,49677,2,0,L|472:76,2,30,2|2|2,0:0|0:0|0:0,0:0:0:0:
304,172,49993,6,0,B|268:184|224:168|224:168|184:172|160:196|160:196|104:164|36:188,1,270.000010299683,6|0,0:0|2:0,2:0:0:0:
88,344,51256,6,0,P|103:304|87:252,1,90.0000034332277,0|0,2:2|2:2,2:2:0:0:
192,264,51730,2,0,P|181:307|197:348,1,90.0000034332277,0|2,2:2|0:0,2:2:0:0:
288,360,52203,2,0,L|328:364,2,30,2|2|2,0:0|0:0|0:0,0:0:0:0:
384,316,52519,6,0,P|392:280|384:248,1,60,2|2,0:0|0:0,0:0:0:0:
328,188,52835,2,0,P|320:164|320:136,2,30,2|2|2,0:0|0:0|0:0,0:0:0:0:
412,160,53151,1,2,0:0:0:0:
364,84,53309,2,0,P|344:76|312:72,5,30,2|2|2|2|2|2,0:0|0:0|0:0|0:0|0:0|0:0,0:0:0:0:
456,76,53782,5,8,0:0:0:0:
456,76,55046,6,0,L|312:56,1,132.00000402832,6|12,0:0|0:0,0:0:0:0:
228,40,55519,2,0,P|200:72|220:164,1,132.00000402832,6|4,0:0|0:0,0:0:0:0:
292,216,55993,1,12,0:0:0:0:
200,252,56151,6,0,B|148:248|148:248|120:264|120:264|44:260,1,132.00000402832,6|6,0:0|0:0,0:0:0:0:
20,176,56625,2,0,P|8:132|20:100,1,66.0000020141602,8|6,0:0|0:0,0:0:0:0:
140,92,56940,2,0,P|120:118|90:131,1,66.0000020141602,2|6,0:0|0:0,0:0:0:0:
16,28,57256,2,0,P|48:33|73:54,1,66.0000020141602,8|6,0:0|0:0,0:0:0:0:
156,196,57572,6,0,B|196:220|196:220|312:208,1,132.00000402832,6|12,0:0|0:0,0:0:0:0:
380,200,58046,2,0,P|404:156|376:68,1,132.00000402832,6|6,0:0|0:0,0:0:0:0:
264,120,58519,2,0,P|292:135|325:135,1,66.0000020141602,8|6,0:0|0:0,0:0:0:0:
304,40,58835,6,0,L|252:32,3,33.0000010070801,6|2|2|2,0:0|0:0|0:0|0:0,0:0:0:0:
191,72,59151,2,0,P|177:101|178:133,1,66.0000020141602,12|2,0:0|0:0,0:0:0:0:
244,208,59467,2,0,L|288:216,3,33.0000010070801,2|2|2|2,0:0|0:0|0:0|0:0,0:0:0:0:
368,232,59782,1,12,0:0:0:0:
304,308,59940,1,2,0:0:0:0:
400,328,60098,6,0,P|431:320|452:295,1,66.0000020141602,6|4,0:0|0:0,0:0:0:0:
368,232,60414,2,0,P|351:204|353:171,1,66.0000020141602,8|6,0:0|0:0,0:0:0:0:
424,100,60730,2,0,L|500:100,2,66.0000020141602,2|4|8,0:0|0:0|0:0,0:0:0:0:
328,72,61203,1,4,0:0:0:0:
328,72,61361,6,0,P|284:64|248:72,1,66.0000020141602,2|4,0:0|0:0,0:0:0:0:
168,100,61677,1,8,0:0:0:0:
132,192,61835,2,0,P|128:236|144:272,2,66.0000020141602,4|2|4,0:0|0:0|0:0,0:0:0:0:
232,176,62309,1,8,0:0:0:0:
168,100,62467,6,0,P|112:92|48:148,1,132.00000402832,4|6,0:0|0:0,0:0:0:0:
32,232,62940,2,0,L|28:308,1,66.0000020141602,8|4,0:0|0:0,0:0:0:0:
116,348,63256,2,0,L|112:282,1,66.0000020141602,2|4,0:0|0:0,0:0:0:0:
184,212,63572,1,8,0:0:0:0:
224,348,63730,6,0,B|288:360|288:312|372:344,1,132.00000402832,6|0,0:0|0:0,0:0:0:0:
448,372,64203,2,0,P|456:336|440:296,1,66.0000020141602,12|2,0:0|0:0,0:0:0:0:
372,244,64519,2,0,L|320:240,2,33.0000010070801,6|2|2,0:0|0:0|0:0,0:0:0:0:
464,204,64835,2,0,L|516:200,2,33.0000010070801,6|2|2,0:0|0:0|0:0,0:0:0:0:
388,140,65151,6,0,B|352:120|352:120|256:128,1,132.00000402832,6|12,0:0|0:0,0:0:0:0:
183,187,65625,2,0,P|163:126|184:64,1,132.00000402832,2|2,0:0|0:0,0:0:0:0:
280,32,66098,2,0,L|352:28,1,66.0000020141602,12|2,0:0|0:0,0:0:0:0:
480,72,66414,6,0,L|408:68,1,66.0000020141602,6|2,0:0|0:0,0:0:0:0:
332,128,66730,2,0,P|316:168|320:204,1,66.0000020141602,12|2,0:0|0:0,0:0:0:0:
376,268,67046,1,12,0:0:0:0:
468,236,67203,2,0,P|480:216|480:192,2,33.0000010070801,2|2|12,0:0|0:0|0:0,0:0:0:0:
452,336,67519,1,0,0:0:0:0:
288,308,67677,6,0,B|240:304|240:304|212:316|212:316|152:312,1,132.00000402832,12|12,0:0|0:0,0:0:0:0:
72,360,68151,2,0,P|60:308|104:232,1,132.00000402832,2|2,0:0|0:0,0:0:0:0:
192,216,68625,2,0,P|216:184|216:148,1,66.0000020141602,12|2,0:0|0:0,0:0:0:0:
212,144,68861,1,2,0:0:0:0:
212,144,68940,6,0,L|208:72,1,66.0000020141602,12|2,0:0|0:0,0:0:0:0:
300,36,69256,2,0,L|296:101,1,66.0000020141602,12|2,0:0|0:0,0:0:0:0:
292,200,69572,2,0,P|312:204|336:200,3,33.0000010070801,2|2|2|2,0:0|0:0|0:0|0:0,0:0:0:0:
408,192,69888,1,12,0:0:0:0:
380,96,70046,1,2,0:0:0:0:
492,172,70203,6,0,P|494:212|468:252,1,66.0000020141602,6|4,0:0|0:0,0:0:0:0:
420,340,70519,2,0,P|408:309|412:276,1,66.0000020141602,8|4,0:0|0:0,0:0:0:0:
408,192,70835,2,0,L|336:180,2,66.0000020141602,2|4|8,0:0|0:0|0:0,0:0:0:0:
380,96,71309,6,0,B|340:76|340:76|232:88,1,132.00000402832,4|4,0:0|0:0,0:0:0:0:
164,128,71782,2,0,B|152:160|152:160|160:196,1,66.0000020141602,8|4,0:0|0:0,0:0:0:0:
236,256,72098,2,0,L|312:260,2,66.0000020141602,2|6|8,0:0|0:0|0:0,0:0:0:0:
144,292,72572,6,0,P|90:266|57:192,1,132.00000402832,4|4,0:0|0:0,0:0:0:0:
16,112,73046,2,0,P|56:100|96:108,1,66.0000020141602,8|4,0:0|0:0,0:0:0:0:
160,156,73361,1,2,0:0:0:0:
240,96,73519,1,4,0:0:0:0:
324,148,73677,1,8,0:0:0:0:
404,88,73835,6,0,P|428:140|408:212,1,132.00000402832,6|6,0:0|0:0,0:0:0:0:
320,248,74309,2,0,L|248:244,1,66.0000020141602,8|4,0:0|0:0,0:0:0:0:
156,340,74625,2,0,L|228:336,1,66.0000020141602,8|6,0:0|0:0,0:0:0:0:
236,344,74861,1,2,0:0:0:0:
236,344,74940,2,0,L|308:340,1,66.0000020141602,8|2,0:0|0:0,0:0:0:0:
472,356,75256,6,0,L|492:212,1,132.00000402832,6|8,0:0|0:0,0:0:0:0:
392,80,75730,2,0,L|410:210,1,132.00000402832,6|8,0:0|0:0,0:0:0:0:
512,92,76203,6,0,P|472:68|384:84,1,132.00000402832,6|4,0:0|0:0,0:0:0:0:
312,140,76677,1,2,0:0:0:0:
216,156,76835,2,0,P|176:140|156:120,1,66.0000020141602,6|2,0:0|0:0,0:0:0:0:
48,56,77151,2,0,P|68:81|79:112,1,66.0000020141602,12|2,0:0|0:0,0:0:0:0:
76,128,77388,1,2,0:0:0:0:
76,128,77467,2,0,L|72:200,1,66.0000020141602,12|0,0:0|0:0,0:0:0:0:
16,328,77782,6,0,B|48:344|48:344|164:332,1,132.00000402832,6|2,0:0|0:0,0:0:0:0:
312,264,78256,2,0,B|280:248|280:248|164:260,1,132.00000402832,6|2,0:0|0:0,0:0:0:0:
312,348,78730,6,0,P|368:332|392:248,1,132.00000402832,6|4,0:0|0:0,0:0:0:0:
364,176,79203,1,2,0:0:0:0:
384,80,79361,2,0,L|460:72,1,66.0000020141602,12|6,0:0|0:0,0:0:0:0:
464,80,79598,1,2,0:0:0:0:
464,80,79677,2,0,L|472:128,3,33.0000010070801,2|2|2|2,0:0|0:0|0:0|0:0,0:0:0:0:
427,190,79993,2,0,P|387:186|355:170,1,66.0000020141602,12|2,0:0|0:0,0:0:0:0:
352,164,80230,1,0,0:0:0:0:
352,164,80309,6,0,P|316:156|284:160,1,66.0000020141602,12|2,0:0|0:0,0:0:0:0:
176,236,80625,2,0,P|208:238|240:231,1,66.0000020141602,12|2,0:0|0:0,0:0:0:0:
320,84,80940,2,0,P|284:76|252:80,1,66.0000020141602,12|2,0:0|0:0,0:0:0:0:
144,156,81256,2,0,P|176:158|208:151,1,66.0000020141602,12|2,0:0|0:0,0:0:0:0:
400,72,81572,6,0,P|404:44|400:24,3,33.0000010070801,12|2|2|2,0:0|0:0|0:0|0:0,0:0:0:0:
472,112,81888,2,0,P|471:128|475:144,3,33.0000010070801,12|2|2|2,0:0|0:0|0:0|0:0,0:0:0:0:
392,156,82203,2,0,P|392:172|388:188,3,33.0000010070801,12|2|2|2,0:0|0:0|0:0|0:0,0:0:0:0:
464,228,82519,1,2,0:0:0:0:
464,228,82835,6,0,P|432:268|432:68,1,630.000024032594,6|2,0:0|0:0,0:0:0:0:
348,168,85361,6,0,B|304:180|256:168|256:168|196:168|156:212|156:212|88:164|8:212,1,360,6|2,0:0|2:0,0:0:0:0:
84,304,86625,6,0,L|212:312,1,120,6|0,0:0|0:0,0:0:0:0:
323,318,87098,6,0,L|203:310,1,120,6|0,0:0|0:0,0:0:0:0:
156,212,87572,5,14,0:0:0:0:
