osu file format v14

[General]
AudioFilename: audio.mp3
AudioLeadIn: 0
PreviewTime: 53782
Countdown: 1
SampleSet: None
StackLeniency: 0.7
Mode: 0
LetterboxInBreaks: 0
WidescreenStoryboard: 0

[Editor]
Bookmarks: 10521,26625,51256,63730,73835
DistanceSpacing: 1.4
BeatDivisor: 8
GridSize: 4
TimelineZoom: 2.8

[Metadata]
Title:cross the line
TitleUnicode:cross the line
Artist:AKINO with bless4
ArtistUnicode:AKINO with bless4
Creator:Keada
Version:Eylstadt
Source:終末のイゼッタ
Tags:Last Witch
BeatmapID:1432449
BeatmapSetID:677280

[Difficulty]
HPDrainRate:6
CircleSize:4.5
OverallDifficulty:8.9
ApproachRate:9.4
SliderMultiplier:1.4
SliderTickRate:1

[Events]
//Background and Video events
0,0,"izetta.jpg",0,0
Video,-120,"OPening.flv"
//Break Periods
//Storyboard Layer 0 (Background)
//Storyboard Layer 1 (Fail)
//Storyboard Layer 2 (Pass)
//Storyboard Layer 3 (Foreground)
//Storyboard Sound Samples

[TimingPoints]
1995,315.789473684211,4,3,1,50,1,0
1995,-153.846153846153,4,3,1,50,0,0
12100,-200,4,3,1,30,0,0
13363,-100,4,3,1,60,0,0
13995,270.676284697316,4,3,1,50,1,0
14468,315.789473684211,4,3,3,70,1,0
14468,-90.9090909090909,4,3,3,70,0,0
14625,315.789473684211,4,3,1,70,1,0
14625,-90.9090909090909,4,3,1,70,0,0
15730,-90.9090909090909,4,3,6,70,0,0
17467,-90.9090909090909,4,3,1,70,0,0
18256,-90.9090909090909,4,3,6,70,0,0
18572,-90.9090909090909,4,3,1,70,0,0
19519,-90.9090909090909,4,3,6,70,0,0
19993,-90.9090909090909,4,3,1,70,0,0
20782,-90.9090909090909,4,3,6,70,0,0
22519,-90.9090909090909,4,3,1,70,0,0
24572,-90.9090909090909,4,3,6,70,0,0
24888,-90.9090909090909,4,3,1,70,0,0
26625,-100,4,3,1,65,0,0
27098,-100,4,3,6,65,0,0
27572,-100,4,3,2,65,0,0
29625,-100,4,3,6,65,0,0
30098,-100,4,3,1,65,0,0
32151,-100,4,3,6,65,0,0
32625,-100,4,3,2,65,0,0
34677,-100,4,3,6,65,0,0
34993,-100,4,3,2,65,0,0
39730,-100,4,3,6,65,0,0
40046,-100,4,3,2,65,0,0
42256,-100,4,3,6,65,0,0
42730,-100,4,3,2,65,0,0
44625,-100,4,3,1,65,0,0
44940,-100,4,3,2,70,0,0
49993,-133.333333333333,4,3,1,65,0,0
51888,-90.9090909090909,4,3,1,70,0,0
55046,-76.9230769230769,4,3,3,80,0,1
55361,-76.9230769230769,4,3,2,80,0,1
60098,-76.9230769230769,4,3,3,80,0,1
60256,-76.9230769230769,4,3,2,80,0,1
63730,-76.9230769230769,4,3,6,80,0,1
64203,-76.9230769230769,4,3,2,80,0,1
65151,-76.9230769230769,4,3,3,80,0,1
65309,-76.9230769230769,4,3,2,80,0,1
70203,-76.9230769230769,4,3,3,80,0,1
70361,-76.9230769230769,4,3,2,80,0,1
75256,-76.9230769230769,4,3,6,80,0,1
76519,-76.9230769230769,4,3,2,80,0,1
77782,-76.9230769230769,4,3,6,80,0,1
79046,-76.9230769230769,4,3,2,80,0,1
80309,-76.9230769230769,4,3,1,80,0,1
82835,-100,4,3,3,80,0,0
84572,-100,4,3,3,5,0,0
84888,-100,4,3,3,70,0,0
85361,-71.4285714285714,4,3,6,75,0,0
86625,-76.9230769230769,4,3,2,80,0,1
86703,-76.9230769230769,4,3,2,80,0,0
87098,-76.9230769230769,4,3,2,80,0,1
87177,-76.9230769230769,4,3,2,80,0,0
87572,-76.9230769230769,4,3,2,80,0,1
87651,-76.9230769230769,4,3,2,80,0,0

[Colours]
Combo1 : 220,227,130
Combo2 : 214,91,78
Combo3 : 0,105,234
Combo4 : 192,192,192

[HitObjects]
116,44,1995,6,0,L|206:36,1,90.9999958343508,2|0,2:0|2:0,2:0:0:0:
336,112,2468,2,0,L|245:105,1,90.9999958343508,0|0,2:0|2:0,2:0:0:0:
48,96,2942,2,0,L|41:28,1,68.2499968757631,0|0,2:0|2:0,2:0:0:0:
4,20,3258,6,0,L|8:65,1,45.4999979171754,2|0,2:0|2:0,2:0:0:0:
80,192,3573,1,2,2:0:0:0:
136,124,3731,1,2,2:0:0:0:
0,159,3889,2,0,P|0:226|47:273,1,136.499993751526,2|0,2:0|2:0,2:0:0:0:
244,300,4521,6,0,B|284:292|284:292|296:296|296:296|333:289,1,90.9999958343508,2|2,2:0|2:0,2:0:0:0:
460,208,4995,2,0,B|420:200|420:200|408:204|408:204|370:197,1,90.9999958343508,0|0,2:0|2:0,2:0:0:0:
220,160,5468,2,0,L|212:92,1,68.2499968757631,0|0,2:0|2:0,2:0:0:0:
218,55,5784,6,0,P|237:42|260:38,1,45.4999979171754,2|0,2:0|2:0,2:0:0:0:
144,128,6100,2,0,P|121:123|102:111,1,45.4999979171754,0|0,2:0|2:0,2:0:0:0:
336,12,6416,2,0,B|352:44|335:78|335:78|316:112|331:142,1,136.499993751526,2|0,2:0|2:0,2:0:0:0:
432,256,7047,6,0,B|392:240|392:240|344:246,1,90.9999958343508,2|0,2:0|2:0,2:0:0:0:
200,311,7521,2,0,P|177:312|155:306,1,45.4999979171754,0|2,2:0|2:0,2:0:0:0:
48,200,7837,2,0,P|69:193|92:194,1,45.4999979171754,0|2,2:0|2:0,2:0:0:0:
272,272,8152,6,0,L|275:317,1,45.4999979171754,0|2,2:0|2:0,2:0:0:0:
160,172,8468,2,0,L|163:126,1,45.4999979171754,0|2,2:0|2:0,2:0:0:0:
344,232,8784,2,0,L|348:288,1,45.4999979171754,0|2,2:0|2:0,2:0:0:0:
88,124,9100,2,0,L|88:33,1,90.9999958343508,0|2,2:0|2:0,2:0:0:0:
176,33,9573,6,0,P|260:96|235:-5,1,272.999987503052,2|0,2:0|2:0,2:0:0:0:
88,32,10679,1,0,2:0:0:0:
277,168,10837,6,0,B|312:168|336:184|336:184|368:156|408:160|408:160|440:192|489:178,1,227.499989585877,2|0,2:0|2:0,2:0:0:0:
136,184,12100,6,0,P|173:256|201:172,1,210,0|0,2:0|2:0,2:0:0:0:
168,112,13205,1,0,2:0:0:0:
384,308,13363,5,8,0:0:0:0:
384,308,13442,1,8,0:0:0:0:
384,308,13521,2,0,L|388:264,1,35,2|2,0:0|0:0,0:0:0:0:
468,164,13679,1,2,0:0:0:0:
468,164,13758,1,2,0:0:0:0:
468,164,13837,2,0,L|472:208,1,35,2|0,0:0|0:0,0:0:0:0:
328,184,13995,6,0,L|294:174,6,35,8|8|8|8|8|8|8,0:0|0:0|0:0|0:0|0:0|0:0|0:0,0:0:0:0:
236,111,14468,6,0,P|210:182|246:248,1,154.000004699707,6|2,0:0|0:0,0:0:0:0:
344,328,14861,1,2,0:0:0:0:
344,328,14940,2,0,L|267:321,1,77.0000023498536,12|2,0:0|0:0,0:0:0:0:
28,208,15256,2,0,L|104:201,1,77.0000023498536,12|2,0:0|0:0,0:0:0:0:
372,256,15572,1,12,0:0:0:0:
84,119,15730,6,0,B|148:111|148:111|164:119|164:119|235:111,1,154.000004699707,6|0,0:0|0:0,0:0:0:0:
376,272,16203,1,8,0:0:0:0:
184,47,16361,2,0,P|258:38|313:88,1,154.000004699707,6|2,0:0|0:0,0:0:0:0:
380,288,16835,1,8,0:0:0:0:
388,36,16993,6,0,B|408:76|408:76|385:182,1,154.000004699707,6|2,0:0|0:0,0:0:0:0:
160,336,17467,2,0,B|124:344|124:344|85:331,1,77.0000023498536,12|0,0:0|0:0,0:0:0:0:
235,111,17782,2,0,P|244:136|240:168,1,38.5000011749268,12|0,0:0|0:0,0:0:0:0:
136,220,17940,2,0,P|137:200|145:183,1,38.5000011749268,2|0,0:0|0:0,0:0:0:0:
312,184,18098,2,0,P|300:208|275:227,1,38.5000011749268,8|0,0:0|0:0,0:0:0:0:
140,96,18256,1,6,0:0:0:0:
328,40,18414,5,0,2:0:0:0:
328,40,18493,1,0,2:0:0:0:
328,40,18572,2,0,L|336:96,1,38.5000011749268,10|0,0:0|0:0,0:0:0:0:
372,248,18730,1,4,2:0:0:0:
372,248,18809,1,0,2:0:0:0:
372,248,18888,2,0,L|380:304,1,38.5000011749268,2|0,0:0|0:0,0:0:0:0:
428,72,19046,1,2,0:0:0:0:
292,292,19203,1,2,0:0:0:0:
480,128,19361,1,8,0:0:0:0:
339,364,19519,6,0,P|265:371|211:319,1,154.000004699707,6|0,0:0|0:0,0:0:0:0:
220,84,19993,2,0,L|295:70,1,77.0000023498536,12|2,0:0|0:0,0:0:0:0:
120,240,20309,2,0,L|44:226,1,77.0000023498536,12|2,0:0|0:0,0:0:0:0:
284,192,20625,1,8,0:0:0:0:
72,0,20782,6,0,P|59:75|55:152,1,154.000004699707,6|2,0:0|0:0,0:0:0:0:
104,336,21256,1,8,0:0:0:0:
432,208,21414,2,0,P|427:131|415:55,1,154.000004699707,6|2,0:0|0:0,0:0:0:0:
228,20,21888,1,8,0:0:0:0:
300,344,22046,6,0,B|332:344|356:352|356:352|376:336|400:336|400:336|424:344|448:338,1,154.000004699707,6|2,0:0|0:0,0:0:0:0:
292,124,22519,2,0,B|284:164|284:164|289:199,1,77.0000023498536,12|0,0:0|2:0,0:0:0:0:
344,264,22756,1,0,2:0:0:0:
344,264,22835,1,6,0:0:0:0:
392,32,22993,1,0,2:0:0:0:
168,112,23151,1,12,0:0:0:0:
452,184,23309,1,0,2:0:0:0:
240,0,23467,6,0,P|229:36|237:73,1,77.0000023498536,6|0,0:0|2:0,0:0:0:0:
476,336,23782,2,0,P|484:298|473:262,1,77.0000023498536,12|0,0:0|2:0,0:0:0:0:
168,112,24098,1,6,0:0:0:0:
400,300,24256,1,2,0:0:0:0:
468,12,24414,1,8,0:0:0:0:
300,324,24572,6,0,L|288:156,1,154.000004699707,6|6,0:0|0:0,0:0:0:0:
40,8,25046,1,12,0:0:0:0:
40,8,26625,5,8,0:0:0:0:
152,184,26782,1,8,0:0:0:0:
260,4,26940,1,8,0:0:0:0:
48,176,27098,6,0,B|44:208|56:224|56:224|40:244|40:268|40:268|50:290|45:309,1,140,6|2,0:0|0:0,0:0:0:0:
323,239,27572,2,0,P|340:210|342:175,1,70,12|0,0:0|2:0,0:0:0:0:
117,103,27888,2,0,P|117:137|135:167,1,70,6|0,0:0|2:0,0:0:0:0:
392,120,28203,2,0,P|362:102|327:101,1,70,12|0,0:0|2:0,0:0:0:0:
123,243,28519,6,0,P|158:242|188:224,1,70,6|0,0:0|2:0,0:0:0:0:
323,19,28835,2,0,P|290:27|265:51,1,70,12|0,0:0|2:0,0:0:0:0:
156,320,29151,1,2,0:0:0:0:
132,108,29309,1,8,0:0:0:0:
320,200,29467,1,8,0:0:0:0:
47,231,29625,6,0,P|117:223|187:224,1,140,6|2,0:0|0:0,0:0:0:0:
368,304,30098,1,12,0:0:0:0:
368,304,31677,5,8,0:0:0:0:
172,220,31835,1,8,0:0:0:0:
340,88,31993,1,8,0:0:0:0:
433,344,32151,6,0,P|375:380|311:357,1,140,6|2,0:0|0:0,0:0:0:0:
176,8,32625,5,12,0:0:0:0:
216,284,32782,1,2,0:0:0:0:
328,28,32940,5,12,0:0:0:0:
368,304,33097,1,2,0:0:0:0:
256,16,33256,5,12,0:0:0:0:
296,292,33413,1,2,0:0:0:0:
440,24,33572,5,8,0:0:0:0:
440,24,33651,1,8,0:0:0:0:
440,24,33730,2,0,P|452:48|452:76,1,35,2|2,0:0|0:0,0:0:0:0:
296,148,33888,1,8,0:0:0:0:
296,148,33967,1,8,0:0:0:0:
296,148,34046,2,0,P|284:124|284:96,1,35,2|2,0:0|0:0,0:0:0:0:
488,204,34203,5,2,0:0:0:0:
459,236,34281,1,2,0:0:0:0:
419,252,34360,1,2,0:0:0:0:
375,249,34439,1,2,0:0:0:0:
338,227,34519,2,0,P|312:220|292:220,1,35,8|0,0:0|0:0,0:0:0:0:
136,308,34677,6,0,L|111:170,1,140,6|4,0:0|0:0,0:0:0:0:
279,47,35151,2,0,B|288:84|288:84|281:115,1,70,8|4,0:0|0:0,0:0:0:0:
24,192,35467,2,0,B|17:160|17:160|26:123,1,70,2|4,0:0|0:0,0:0:0:0:
268,188,35782,1,8,0:0:0:0:
56,24,35940,6,0,L|125:17,1,70,4|2,0:0|0:0,0:0:0:0:
268,188,36256,2,0,L|188:180,1,70,4|8,0:0|0:0,0:0:0:0:
360,24,36572,2,0,L|440:16,1,70,4|2,0:0|0:0,0:0:0:0:
332,224,36888,1,4,0:0:0:0:
240,68,37046,1,8,0:0:0:0:
432,152,37203,6,0,B|434:192|434:192|449:217|449:217|440:245|440:245|444:286,1,140,12|4,0:0|0:0,0:0:0:0:
275,331,37677,2,0,P|263:299|265:265,1,70,8|4,0:0|0:0,0:0:0:0:
442,84,37993,2,0,P|444:118|432:151,1,70,2|4,0:0|0:0,0:0:0:0:
184,204,38309,1,8,0:0:0:0:
400,20,38467,6,0,B|436:8|436:8|467:14,1,70,4|2,0:0|0:0,0:0:0:0:
328,248,38782,1,4,0:0:0:0:
108,192,38940,1,8,0:0:0:0:
280,48,39098,2,0,B|300:84|300:84|289:182,1,140,4|4,0:0|0:0,0:0:0:0:
220,344,39572,1,8,0:0:0:0:
60,87,39730,6,0,P|115:49|180:68,1,140,6|4,0:0|0:0,0:0:0:0:
289,182,40203,2,0,L|295:251,1,70,8|4,0:0|0:0,0:0:0:0:
120,196,40519,2,0,L|126:126,1,70,2|4,0:0|0:0,0:0:0:0:
352,112,40835,1,8,0:0:0:0:
152,264,40993,6,0,P|118:274|85:264,1,70,4|2,0:0|0:0,0:0:0:0:
292,40,41309,1,4,0:0:0:0:
295,251,41467,1,8,0:0:0:0:
125,126,41625,2,0,B|184:125|184:125|204:133|204:133|291:133,1,140,4|4,0:0|0:0,0:0:0:0:
312,328,42098,1,10,0:0:0:0:
20,308,42256,6,0,B|8:268|8:268|20:236|20:236|4:204|12:168,1,140,6|2,0:0|0:0,0:0:0:0:
137,195,42651,1,2,0:0:0:0:
137,195,42730,2,0,L|155:281,1,70,12|2,0:0|0:0,0:0:0:0:
388,336,43046,5,12,0:0:0:0:
388,56,43203,1,2,0:0:0:0:
312,348,43361,5,12,0:0:0:0:
385,77,43518,1,2,0:0:0:0:
512,232,43677,5,8,0:0:0:0:
479,260,43755,1,8,0:0:0:0:
437,268,43834,1,2,0:0:0:0:
396,254,43913,1,2,0:0:0:0:
368,221,43992,1,2,0:0:0:0:
340,187,44072,1,2,0:0:0:0:
299,173,44151,1,2,0:0:0:0:
257,181,44230,1,2,0:0:0:0:
224,210,44309,1,10,0:0:0:0:
196,176,44387,1,10,0:0:0:0:
155,163,44466,1,2,0:0:0:0:
113,172,44545,1,2,0:0:0:0:
81,201,44625,2,0,L|64:88,1,105,12|0,0:0|0:0,0:0:0:0:
56,16,44940,5,6,0:0:0:0:
124,20,45019,1,2,0:0:0:0:
192,24,45098,1,2,0:0:0:0:
208,36,45414,5,6,0:0:0:0:
140,32,45493,1,2,0:0:0:0:
72,28,45572,1,10,0:0:0:0:
88,40,45888,5,6,0:0:0:0:
156,44,45967,1,2,0:0:0:0:
224,48,46046,1,2,0:0:0:0:
240,60,46361,5,6,0:0:0:0:
172,56,46440,1,2,0:0:0:0:
104,52,46519,2,0,B|92:84|92:84|96:132,1,70,8|0,0:0|2:0,0:0:0:0:
248,316,46835,1,8,0:0:0:0:
192,136,46993,1,0,0:0:0:0:
192,136,47072,1,2,0:0:0:0:
192,136,47151,2,0,L|184:212,1,70,8|0,0:0|2:0,0:0:0:0:
428,164,47467,5,6,0:0:0:0:
424,232,47546,1,2,0:0:0:0:
420,300,47625,1,2,0:0:0:0:
408,316,47941,5,6,0:0:0:0:
412,248,48020,1,2,0:0:0:0:
416,180,48099,1,10,0:0:0:0:
404,196,48415,5,6,0:0:0:0:
400,264,48494,1,2,0:0:0:0:
396,332,48573,1,2,0:0:0:0:
386,347,48888,5,6,0:0:0:0:
390,279,48967,1,2,0:0:0:0:
392,212,49046,2,0,P|376:180|336:168,1,70,10|0,0:0|2:0,0:0:0:0:
104,144,49361,5,2,0:0:0:0:
92,112,49440,1,2,0:0:0:0:
92,76,49519,2,0,L|136:64,1,35,8|0,0:0|0:0,0:0:0:0:
240,136,49677,2,0,L|188:124,1,35,2|2,0:0|0:0,0:0:0:0:
220,28,49835,2,0,L|272:16,1,35,2|2,0:0|0:0,0:0:0:0:
359,27,49993,6,0,B|379:71|363:99|363:99|375:123|379:143|379:143|359:163|363:195|363:195|383:227|363:263|363:263|323:251|303:223|303:223|283:223|267:235|267:235|247:219|227:215|227:215|199:231|155:243|155:243|119:219|99:187|99:155|107:131,1,603.750023031236,6|0,0:0|2:0,0:0:0:0:
180,156,51888,5,8,0:0:0:0:
182,195,51966,1,8,0:0:0:0:
185,234,52045,1,2,0:0:0:0:
188,273,52124,1,2,0:0:0:0:
191,313,52203,2,0,L|132:316,1,38.5000011749268,8|8,0:0|0:0,0:0:0:0:
276,352,52361,2,0,L|335:354,1,38.5000011749268,2|2,0:0|0:0,0:0:0:0:
44,272,52519,5,2,0:0:0:0:
264,276,52677,1,2,0:0:0:0:
164,80,52835,1,2,0:0:0:0:
164,80,52914,1,2,0:0:0:0:
164,80,52993,2,0,L|164:120,1,38.5000011749268,2|0,0:0|0:0,0:0:0:0:
152,314,53151,1,2,0:0:0:0:
392,220,53309,1,2,0:0:0:0:
392,220,53388,1,2,0:0:0:0:
392,220,53467,2,0,L|404:160,1,38.5000011749268,2|0,0:0|0:0,0:0:0:0:
236,48,53625,2,0,L|243:85,1,38.5000011749268,2|0,0:0|0:0,0:0:0:0:
500,56,53782,5,10,0:0:0:0:
256,192,53861,12,0,54730,0:0:0:0:
72,36,54888,5,2,0:0:0:0:
72,36,54967,1,2,0:0:0:0:
72,35,55046,2,0,P|59:78|68:122,1,90.9999958343508,12|2,0:0|0:0,0:0:0:0:
372,328,55361,2,0,P|384:284|375:240,1,90.9999958343508,12|2,0:0|0:0,0:0:0:0:
96,264,55677,1,12,0:0:0:0:
236,80,55835,1,0,0:0:0:0:
236,80,55914,1,2,0:0:0:0:
236,80,55993,2,0,L|232:180,1,90.9999958343508,12|2,0:0|0:0,0:0:0:0:
496,96,56309,6,0,L|492:5,1,90.9999958343508,12|2,0:0|0:0,0:0:0:0:
116,40,56625,2,0,L|112:140,1,90.9999958343508,12|2,0:0|0:0,0:0:0:0:
420,132,56940,2,0,L|416:41,1,90.9999958343508,12|2,0:0|0:0,0:0:0:0:
36,64,57256,1,12,0:0:0:0:
124,304,57414,5,0,0:0:0:0:
124,304,57493,1,2,0:0:0:0:
124,304,57572,2,0,B|168:316|168:316|224:304,1,90.9999958343508,12|2,0:0|0:0,0:0:0:0:
352,28,57888,2,0,B|307:18|307:18|263:30,1,90.9999958343508,12|2,0:0|0:0,0:0:0:0:
316,356,58203,2,0,B|328:312|328:312|316:255,1,90.9999958343508,12|2,0:0|0:0,0:0:0:0:
160,44,58519,1,12,0:0:0:0:
212,306,58677,1,2,0:0:0:0:
408,120,58835,5,12,0:0:0:0:
369,96,58913,1,2,0:0:0:0:
324,92,58992,1,2,0:0:0:0:
282,108,59071,1,2,0:0:0:0:
251,141,59151,2,0,L|248:236,1,90.9999958343508,14|2,0:0|0:0,0:0:0:0:
480,196,59467,5,14,0:0:0:0:
503,157,59545,1,2,0:0:0:0:
507,112,59624,1,2,0:0:0:0:
491,70,59703,1,2,0:0:0:0:
458,39,59782,1,10,0:0:0:0:
488,272,59940,1,2,2:0:0:0:
384,36,60098,5,6,0:0:0:0:
304,248,60256,1,4,0:0:0:0:
156,76,60414,2,0,L|260:68,1,90.9999958343508,8|4,0:0|0:0,0:0:0:0:
272,340,60730,1,2,0:0:0:0:
120,172,60888,1,4,0:0:0:0:
336,104,61046,2,0,L|356:208,1,90.9999958343508,8|4,0:0|0:0,0:0:0:0:
44,216,61361,6,0,P|36:164|48:120,1,90.9999958343508,2|4,0:0|0:0,0:0:0:0:
246,69,61677,1,8,0:0:0:0:
96,304,61835,2,0,P|52:313|8:304,1,90.9999958343508,6|2,0:0|0:0,0:0:0:0:
264,193,62151,2,0,P|308:183|352:192,1,90.9999958343508,6|8,0:0|0:0,0:0:0:0:
196,276,62467,1,4,0:0:0:0:
246,69,62625,5,2,0:0:0:0:
270,339,62782,1,4,0:0:0:0:
44,216,62940,2,0,B|88:192|88:192|132:192,1,90.9999958343508,8|4,0:0|0:0,0:0:0:0:
404,288,63256,1,2,0:0:0:0:
246,69,63414,1,4,0:0:0:0:
105,287,63572,1,8,0:0:0:0:
392,144,63730,6,0,B|360:144|336:156|336:156|312:136|280:136|280:136|252:148|212:136,1,181.999991668702,4|0,0:0|0:0,0:0:0:0:
36,116,64203,2,0,P|12:168|24:220,1,90.9999958343508,12|2,0:0|0:0,0:0:0:0:
180,196,64440,1,2,0:0:0:0:
180,196,64519,2,0,P|128:172|76:184,1,90.9999958343508,12|2,0:0|0:0,0:0:0:0:
100,336,64756,1,2,0:0:0:0:
100,336,64835,2,0,P|124:284|112:232,1,90.9999958343508,12|0,0:0|0:0,0:0:0:0:
44,56,65151,5,12,0:0:0:0:
100,336,65309,1,2,0:0:0:0:
124,80,65467,5,12,0:0:0:0:
16,336,65625,1,2,0:0:0:0:
104,0,65782,5,12,0:0:0:0:
216,324,65940,1,2,0:0:0:0:
216,324,66019,1,2,0:0:0:0:
216,324,66098,2,0,L|216:216,1,90.9999958343508,12|2,0:0|0:0,0:0:0:0:
400,68,66414,5,12,0:0:0:0:
332,332,66572,1,2,0:0:0:0:
288,0,66730,5,12,0:0:0:0:
356,264,66888,1,2,0:0:0:0:
176,72,67046,5,12,0:0:0:0:
410,210,67204,1,2,0:0:0:0:
410,210,67282,1,2,0:0:0:0:
410,210,67361,2,0,L|404:112,1,90.9999958343508,12|0,0:0|0:0,0:0:0:0:
132,156,67677,5,12,0:0:0:0:
380,40,67835,1,2,0:0:0:0:
120,276,67993,5,12,0:0:0:0:
329,99,68151,1,2,0:0:0:0:
16,308,68309,5,12,0:0:0:0:
172,82,68467,1,2,0:0:0:0:
216,376,68625,5,12,0:0:0:0:
60,150,68783,5,2,0:0:0:0:
60,150,68861,1,2,0:0:0:0:
60,150,68940,1,12,0:0:0:0:
332,120,69098,1,2,0:0:0:0:
36,228,69256,5,12,0:0:0:0:
264,76,69414,1,2,0:0:0:0:
292,348,69572,1,10,0:0:0:0:
248,337,69650,1,2,0:0:0:0:
214,307,69729,1,2,0:0:0:0:
197,265,69808,1,2,0:0:0:0:
202,220,69888,2,0,L|252:204,1,45.4999979171754,2|2,0:0|0:0,0:0:0:0:
103,163,70046,2,0,L|53:147,1,45.4999979171754,2|2,0:0|0:0,0:0:0:0:
304,248,70203,6,0,P|316:196|288:144,1,90.9999958343508,6|4,0:0|0:0,0:0:0:0:
0,107,70519,2,0,P|-12:150|0:193,1,90.9999958343508,8|4,0:0|0:0,0:0:0:0:
260,104,70835,1,2,0:0:0:0:
59,149,70993,2,0,L|80:256,1,90.9999958343508,4|8,0:0|0:0,0:0:0:0:
157,292,71309,1,4,0:0:0:0:
304,40,71467,5,2,0:0:0:0:
240,256,71625,1,4,0:0:0:0:
68,80,71782,2,0,L|172:56,1,90.9999958343508,8|4,0:0|0:0,0:0:0:0:
384,168,72098,1,2,0:0:0:0:
225,345,72256,2,0,P|173:317|153:281,1,90.9999958343508,6|8,0:0|0:0,0:0:0:0:
452,128,72572,6,0,B|476:168|452:212|452:212|480:252|460:304,1,181.999991668702,6|4,0:0|0:0,0:0:0:0:
164,212,73046,1,8,0:0:0:0:
360,332,73203,1,4,0:0:0:0:
304,64,73361,1,2,0:0:0:0:
224,296,73519,1,4,0:0:0:0:
408,56,73677,1,8,0:0:0:0:
254,365,73835,6,0,B|219:375|191:363|191:363|159:363|135:383|135:383|111:371|79:371,1,181.999991668702,6|4,0:0|0:0,0:0:0:0:
12,172,74309,2,0,B|2:131|2:131|14:83,1,90.9999958343508,8|4,0:0|0:0,0:0:0:0:
292,136,74625,1,2,0:0:0:0:
100,44,74782,1,6,0:0:0:0:
100,44,74861,1,2,0:0:0:0:
100,44,74940,2,0,L|92:148,1,90.9999958343508,8|4,0:0|0:0,0:0:0:0:
393,314,75256,6,0,L|419:134,1,181.999991668702,6|2,0:0|0:0,0:0:0:0:
93,134,75730,2,0,L|119:314,1,181.999991668702,6|2,0:0|0:0,0:0:0:0:
252,364,76125,1,2,0:0:0:0:
252,364,76203,2,0,P|288:308|236:208,1,181.999991668702,6|4,0:0|0:0,0:0:0:0:
24,48,76677,5,2,0:0:0:0:
192,288,76835,1,12,0:0:0:0:
320,28,76993,1,2,0:0:0:0:
60,180,77151,1,6,0:0:0:0:
348,256,77309,1,2,0:0:0:0:
204,8,77467,2,0,L|192:140,1,90.9999958343508,12|2,0:0|0:0,0:0:0:0:
392,344,77782,6,0,P|441:271|411:188,1,181.999991668702,6|8,0:0|0:0,0:0:0:0:
100,188,78256,2,0,P|71:271|120:344,1,181.999991668702,6|8,0:0|0:0,0:0:0:0:
348,88,78730,2,0,L|192:80,1,136.499993751526,6|0,0:0|0:0,0:0:0:0:
144,28,79046,6,0,P|124:76|140:132,1,90.9999958343508,6|2,0:0|0:0,0:0:0:0:
296,352,79361,1,2,0:0:0:0:
329,322,79439,1,2,0:0:0:0:
340,278,79518,1,2,0:0:0:0:
323,237,79597,1,2,0:0:0:0:
285,213,79676,1,2,0:0:0:0:
252,184,79756,1,2,0:0:0:0:
241,140,79835,1,2,0:0:0:0:
258,99,79914,1,2,0:0:0:0:
296,75,79993,2,0,L|360:80,1,45.4999979171754,8|0,0:0|0:0,0:0:0:0:
432,212,80151,5,2,0:0:0:0:
432,212,80230,1,2,0:0:0:0:
432,212,80309,1,12,0:0:0:0:
160,176,80467,1,2,0:0:0:0:
504,180,80625,5,12,0:0:0:0:
232,216,80783,1,2,0:0:0:0:
504,96,80940,5,12,0:0:0:0:
337,313,81098,1,2,0:0:0:0:
337,313,81177,1,2,0:0:0:0:
337,313,81256,1,12,0:0:0:0:
236,60,81414,5,2,0:0:0:0:
236,60,81493,1,2,0:0:0:0:
236,60,81572,1,12,0:0:0:0:
52,260,81730,1,2,0:0:0:0:
52,260,81809,1,2,0:0:0:0:
52,260,81888,2,0,L|112:264,1,45.4999979171754,2|2,0:0|0:0,0:0:0:0:
288,144,82046,1,2,0:0:0:0:
288,144,82125,1,2,0:0:0:0:
288,144,82204,2,0,L|228:148,1,45.4999979171754,2|2,0:0|0:0,0:0:0:0:
88,336,82361,2,0,L|148:340,1,45.4999979171754,2|2,0:0|0:0,0:0:0:0:
240,64,82519,2,0,P|184:88|164:164,1,136.499993751526,2|0,0:0|2:0,0:0:0:0:
200,272,82835,5,14,0:0:0:0:
256,192,82914,12,0,84572,2:0:0:0:
465,215,84887,5,2,0:0:0:0:
428,229,84966,1,2,0:0:0:0:
388,231,85045,1,2,0:0:0:0:
350,220,85124,1,2,0:0:0:0:
316,199,85203,1,2,0:0:0:0:
291,168,85282,1,2,0:0:0:0:
276,132,85361,6,0,B|220:84|146:162|146:162|62:262|-10:158|-10:158|66:54|146:162|146:162|220:240|276:200,1,685.999979064942,6|0,0:0|0:0,0:0:0:0:
504,352,86625,5,14,0:0:0:0:
376,64,86782,1,2,0:0:0:0:
236,352,86940,1,2,0:0:0:0:
376,20,87098,5,14,0:0:0:0:
492,316,87255,1,2,0:0:0:0:
336,40,87413,1,2,0:0:0:0:
224,376,87572,5,14,0:0:0:0:
