osu file format v14

[General]
AudioFilename: audio.mp3
AudioLeadIn: 0
PreviewTime: 129697
Countdown: 0
SampleSet: Normal
StackLeniency: 0.7
Mode: 1
LetterboxInBreaks: 0
WidescreenStoryboard: 0

[Editor]
Bookmarks: 5621,10838,21273,31708,42143,52577,52903,55186,55512,57795,58121,64643,64969,65295,65621,74751,75077,75403,75730,76056,86490,96925,107360,117795,118121,120403,120730,123012,123338,129860,130186,130512,130838,139969,140295,140621,140947,141273,151708,161980,172577,177795,178121,185621,191001,195077,195403,195730,195811,196056,206490,215621,215947,216273,216599,216925,224751,229969,240403,249860,250186,250512,250838,255730,255893,261925
DistanceSpacing: 0.8
BeatDivisor: 4
GridSize: 4
TimelineZoom: 1.5

[Metadata]
Title:Yuki no Youni
TitleUnicode:雪のように
Artist:AKINO with bless4
ArtistUnicode:AKINO with bless4
Creator:Volta
Version:Oni
Source:
Tags:christmas xmas winter
BeatmapID:1390706
BeatmapSetID:630705

[Difficulty]
HPDrainRate:6
CircleSize:7
OverallDifficulty:6
ApproachRate:0
SliderMultiplier:1.4
SliderTickRate:1

[Events]
//Background and Video events
0,0,"yukine.jpg",0,95
//Break Periods
//Storyboard Layer 0 (Background)
//Storyboard Layer 1 (Fail)
//Storyboard Layer 2 (Pass)
//Storyboard Layer 3 (Foreground)
//Storyboard Sound Samples

[TimingPoints]
404,326.086956521739,4,1,0,30,1,0
404,-133.333333333333,4,1,0,30,0,0
9860,-100,4,1,0,70,0,0
65621,-100,4,1,0,80,0,1
86490,-100,4,1,0,70,0,0
130838,-100,4,1,0,80,0,1
151708,-100,4,1,0,70,0,0
196056,-100,4,1,0,80,0,1
229969,-100,4,1,0,70,0,0
255730,-66.6666666666667,4,1,0,70,0,0

[HitObjects]
252,148,404,5,8,0:0:0:0:
252,148,1056,1,8,0:0:0:0:
252,148,1708,1,0,0:0:0:0:
252,148,2360,1,0,0:0:0:0:
172,92,2686,1,0,0:0:0:0:
172,92,3012,1,8,0:0:0:0:
172,92,3664,1,8,0:0:0:0:
172,92,3990,1,8,0:0:0:0:
172,92,4317,1,0,0:0:0:0:
340,68,4969,1,0,0:0:0:0:
260,96,5295,1,8,0:0:0:0:
172,92,5621,1,0,0:0:0:0:
172,92,6273,1,0,0:0:0:0:
236,88,6925,5,8,0:0:0:0:
172,92,7577,1,8,0:0:0:0:
172,92,7903,1,8,0:0:0:0:
248,100,8230,5,0,0:0:0:0:
172,92,8882,1,0,0:0:0:0:
172,92,9208,1,0,0:0:0:0:
248,100,9534,1,8,0:0:0:0:
228,172,10023,5,0,0:0:0:0:
228,172,10105,1,0,0:0:0:0:
228,172,10186,1,8,0:0:0:0:
232,144,10838,1,4,0:0:0:0:
228,104,11490,1,0,0:0:0:0:
228,104,12143,1,12,0:0:0:0:
272,120,12306,1,0,0:0:0:0:
364,220,12632,1,8,0:0:0:0:
364,220,12958,1,0,0:0:0:0:
364,220,13121,1,0,0:0:0:0:
364,220,13284,1,0,0:0:0:0:
364,220,13447,1,4,0:0:0:0:
128,160,13936,1,8,0:0:0:0:
128,160,14099,1,8,0:0:0:0:
284,156,14751,1,4,0:0:0:0:
284,156,14914,1,8,0:0:0:0:
196,136,15240,1,8,0:0:0:0:
196,136,15403,1,0,0:0:0:0:
208,128,15567,1,8,0:0:0:0:
208,128,15730,1,0,0:0:0:0:
208,128,15893,1,0,0:0:0:0:
208,128,16056,1,4,0:0:0:0:
112,132,16708,1,8,0:0:0:0:
112,132,17034,1,0,0:0:0:0:
112,132,17360,1,12,0:0:0:0:
152,168,17849,1,0,0:0:0:0:
232,96,18012,1,8,0:0:0:0:
180,168,18175,1,0,0:0:0:0:
152,168,18338,1,0,0:0:0:0:
152,124,18664,1,4,0:0:0:0:
272,160,18990,1,8,0:0:0:0:
272,160,19317,1,4,0:0:0:0:
220,144,19643,1,8,0:0:0:0:
220,144,19969,1,12,0:0:0:0:
248,100,20132,1,0,0:0:0:0:
192,140,20295,1,8,0:0:0:0:
264,88,20376,5,8,0:0:0:0:
264,88,20458,1,0,0:0:0:0:
192,100,20621,1,8,0:0:0:0:
192,100,20784,1,0,0:0:0:0:
192,100,20865,1,0,0:0:0:0:
192,100,20947,1,8,0:0:0:0:
116,128,21028,1,0,0:0:0:0:
192,100,21110,1,8,0:0:0:0:
192,100,21192,1,8,0:0:0:0:
328,104,21273,1,0,0:0:0:0:
160,108,21599,1,8,0:0:0:0:
244,92,21762,1,0,0:0:0:0:
244,92,21925,1,8,0:0:0:0:
104,88,22007,1,8,0:0:0:0:
228,160,22088,1,0,0:0:0:0:
252,108,22170,1,0,0:0:0:0:
228,160,22251,1,8,0:0:0:0:
260,124,22414,1,0,0:0:0:0:
276,64,22577,1,8,0:0:0:0:
176,136,22659,1,8,0:0:0:0:
276,64,22740,1,0,0:0:0:0:
108,88,22903,1,8,0:0:0:0:
276,64,23067,1,0,0:0:0:0:
108,88,23230,1,8,0:0:0:0:
276,64,23311,1,8,0:0:0:0:
280,68,23393,1,0,0:0:0:0:
120,128,23474,1,8,0:0:0:0:
108,88,23556,1,0,0:0:0:0:
312,200,23719,1,8,0:0:0:0:
108,88,23882,1,0,0:0:0:0:
108,88,24208,1,8,0:0:0:0:
256,136,24371,1,0,0:0:0:0:
108,88,24534,1,8,0:0:0:0:
216,104,24615,1,8,0:0:0:0:
216,104,24697,1,0,0:0:0:0:
108,88,24860,1,8,0:0:0:0:
216,104,25023,1,0,0:0:0:0:
184,136,25105,1,0,0:0:0:0:
108,88,25186,1,8,0:0:0:0:
152,136,25268,1,8,0:0:0:0:
240,64,25349,1,0,0:0:0:0:
108,88,25512,1,8,0:0:0:0:
240,88,25675,1,0,0:0:0:0:
180,72,25838,1,0,0:0:0:0:
112,164,25920,1,8,0:0:0:0:
204,136,26001,1,0,0:0:0:0:
312,112,26083,1,0,0:0:0:0:
108,88,26164,1,8,0:0:0:0:
312,112,26246,1,0,0:0:0:0:
312,112,26327,1,8,0:0:0:0:
424,156,26409,1,8,0:0:0:0:
144,100,26490,1,0,0:0:0:0:
160,108,26817,1,8,0:0:0:0:
244,92,26980,1,0,0:0:0:0:
244,92,27143,1,8,0:0:0:0:
104,88,27224,1,8,0:0:0:0:
228,160,27306,1,0,0:0:0:0:
252,108,27387,1,0,0:0:0:0:
228,160,27469,1,8,0:0:0:0:
260,124,27632,1,0,0:0:0:0:
276,64,27795,1,8,0:0:0:0:
176,136,27876,1,8,0:0:0:0:
276,64,27958,1,0,0:0:0:0:
108,88,28121,1,8,0:0:0:0:
276,64,28284,1,0,0:0:0:0:
108,88,28447,1,8,0:0:0:0:
276,64,28528,1,8,0:0:0:0:
280,68,28610,1,0,0:0:0:0:
120,128,28692,1,8,0:0:0:0:
108,88,28773,1,0,0:0:0:0:
312,200,28936,1,8,0:0:0:0:
108,88,29099,1,0,0:0:0:0:
108,88,29425,1,8,0:0:0:0:
256,136,29588,1,0,0:0:0:0:
108,88,29751,1,8,0:0:0:0:
224,68,29914,1,8,0:0:0:0:
224,68,29996,1,0,0:0:0:0:
108,88,30077,1,8,0:0:0:0:
216,104,30240,1,8,0:0:0:0:
152,136,30322,1,8,0:0:0:0:
108,88,30403,1,0,0:0:0:0:
280,104,30485,1,0,0:0:0:0:
240,64,30567,1,0,0:0:0:0:
32,144,30730,1,12,0:0:0:0:
32,144,31056,1,12,0:0:0:0:
32,144,31382,1,12,0:0:0:0:
32,144,31708,1,4,0:0:0:0:
264,72,32034,1,0,0:0:0:0:
264,72,32360,1,8,0:0:0:0:
264,96,32523,1,0,0:0:0:0:
300,100,32686,1,8,0:0:0:0:
192,112,32849,1,8,0:0:0:0:
320,108,34317,1,8,0:0:0:0:
320,108,34643,1,8,0:0:0:0:
272,96,34969,1,8,0:0:0:0:
272,96,35132,1,0,0:0:0:0:
272,100,35295,1,0,0:0:0:0:
272,104,35458,1,8,0:0:0:0:
260,104,35784,1,0,0:0:0:0:
260,104,35947,1,0,0:0:0:0:
160,120,36273,1,8,0:0:0:0:
160,120,36599,1,8,0:0:0:0:
232,112,36925,1,0,0:0:0:0:
192,152,37251,1,0,0:0:0:0:
192,152,37577,1,0,0:0:0:0:
192,152,37740,1,0,0:0:0:0:
312,92,37903,1,8,0:0:0:0:
192,152,38067,1,8,0:0:0:0:
220,120,38556,1,8,0:0:0:0:
48,148,38882,1,0,0:0:0:0:
144,128,39208,1,8,0:0:0:0:
144,128,39534,1,0,0:0:0:0:
176,128,40186,1,0,0:0:0:0:
216,104,40512,1,8,0:0:0:0:
216,104,40838,1,0,0:0:0:0:
236,80,41001,1,8,0:0:0:0:
224,192,41327,1,0,0:0:0:0:
100,152,41490,1,8,0:0:0:0:
100,152,41653,1,0,0:0:0:0:
100,152,41817,1,8,0:0:0:0:
332,136,41898,1,0,0:0:0:0:
100,152,41980,1,0,0:0:0:0:
120,152,42143,1,4,0:0:0:0:
248,120,42469,1,8,0:0:0:0:
256,108,42795,1,0,0:0:0:0:
256,108,42958,1,0,0:0:0:0:
232,148,43121,1,8,0:0:0:0:
236,180,43284,1,0,0:0:0:0:
232,136,43610,1,0,0:0:0:0:
256,148,43773,1,8,0:0:0:0:
256,148,44099,1,0,0:0:0:0:
144,152,44262,1,0,0:0:0:0:
256,148,44425,1,8,0:0:0:0:
232,132,44751,1,0,0:0:0:0:
208,120,45077,1,8,0:0:0:0:
236,112,45403,1,0,0:0:0:0:
240,112,45567,1,0,0:0:0:0:
240,124,45730,1,8,0:0:0:0:
240,128,45893,1,8,0:0:0:0:
96,152,46056,1,0,0:0:0:0:
204,140,46382,1,8,0:0:0:0:
164,136,46708,1,8,0:0:0:0:
268,96,46871,1,0,0:0:0:0:
268,96,47034,1,8,0:0:0:0:
268,96,47197,1,8,0:0:0:0:
268,96,47360,1,0,0:0:0:0:
168,176,47686,1,8,0:0:0:0:
360,144,47849,1,0,0:0:0:0:
304,180,48012,1,0,0:0:0:0:
436,148,48175,1,0,0:0:0:0:
232,156,48338,1,8,0:0:0:0:
256,172,48664,1,0,0:0:0:0:
492,184,48990,1,8,0:0:0:0:
440,184,49317,1,0,0:0:0:0:
440,184,49480,1,0,0:0:0:0:
460,184,49643,1,8,0:0:0:0:
420,196,49806,1,8,0:0:0:0:
336,224,49969,1,4,0:0:0:0:
276,128,50295,1,8,0:0:0:0:
364,204,50458,1,4,0:0:0:0:
276,128,50784,1,4,0:0:0:0:
20,172,51110,1,12,0:0:0:0:
192,104,51273,1,0,0:0:0:0:
416,224,51599,1,8,0:0:0:0:
416,224,51762,1,0,0:0:0:0:
376,200,51925,1,0,0:0:0:0:
376,200,52007,1,8,0:0:0:0:
376,200,52088,1,8,0:0:0:0:
376,200,52170,1,0,0:0:0:0:
376,200,52251,1,0,0:0:0:0:
376,200,52333,1,8,0:0:0:0:
376,200,52414,1,0,0:0:0:0:
232,144,52577,1,12,0:0:0:0:
240,136,52903,1,12,0:0:0:0:
180,104,53230,1,8,0:0:0:0:
180,104,53393,1,0,0:0:0:0:
180,104,53556,1,8,0:0:0:0:
180,104,53719,1,8,0:0:0:0:
204,88,54045,1,0,0:0:0:0:
236,80,54208,1,8,0:0:0:0:
80,144,54289,1,8,0:0:0:0:
104,144,54371,1,0,0:0:0:0:
80,144,54452,1,0,0:0:0:0:
104,152,54534,1,8,0:0:0:0:
136,136,54697,1,0,0:0:0:0:
156,136,54860,1,8,0:0:0:0:
272,112,54942,1,0,0:0:0:0:
156,136,55023,1,0,0:0:0:0:
172,136,55186,1,4,0:0:0:0:
172,136,55512,1,4,0:0:0:0:
236,112,55838,1,0,0:0:0:0:
244,96,56001,1,8,0:0:0:0:
244,96,56164,1,0,0:0:0:0:
244,96,56327,1,8,0:0:0:0:
244,96,56653,1,0,0:0:0:0:
244,96,56817,1,8,0:0:0:0:
260,140,56980,1,8,0:0:0:0:
260,140,57061,1,0,0:0:0:0:
260,140,57143,1,8,0:0:0:0:
272,92,57306,1,0,0:0:0:0:
184,136,57387,1,0,0:0:0:0:
272,92,57469,1,8,0:0:0:0:
232,100,57550,1,8,0:0:0:0:
240,80,57632,1,0,0:0:0:0:
240,76,57795,1,12,0:0:0:0:
88,140,58121,1,12,0:0:0:0:
184,120,58447,1,0,0:0:0:0:
184,120,58610,1,0,0:0:0:0:
184,120,58773,1,8,0:0:0:0:
184,120,58936,1,8,0:0:0:0:
200,128,59262,1,0,0:0:0:0:
240,132,59425,1,8,0:0:0:0:
240,132,59507,1,8,0:0:0:0:
240,132,59588,1,0,0:0:0:0:
240,136,59751,1,0,0:0:0:0:
132,160,59914,1,0,0:0:0:0:
180,152,60077,1,8,0:0:0:0:
256,156,60403,1,0,0:0:0:0:
196,100,60730,1,0,0:0:0:0:
196,100,61056,1,0,0:0:0:0:
196,100,61219,1,0,0:0:0:0:
256,156,61382,1,8,0:0:0:0:
256,104,61545,1,0,0:0:0:0:
256,156,61708,1,8,0:0:0:0:
172,112,62034,1,8,0:0:0:0:
208,112,62197,1,0,0:0:0:0:
208,120,62278,1,0,0:0:0:0:
208,120,62360,1,8,0:0:0:0:
164,88,62523,1,0,0:0:0:0:
164,88,62686,1,8,0:0:0:0:
176,112,62768,1,8,0:0:0:0:
164,88,62849,1,8,0:0:0:0:
264,112,63012,5,12,0:0:0:0:
208,144,63175,1,0,0:0:0:0:
208,144,63257,1,0,0:0:0:0:
232,120,63338,1,0,0:0:0:0:
284,136,63501,1,12,0:0:0:0:
208,144,63664,1,0,0:0:0:0:
224,128,63746,1,0,0:0:0:0:
208,144,63827,1,0,0:0:0:0:
148,136,63990,1,12,0:0:0:0:
224,128,64153,1,0,0:0:0:0:
148,136,64317,1,4,0:0:0:0:
176,140,64643,1,12,0:0:0:0:
224,128,64969,1,8,0:0:0:0:
252,132,65295,1,0,0:0:0:0:
176,140,65621,5,4,0:0:0:0:
252,132,65947,1,8,0:0:0:0:
252,132,66110,1,8,0:0:0:0:
180,116,66192,1,8,0:0:0:0:
180,116,66273,1,0,0:0:0:0:
180,116,66436,1,0,0:0:0:0:
256,108,66599,1,8,0:0:0:0:
256,108,66681,1,0,0:0:0:0:
152,172,66762,1,0,0:0:0:0:
180,168,66844,1,0,0:0:0:0:
180,176,66925,1,8,0:0:0:0:
180,176,67088,1,0,0:0:0:0:
180,176,67251,1,8,0:0:0:0:
184,176,67333,1,8,0:0:0:0:
184,176,67414,1,0,0:0:0:0:
184,176,67577,1,8,0:0:0:0:
184,176,67740,1,0,0:0:0:0:
136,136,67822,1,0,0:0:0:0:
180,176,67903,1,8,0:0:0:0:
188,176,67985,1,8,0:0:0:0:
188,176,68067,1,0,0:0:0:0:
192,84,68230,1,4,0:0:0:0:
272,104,68556,1,8,0:0:0:0:
248,160,68719,1,0,0:0:0:0:
112,140,68800,1,0,0:0:0:0:
300,228,68882,1,0,0:0:0:0:
300,228,69045,1,0,0:0:0:0:
300,228,69208,1,8,0:0:0:0:
200,128,69289,1,8,0:0:0:0:
292,228,69371,1,0,0:0:0:0:
292,228,69534,1,8,0:0:0:0:
200,128,69697,1,0,0:0:0:0:
200,128,69778,1,0,0:0:0:0:
292,228,69860,1,8,0:0:0:0:
196,136,69942,1,8,0:0:0:0:
292,228,70023,1,0,0:0:0:0:
292,228,70186,1,8,0:0:0:0:
252,228,70349,1,0,0:0:0:0:
184,116,70431,1,0,0:0:0:0:
292,228,70512,1,8,0:0:0:0:
292,228,70675,1,0,0:0:0:0:
292,228,70838,1,0,0:0:0:0:
208,132,71164,1,8,0:0:0:0:
164,140,71327,1,0,0:0:0:0:
256,132,71490,1,8,0:0:0:0:
160,128,71572,1,8,0:0:0:0:
252,136,71653,1,0,0:0:0:0:
256,132,71735,1,0,0:0:0:0:
268,136,71817,1,8,0:0:0:0:
272,140,71980,1,0,0:0:0:0:
272,140,72143,1,8,0:0:0:0:
272,144,72224,1,8,0:0:0:0:
272,144,72306,1,8,0:0:0:0:
288,136,72469,1,0,0:0:0:0:
196,132,72632,1,0,0:0:0:0:
196,120,72713,1,0,0:0:0:0:
196,148,72795,1,8,0:0:0:0:
196,152,72876,1,8,0:0:0:0:
196,156,72958,1,0,0:0:0:0:
196,152,73121,1,8,0:0:0:0:
180,144,73284,1,0,0:0:0:0:
240,172,73447,1,8,0:0:0:0:
240,144,73773,1,8,0:0:0:0:
240,144,73936,1,0,0:0:0:0:
112,184,74099,1,8,0:0:0:0:
112,184,74181,1,8,0:0:0:0:
112,184,74262,1,0,0:0:0:0:
112,184,74425,1,8,0:0:0:0:
112,184,74588,1,0,0:0:0:0:
180,136,74751,5,0,0:0:0:0:
72,144,74833,1,0,0:0:0:0:
80,144,74914,1,8,0:0:0:0:
236,128,75077,1,8,0:0:0:0:
96,144,75159,1,8,0:0:0:0:
96,144,75240,1,0,0:0:0:0:
240,116,75403,1,0,0:0:0:0:
104,144,75567,1,8,0:0:0:0:
104,148,75648,1,0,0:0:0:0:
240,116,75730,1,8,0:0:0:0:
84,144,75811,1,8,0:0:0:0:
80,144,75893,1,0,0:0:0:0:
240,120,76056,1,4,0:0:0:0:
104,116,76382,1,8,0:0:0:0:
196,112,76545,1,0,0:0:0:0:
196,112,76626,1,8,0:0:0:0:
196,112,76708,1,0,0:0:0:0:
196,112,76871,1,0,0:0:0:0:
196,112,77034,1,8,0:0:0:0:
216,108,77115,1,8,0:0:0:0:
212,104,77197,1,0,0:0:0:0:
216,108,77278,1,0,0:0:0:0:
216,104,77360,1,8,0:0:0:0:
216,108,77523,1,0,0:0:0:0:
216,108,77686,1,8,0:0:0:0:
60,96,77768,1,0,0:0:0:0:
220,108,77849,1,0,0:0:0:0:
220,108,78012,1,8,0:0:0:0:
220,108,78175,1,0,0:0:0:0:
220,108,78257,1,0,0:0:0:0:
224,108,78338,1,8,0:0:0:0:
260,96,78501,1,0,0:0:0:0:
156,128,78664,1,8,0:0:0:0:
272,104,78990,1,8,0:0:0:0:
156,128,79153,1,8,0:0:0:0:
156,128,79235,1,8,0:0:0:0:
156,128,79317,1,0,0:0:0:0:
152,132,79480,1,0,0:0:0:0:
148,140,79643,1,8,0:0:0:0:
148,140,79806,1,0,0:0:0:0:
256,184,79969,1,8,0:0:0:0:
256,184,80050,1,0,0:0:0:0:
256,184,80132,1,0,0:0:0:0:
256,184,80213,1,0,0:0:0:0:
256,184,80295,1,8,0:0:0:0:
352,100,80458,1,0,0:0:0:0:
268,140,80621,1,8,0:0:0:0:
268,140,80702,1,8,0:0:0:0:
268,140,80784,1,0,0:0:0:0:
320,108,80865,1,0,0:0:0:0:
320,112,80947,1,8,0:0:0:0:
256,128,81273,1,4,0:0:0:0:
160,92,81599,1,0,0:0:0:0:
144,132,81762,1,0,0:0:0:0:
160,92,81925,1,8,0:0:0:0:
144,132,82251,1,0,0:0:0:0:
236,144,82414,1,8,0:0:0:0:
244,144,82577,1,0,0:0:0:0:
256,128,82740,1,8,0:0:0:0:
256,140,82903,1,0,0:0:0:0:
256,140,83230,1,8,0:0:0:0:
288,136,83556,1,0,0:0:0:0:
172,112,83719,1,8,0:0:0:0:
160,132,83882,1,4,0:0:0:0:
188,124,84208,1,0,0:0:0:0:
48,252,84371,1,0,0:0:0:0:
188,124,84534,1,8,0:0:0:0:
172,112,84860,1,0,0:0:0:0:
200,120,85023,1,8,0:0:0:0:
188,124,85186,1,0,0:0:0:0:
204,128,85349,1,8,0:0:0:0:
200,120,85512,1,0,0:0:0:0:
248,120,85838,1,8,0:0:0:0:
248,120,86001,1,0,0:0:0:0:
256,120,86164,1,8,0:0:0:0:
256,120,86246,1,8,0:0:0:0:
256,120,86327,1,8,0:0:0:0:
144,116,86409,1,8,0:0:0:0:
328,104,86490,5,0,0:0:0:0:
160,108,86817,1,8,0:0:0:0:
244,92,86980,1,0,0:0:0:0:
244,92,87143,1,8,0:0:0:0:
104,88,87224,1,8,0:0:0:0:
228,160,87306,1,0,0:0:0:0:
252,108,87387,1,0,0:0:0:0:
228,160,87469,1,8,0:0:0:0:
260,124,87632,1,0,0:0:0:0:
276,64,87795,1,8,0:0:0:0:
176,136,87876,1,8,0:0:0:0:
276,64,87958,1,0,0:0:0:0:
108,88,88121,1,8,0:0:0:0:
276,64,88284,1,0,0:0:0:0:
108,88,88447,1,8,0:0:0:0:
276,64,88528,1,8,0:0:0:0:
280,68,88610,1,0,0:0:0:0:
120,128,88692,1,8,0:0:0:0:
108,88,88773,1,0,0:0:0:0:
312,200,88936,1,8,0:0:0:0:
108,88,89099,1,0,0:0:0:0:
108,88,89425,1,8,0:0:0:0:
256,136,89588,1,0,0:0:0:0:
108,88,89751,1,8,0:0:0:0:
216,104,89833,1,8,0:0:0:0:
216,104,89914,1,0,0:0:0:0:
108,88,90077,1,8,0:0:0:0:
216,104,90240,1,0,0:0:0:0:
184,136,90322,1,0,0:0:0:0:
108,88,90403,1,8,0:0:0:0:
152,136,90485,1,8,0:0:0:0:
240,64,90567,1,0,0:0:0:0:
108,88,90730,1,8,0:0:0:0:
240,88,90893,1,0,0:0:0:0:
180,72,91056,1,0,0:0:0:0:
112,164,91137,1,8,0:0:0:0:
204,136,91219,1,0,0:0:0:0:
312,112,91300,1,0,0:0:0:0:
108,88,91382,1,8,0:0:0:0:
312,112,91463,1,0,0:0:0:0:
312,112,91545,1,8,0:0:0:0:
424,156,91626,1,8,0:0:0:0:
144,100,91708,1,0,0:0:0:0:
160,108,92034,1,8,0:0:0:0:
244,92,92197,1,0,0:0:0:0:
244,92,92360,1,8,0:0:0:0:
104,88,92442,1,8,0:0:0:0:
228,160,92523,1,0,0:0:0:0:
252,108,92605,1,0,0:0:0:0:
228,160,92686,1,8,0:0:0:0:
260,124,92849,1,0,0:0:0:0:
276,64,93012,1,8,0:0:0:0:
176,136,93094,1,8,0:0:0:0:
276,64,93175,1,0,0:0:0:0:
108,88,93338,1,8,0:0:0:0:
276,64,93501,1,0,0:0:0:0:
108,88,93664,1,8,0:0:0:0:
276,64,93746,1,8,0:0:0:0:
280,68,93827,1,0,0:0:0:0:
120,128,93909,1,8,0:0:0:0:
108,88,93990,1,0,0:0:0:0:
312,200,94153,1,8,0:0:0:0:
108,88,94317,1,0,0:0:0:0:
108,88,94643,1,8,0:0:0:0:
256,136,94806,1,0,0:0:0:0:
108,88,94969,1,8,0:0:0:0:
224,68,95132,1,8,0:0:0:0:
224,68,95213,1,0,0:0:0:0:
108,88,95295,1,8,0:0:0:0:
216,104,95458,1,8,0:0:0:0:
152,136,95539,1,8,0:0:0:0:
108,88,95621,1,0,0:0:0:0:
280,104,95702,1,0,0:0:0:0:
240,64,95784,1,0,0:0:0:0:
32,144,95947,1,12,0:0:0:0:
32,144,96273,1,12,0:0:0:0:
32,144,96599,1,12,0:0:0:0:
32,144,96925,1,4,0:0:0:0:
264,72,97251,1,0,0:0:0:0:
264,72,97577,1,0,0:0:0:0:
264,96,97740,1,8,0:0:0:0:
300,100,97903,1,0,0:0:0:0:
192,112,98067,1,8,0:0:0:0:
320,108,99534,1,0,0:0:0:0:
320,108,99860,1,0,0:0:0:0:
272,96,100186,1,0,0:0:0:0:
272,96,100349,1,8,0:0:0:0:
272,100,100512,1,8,0:0:0:0:
272,104,100675,1,0,0:0:0:0:
260,104,100838,1,8,0:0:0:0:
260,104,101001,1,0,0:0:0:0:
160,120,101327,1,0,0:0:0:0:
232,112,102143,1,0,0:0:0:0:
88,128,102469,1,0,0:0:0:0:
192,152,102795,1,0,0:0:0:0:
192,152,102958,1,0,0:0:0:0:
312,92,103121,1,8,0:0:0:0:
192,152,103284,1,8,0:0:0:0:
220,120,103773,1,8,0:0:0:0:
48,148,104099,1,0,0:0:0:0:
144,128,104425,1,8,0:0:0:0:
144,128,104751,1,0,0:0:0:0:
176,128,105403,1,0,0:0:0:0:
208,152,106056,1,8,0:0:0:0:
224,192,106545,1,8,0:0:0:0:
100,152,106708,1,8,0:0:0:0:
100,152,106871,1,0,0:0:0:0:
100,152,107034,1,8,0:0:0:0:
332,136,107115,1,0,0:0:0:0:
100,152,107197,1,0,0:0:0:0:
120,152,107360,1,4,0:0:0:0:
248,120,107686,1,8,0:0:0:0:
256,108,108012,1,0,0:0:0:0:
256,108,108175,1,0,0:0:0:0:
232,148,108338,1,8,0:0:0:0:
236,180,108501,1,0,0:0:0:0:
232,136,108827,1,0,0:0:0:0:
256,148,108990,1,8,0:0:0:0:
256,148,109317,1,0,0:0:0:0:
144,152,109480,1,0,0:0:0:0:
256,148,109643,1,8,0:0:0:0:
232,132,109969,1,0,0:0:0:0:
208,120,110295,1,8,0:0:0:0:
236,112,110621,1,0,0:0:0:0:
240,112,110784,1,0,0:0:0:0:
240,124,110947,1,8,0:0:0:0:
240,128,111110,1,8,0:0:0:0:
96,152,111273,1,0,0:0:0:0:
204,140,111599,1,8,0:0:0:0:
164,136,111925,1,8,0:0:0:0:
268,96,112088,1,0,0:0:0:0:
268,96,112251,1,8,0:0:0:0:
268,96,112414,1,8,0:0:0:0:
268,96,112577,1,0,0:0:0:0:
168,176,112903,1,8,0:0:0:0:
360,144,113067,1,0,0:0:0:0:
304,180,113230,1,0,0:0:0:0:
436,148,113393,1,0,0:0:0:0:
232,156,113556,1,8,0:0:0:0:
256,172,113882,1,0,0:0:0:0:
492,184,114208,1,8,0:0:0:0:
440,184,114534,1,0,0:0:0:0:
440,184,114697,1,0,0:0:0:0:
460,184,114860,1,8,0:0:0:0:
420,196,115023,1,8,0:0:0:0:
336,224,115186,1,4,0:0:0:0:
276,128,115512,1,8,0:0:0:0:
364,204,115675,1,4,0:0:0:0:
276,128,116001,1,4,0:0:0:0:
20,172,116327,1,12,0:0:0:0:
160,108,116490,1,0,0:0:0:0:
416,224,116817,1,8,0:0:0:0:
416,224,116980,1,0,0:0:0:0:
376,200,117143,1,0,0:0:0:0:
376,200,117224,1,8,0:0:0:0:
376,200,117306,1,8,0:0:0:0:
376,200,117387,1,0,0:0:0:0:
376,200,117469,1,0,0:0:0:0:
376,200,117550,1,8,0:0:0:0:
376,200,117632,1,0,0:0:0:0:
232,144,117795,1,12,0:0:0:0:
240,136,118121,1,12,0:0:0:0:
180,104,118447,1,8,0:0:0:0:
180,104,118610,1,0,0:0:0:0:
180,104,118773,1,8,0:0:0:0:
180,104,118936,1,8,0:0:0:0:
204,88,119262,1,0,0:0:0:0:
236,80,119425,1,8,0:0:0:0:
80,144,119507,1,8,0:0:0:0:
104,144,119588,1,0,0:0:0:0:
80,144,119670,1,0,0:0:0:0:
104,152,119751,1,8,0:0:0:0:
136,136,119914,1,0,0:0:0:0:
156,136,120077,1,8,0:0:0:0:
272,112,120159,1,0,0:0:0:0:
156,136,120240,1,0,0:0:0:0:
172,136,120403,1,4,0:0:0:0:
172,136,120730,1,4,0:0:0:0:
236,112,121056,1,0,0:0:0:0:
244,96,121219,1,8,0:0:0:0:
244,96,121382,1,0,0:0:0:0:
244,96,121545,1,8,0:0:0:0:
244,96,121871,1,0,0:0:0:0:
244,96,122034,1,8,0:0:0:0:
260,140,122197,1,8,0:0:0:0:
260,140,122278,1,0,0:0:0:0:
260,140,122360,1,8,0:0:0:0:
272,92,122523,1,0,0:0:0:0:
184,136,122605,1,0,0:0:0:0:
272,92,122686,1,8,0:0:0:0:
232,100,122768,1,8,0:0:0:0:
240,80,122849,1,0,0:0:0:0:
240,76,123012,1,12,0:0:0:0:
88,140,123338,1,12,0:0:0:0:
184,120,123664,1,0,0:0:0:0:
184,120,123827,1,0,0:0:0:0:
184,120,123990,1,8,0:0:0:0:
184,120,124153,1,8,0:0:0:0:
200,128,124480,1,0,0:0:0:0:
240,132,124643,1,8,0:0:0:0:
240,132,124724,1,8,0:0:0:0:
240,132,124806,1,0,0:0:0:0:
240,136,124969,1,0,0:0:0:0:
132,160,125132,1,0,0:0:0:0:
180,152,125295,1,8,0:0:0:0:
256,156,125621,1,0,0:0:0:0:
196,100,125947,1,0,0:0:0:0:
196,100,126110,1,0,0:0:0:0:
196,100,126273,1,0,0:0:0:0:
256,156,126599,1,0,0:0:0:0:
256,104,126762,1,8,0:0:0:0:
256,156,126925,1,0,0:0:0:0:
172,112,127251,1,0,0:0:0:0:
208,112,127414,1,0,0:0:0:0:
208,120,127496,1,0,0:0:0:0:
208,120,127577,1,8,0:0:0:0:
164,88,127740,1,0,0:0:0:0:
164,88,127903,1,8,0:0:0:0:
176,112,127985,1,8,0:0:0:0:
164,88,128067,1,8,0:0:0:0:
264,112,128230,5,12,0:0:0:0:
208,144,128393,1,0,0:0:0:0:
208,144,128474,1,0,0:0:0:0:
232,120,128556,1,0,0:0:0:0:
284,136,128719,1,12,0:0:0:0:
208,144,128882,1,0,0:0:0:0:
224,128,128963,1,0,0:0:0:0:
208,144,129045,1,0,0:0:0:0:
148,136,129208,1,12,0:0:0:0:
224,128,129371,1,0,0:0:0:0:
148,136,129534,1,4,0:0:0:0:
60,208,129860,1,12,0:0:0:0:
168,180,130186,1,8,0:0:0:0:
276,156,130512,1,0,0:0:0:0:
176,140,130838,5,4,0:0:0:0:
252,132,131164,1,8,0:0:0:0:
252,132,131327,1,8,0:0:0:0:
180,116,131409,1,8,0:0:0:0:
180,116,131490,1,0,0:0:0:0:
180,116,131653,1,0,0:0:0:0:
256,108,131817,1,8,0:0:0:0:
256,108,131898,1,0,0:0:0:0:
152,172,131980,1,0,0:0:0:0:
180,168,132061,1,0,0:0:0:0:
180,176,132143,1,8,0:0:0:0:
180,176,132306,1,0,0:0:0:0:
180,176,132469,1,8,0:0:0:0:
184,176,132550,1,8,0:0:0:0:
184,176,132632,1,0,0:0:0:0:
208,176,132713,1,0,0:0:0:0:
184,176,132795,1,8,0:0:0:0:
184,176,132958,1,0,0:0:0:0:
180,176,133121,1,8,0:0:0:0:
188,176,133202,1,8,0:0:0:0:
188,176,133284,1,0,0:0:0:0:
192,84,133447,1,4,0:0:0:0:
272,104,133773,1,8,0:0:0:0:
248,160,133936,1,0,0:0:0:0:
112,140,134018,1,0,0:0:0:0:
300,228,134099,1,0,0:0:0:0:
300,228,134262,1,0,0:0:0:0:
300,228,134425,1,8,0:0:0:0:
200,128,134507,1,8,0:0:0:0:
292,228,134588,1,0,0:0:0:0:
184,108,134670,1,0,0:0:0:0:
292,228,134751,1,8,0:0:0:0:
200,128,134914,1,0,0:0:0:0:
292,228,135077,1,8,0:0:0:0:
200,128,135159,1,0,0:0:0:0:
292,228,135240,1,0,0:0:0:0:
292,228,135403,1,8,0:0:0:0:
252,228,135567,1,0,0:0:0:0:
184,116,135648,1,0,0:0:0:0:
292,228,135730,1,8,0:0:0:0:
196,136,135811,1,8,0:0:0:0:
292,228,135893,1,0,0:0:0:0:
292,228,136056,1,0,0:0:0:0:
208,132,136382,1,8,0:0:0:0:
164,140,136545,1,0,0:0:0:0:
256,132,136708,1,8,0:0:0:0:
160,128,136789,1,8,0:0:0:0:
252,136,136871,1,0,0:0:0:0:
256,132,136952,1,0,0:0:0:0:
268,136,137034,1,8,0:0:0:0:
272,140,137197,1,0,0:0:0:0:
272,140,137360,1,8,0:0:0:0:
272,144,137442,1,8,0:0:0:0:
272,144,137523,1,8,0:0:0:0:
288,136,137686,1,0,0:0:0:0:
196,132,137849,1,0,0:0:0:0:
176,152,137931,1,0,0:0:0:0:
196,148,138012,1,8,0:0:0:0:
196,152,138094,1,8,0:0:0:0:
196,156,138175,1,0,0:0:0:0:
196,152,138338,1,8,0:0:0:0:
180,144,138501,1,0,0:0:0:0:
240,172,138664,1,8,0:0:0:0:
240,144,138990,1,8,0:0:0:0:
240,144,139153,1,0,0:0:0:0:
240,128,139235,1,0,0:0:0:0:
112,184,139317,1,8,0:0:0:0:
112,184,139398,1,8,0:0:0:0:
112,184,139480,1,0,0:0:0:0:
112,184,139643,1,8,0:0:0:0:
112,184,139806,1,0,0:0:0:0:
180,136,139969,5,0,0:0:0:0:
72,144,140050,1,0,0:0:0:0:
80,144,140132,1,8,0:0:0:0:
236,128,140295,1,8,0:0:0:0:
96,148,140376,1,8,0:0:0:0:
96,144,140458,1,0,0:0:0:0:
240,116,140621,1,0,0:0:0:0:
232,100,140702,1,0,0:0:0:0:
104,144,140784,1,8,0:0:0:0:
104,148,140865,1,0,0:0:0:0:
240,116,140947,1,8,0:0:0:0:
84,144,141028,1,8,0:0:0:0:
80,144,141110,1,0,0:0:0:0:
240,120,141273,1,4,0:0:0:0:
104,116,141599,1,8,0:0:0:0:
196,112,141762,1,0,0:0:0:0:
196,112,141844,1,8,0:0:0:0:
196,112,141925,1,0,0:0:0:0:
196,112,142088,1,0,0:0:0:0:
196,112,142251,1,8,0:0:0:0:
216,108,142333,1,8,0:0:0:0:
212,104,142414,1,0,0:0:0:0:
216,108,142496,1,0,0:0:0:0:
216,104,142577,1,8,0:0:0:0:
216,108,142740,1,0,0:0:0:0:
216,108,142903,1,8,0:0:0:0:
60,96,142985,1,0,0:0:0:0:
220,108,143067,1,0,0:0:0:0:
220,108,143230,1,8,0:0:0:0:
220,108,143393,1,0,0:0:0:0:
220,108,143474,1,0,0:0:0:0:
224,108,143556,1,8,0:0:0:0:
260,96,143719,1,0,0:0:0:0:
156,128,143882,1,8,0:0:0:0:
236,104,144045,1,0,0:0:0:0:
236,104,144126,1,0,0:0:0:0:
272,104,144208,1,8,0:0:0:0:
156,128,144371,1,8,0:0:0:0:
156,128,144452,1,8,0:0:0:0:
156,128,144534,1,0,0:0:0:0:
152,132,144697,1,0,0:0:0:0:
148,140,144860,1,8,0:0:0:0:
148,140,145023,1,0,0:0:0:0:
256,184,145186,1,8,0:0:0:0:
256,184,145268,1,0,0:0:0:0:
256,184,145349,1,0,0:0:0:0:
256,184,145431,1,0,0:0:0:0:
256,184,145512,1,8,0:0:0:0:
352,100,145675,1,0,0:0:0:0:
268,140,145838,1,8,0:0:0:0:
268,140,145920,1,8,0:0:0:0:
268,140,146001,1,0,0:0:0:0:
320,108,146083,1,0,0:0:0:0:
320,112,146164,1,8,0:0:0:0:
232,120,146490,1,4,0:0:0:0:
248,172,146817,5,0,0:0:0:0:
248,172,146980,1,0,0:0:0:0:
216,188,147143,1,8,0:0:0:0:
216,188,147469,1,0,0:0:0:0:
220,192,147632,1,8,0:0:0:0:
220,192,147795,1,0,0:0:0:0:
220,192,147958,1,8,0:0:0:0:
216,188,148121,1,0,0:0:0:0:
220,200,148447,1,8,0:0:0:0:
220,192,148610,1,0,0:0:0:0:
220,200,148773,1,8,0:0:0:0:
220,200,148855,1,8,0:0:0:0:
220,200,148936,1,8,0:0:0:0:
208,176,149099,1,4,0:0:0:0:
124,156,149425,1,0,0:0:0:0:
124,156,149588,1,0,0:0:0:0:
272,144,149751,1,8,0:0:0:0:
236,160,150077,1,0,0:0:0:0:
236,160,150240,1,8,0:0:0:0:
236,160,150403,1,0,0:0:0:0:
236,160,150567,1,8,0:0:0:0:
236,160,150730,1,0,0:0:0:0:
248,172,151056,1,8,0:0:0:0:
256,172,151219,1,0,0:0:0:0:
256,172,151382,1,8,0:0:0:0:
256,172,151463,1,8,0:0:0:0:
256,172,151545,1,8,0:0:0:0:
256,172,151626,1,8,0:0:0:0:
256,172,151708,1,0,0:0:0:0:
208,136,152034,1,8,0:0:0:0:
208,136,152197,1,8,0:0:0:0:
208,136,152360,1,0,0:0:0:0:
200,144,152442,1,0,0:0:0:0:
208,136,152523,1,0,0:0:0:0:
208,136,152686,1,8,0:0:0:0:
208,136,152849,1,0,0:0:0:0:
176,200,153175,1,0,0:0:0:0:
176,200,153338,1,8,0:0:0:0:
176,200,153420,1,0,0:0:0:0:
176,200,153501,1,0,0:0:0:0:
268,128,153664,1,8,0:0:0:0:
268,128,153827,1,0,0:0:0:0:
268,128,153990,1,8,0:0:0:0:
268,128,154153,5,8,0:0:0:0:
204,120,154480,1,0,0:0:0:0:
264,108,154643,1,8,0:0:0:0:
264,108,154806,1,8,0:0:0:0:
252,108,154969,1,0,0:0:0:0:
220,72,155050,1,0,0:0:0:0:
252,120,155132,1,0,0:0:0:0:
252,120,155295,1,8,0:0:0:0:
136,124,155458,1,0,0:0:0:0:
136,124,155784,1,0,0:0:0:0:
160,120,155947,1,8,0:0:0:0:
136,124,156110,1,0,0:0:0:0:
112,136,156436,1,0,0:0:0:0:
264,120,156599,1,8,0:0:0:0:
264,120,156762,1,8,0:0:0:0:
204,120,157088,1,0,0:0:0:0:
264,108,157251,1,8,0:0:0:0:
264,108,157414,1,8,0:0:0:0:
252,108,157577,1,0,0:0:0:0:
224,64,157659,1,0,0:0:0:0:
252,120,157740,1,0,0:0:0:0:
252,120,157903,1,8,0:0:0:0:
136,124,158067,1,0,0:0:0:0:
176,200,158393,1,0,0:0:0:0:
176,200,158556,1,8,0:0:0:0:
176,200,158637,1,0,0:0:0:0:
176,200,158719,1,0,0:0:0:0:
268,128,158882,1,8,0:0:0:0:
268,128,159045,1,0,0:0:0:0:
268,128,159208,1,8,0:0:0:0:
268,128,159371,5,8,0:0:0:0:
264,96,159697,1,0,0:0:0:0:
232,116,159860,1,8,0:0:0:0:
232,116,160023,1,8,0:0:0:0:
232,116,160186,1,0,0:0:0:0:
204,72,160268,1,0,0:0:0:0:
232,116,160349,1,0,0:0:0:0:
264,96,160512,1,8,0:0:0:0:
232,116,160675,1,0,0:0:0:0:
184,176,160838,1,8,0:0:0:0:
184,176,160920,1,0,0:0:0:0:
184,176,161001,1,0,0:0:0:0:
184,176,161164,1,8,0:0:0:0:
184,176,161327,1,8,0:0:0:0:
184,176,161409,1,0,0:0:0:0:
184,176,161490,1,8,0:0:0:0:
200,96,161572,1,8,0:0:0:0:
184,176,161653,1,0,0:0:0:0:
184,176,161735,1,0,0:0:0:0:
184,176,161817,1,8,0:0:0:0:
184,176,161980,1,4,0:0:0:0:
268,128,162306,1,0,0:0:0:0:
268,128,162469,1,8,0:0:0:0:
268,128,162632,1,8,0:0:0:0:
268,128,162795,1,0,0:0:0:0:
268,128,162876,1,0,0:0:0:0:
268,128,162958,1,0,0:0:0:0:
224,116,163121,1,8,0:0:0:0:
224,116,163284,1,0,0:0:0:0:
148,120,163365,1,0,0:0:0:0:
148,120,163447,1,0,0:0:0:0:
176,116,163528,1,8,0:0:0:0:
176,116,163610,1,0,0:0:0:0:
136,136,163773,1,8,0:0:0:0:
196,132,163936,1,0,0:0:0:0:
196,132,164018,1,0,0:0:0:0:
196,132,164099,1,8,0:0:0:0:
44,136,164262,1,0,0:0:0:0:
248,112,164425,1,8,0:0:0:0:
248,112,164588,1,8,0:0:0:0:
216,124,164914,1,0,0:0:0:0:
224,96,165077,1,8,0:0:0:0:
224,96,165240,1,8,0:0:0:0:
264,240,165403,1,0,0:0:0:0:
296,144,165485,1,0,0:0:0:0:
212,140,165567,1,0,0:0:0:0:
124,144,165730,1,8,0:0:0:0:
268,144,165893,1,0,0:0:0:0:
200,136,165974,1,0,0:0:0:0:
304,108,166056,5,8,0:0:0:0:
200,136,166137,1,8,0:0:0:0:
268,144,166219,1,0,0:0:0:0:
296,128,166382,1,8,0:0:0:0:
280,144,166545,1,0,0:0:0:0:
264,96,166626,1,8,0:0:0:0:
280,144,166708,1,0,0:0:0:0:
280,144,166871,1,0,0:0:0:0:
288,96,167034,1,8,0:0:0:0:
160,96,167197,1,8,0:0:0:0:
268,128,167523,1,0,0:0:0:0:
268,128,167686,1,8,0:0:0:0:
268,128,167849,1,8,0:0:0:0:
268,128,168012,1,0,0:0:0:0:
268,128,168094,1,0,0:0:0:0:
268,128,168175,1,0,0:0:0:0:
224,116,168338,1,8,0:0:0:0:
224,116,168501,1,0,0:0:0:0:
224,116,168664,1,0,0:0:0:0:
216,136,168746,1,0,0:0:0:0:
216,136,168827,1,8,0:0:0:0:
224,116,168909,1,0,0:0:0:0:
216,136,168990,1,8,0:0:0:0:
144,152,169153,1,0,0:0:0:0:
140,160,169317,1,8,0:0:0:0:
280,152,169398,1,8,0:0:0:0:
140,160,169480,1,0,0:0:0:0:
140,160,169643,1,8,0:0:0:0:
160,72,169806,1,0,0:0:0:0:
152,108,169887,1,0,0:0:0:0:
160,72,169969,1,0,0:0:0:0:
216,144,170050,1,8,0:0:0:0:
280,152,170132,1,0,0:0:0:0:
296,148,170295,1,8,0:0:0:0:
276,168,170458,1,8,0:0:0:0:
100,148,170539,1,8,0:0:0:0:
260,180,170621,1,0,0:0:0:0:
300,108,170784,1,0,0:0:0:0:
160,144,170947,1,8,0:0:0:0:
332,148,171599,1,8,0:0:0:0:
204,56,171762,1,0,0:0:0:0:
332,148,171844,1,8,0:0:0:0:
332,148,171925,1,8,0:0:0:0:
204,56,172088,1,0,0:0:0:0:
332,148,172170,1,8,0:0:0:0:
332,148,172251,1,8,0:0:0:0:
196,168,172333,1,0,0:0:0:0:
332,148,172414,1,0,0:0:0:0:
332,148,172496,1,8,0:0:0:0:
332,148,172577,1,0,0:0:0:0:
252,104,172903,1,12,0:0:0:0:
48,128,173393,1,0,0:0:0:0:
316,176,173556,1,8,0:0:0:0:
176,160,173719,1,8,0:0:0:0:
176,160,173800,1,0,0:0:0:0:
176,168,173882,1,8,0:0:0:0:
300,156,174045,1,8,0:0:0:0:
208,116,174126,1,8,0:0:0:0:
236,136,174208,1,0,0:0:0:0:
248,128,174289,1,0,0:0:0:0:
308,256,174371,1,8,0:0:0:0:
220,192,174534,1,0,0:0:0:0:
256,148,174697,1,8,0:0:0:0:
220,192,174778,1,8,0:0:0:0:
256,148,174860,1,0,0:0:0:0:
200,164,175023,1,8,0:0:0:0:
184,184,175186,1,0,0:0:0:0:
184,192,175268,1,0,0:0:0:0:
184,192,175349,1,0,0:0:0:0:
276,156,175512,1,12,0:0:0:0:
240,112,176001,1,0,0:0:0:0:
240,112,176164,1,8,0:0:0:0:
248,116,176327,1,8,0:0:0:0:
244,120,176409,1,0,0:0:0:0:
244,120,176490,1,8,0:0:0:0:
176,128,176653,1,0,0:0:0:0:
196,104,176735,1,0,0:0:0:0:
192,112,176817,1,8,0:0:0:0:
192,112,176898,1,8,0:0:0:0:
188,120,176980,1,0,0:0:0:0:
248,96,177143,1,8,0:0:0:0:
152,124,177306,1,0,0:0:0:0:
152,128,177387,1,0,0:0:0:0:
176,128,177469,1,8,0:0:0:0:
176,128,177632,1,0,0:0:0:0:
260,148,177795,5,12,0:0:0:0:
260,148,178121,1,12,0:0:0:0:
48,128,178610,1,0,0:0:0:0:
316,176,178773,1,8,0:0:0:0:
176,160,178936,1,8,0:0:0:0:
176,160,179018,1,0,0:0:0:0:
176,168,179099,1,8,0:0:0:0:
300,156,179262,1,8,0:0:0:0:
208,116,179344,1,8,0:0:0:0:
236,136,179425,1,0,0:0:0:0:
248,128,179507,1,0,0:0:0:0:
308,256,179588,1,8,0:0:0:0:
140,124,179751,1,0,0:0:0:0:
140,124,179914,1,0,0:0:0:0:
156,124,179996,1,0,0:0:0:0:
156,124,180077,1,8,0:0:0:0:
156,124,180159,1,0,0:0:0:0:
160,124,180240,1,8,0:0:0:0:
272,144,180403,5,0,0:0:0:0:
304,140,180567,1,0,0:0:0:0:
304,140,180648,1,0,0:0:0:0:
304,136,180730,1,8,0:0:0:0:
304,136,180893,1,0,0:0:0:0:
364,136,181056,1,8,0:0:0:0:
364,136,181137,1,8,0:0:0:0:
364,136,181219,1,0,0:0:0:0:
364,128,181382,1,8,0:0:0:0:
364,128,181463,1,0,0:0:0:0:
364,128,181545,1,8,0:0:0:0:
364,128,181708,1,8,0:0:0:0:
364,128,181871,1,0,0:0:0:0:
364,128,181952,1,0,0:0:0:0:
364,128,182034,1,8,0:0:0:0:
364,128,182115,1,8,0:0:0:0:
352,120,182197,1,0,0:0:0:0:
356,112,182360,1,0,0:0:0:0:
356,116,182442,1,0,0:0:0:0:
356,120,182523,1,8,0:0:0:0:
356,120,182605,1,0,0:0:0:0:
356,120,182686,1,8,0:0:0:0:
256,128,182768,1,8,0:0:0:0:
176,104,182849,5,0,0:0:0:0:
328,200,183012,5,8,0:0:0:0:
328,192,183094,1,0,0:0:0:0:
328,192,183175,1,0,0:0:0:0:
328,192,183257,1,8,0:0:0:0:
328,192,183338,1,0,0:0:0:0:
324,192,183420,1,8,0:0:0:0:
256,148,183501,1,8,0:0:0:0:
324,192,183583,1,0,0:0:0:0:
324,192,183664,1,8,0:0:0:0:
256,156,183746,1,0,0:0:0:0:
324,192,183827,1,0,0:0:0:0:
256,156,183909,1,0,0:0:0:0:
324,192,183990,1,8,0:0:0:0:
244,128,184072,1,8,0:0:0:0:
244,128,184153,1,0,0:0:0:0:
224,140,184317,5,8,0:0:0:0:
224,140,184643,1,4,0:0:0:0:
224,140,184969,1,4,0:0:0:0:
224,140,185295,1,4,0:0:0:0:
204,160,185621,1,8,0:0:0:0:
204,160,186273,1,8,0:0:0:0:
152,92,187251,1,0,0:0:0:0:
152,92,187577,1,8,0:0:0:0:
176,84,187903,1,8,0:0:0:0:
136,84,188230,5,0,0:0:0:0:
92,104,188882,5,0,0:0:0:0:
208,128,189860,1,8,0:0:0:0:
208,128,190186,1,0,0:0:0:0:
208,128,190512,1,0,0:0:0:0:
208,128,190838,1,8,0:0:0:0:
120,132,191001,5,4,0:0:0:0:
120,132,191164,1,4,0:0:0:0:
224,112,191327,1,8,0:0:0:0:
204,108,192306,1,12,0:0:0:0:
204,108,192632,1,12,0:0:0:0:
204,108,192958,1,12,0:0:0:0:
216,152,193121,1,0,0:0:0:0:
216,152,193202,1,0,0:0:0:0:
216,152,193284,1,8,0:0:0:0:
216,152,193365,1,0,0:0:0:0:
216,152,193447,1,8,0:0:0:0:
220,160,193528,1,8,0:0:0:0:
220,160,193610,1,0,0:0:0:0:
220,164,193692,1,8,0:0:0:0:
220,164,193773,1,0,0:0:0:0:
220,168,193855,1,0,0:0:0:0:
220,168,193936,1,8,0:0:0:0:
220,168,194018,1,0,0:0:0:0:
220,168,194099,1,8,0:0:0:0:
220,168,194181,1,8,0:0:0:0:
220,168,194262,1,8,0:0:0:0:
220,168,194344,1,0,0:0:0:0:
220,168,194425,1,0,0:0:0:0:
220,168,194507,1,0,0:0:0:0:
220,112,194588,1,8,0:0:0:0:
244,88,195730,1,8,0:0:0:0:
148,136,196056,1,4,0:0:0:0:
244,168,196382,1,8,0:0:0:0:
316,144,196545,1,0,0:0:0:0:
248,212,196626,1,0,0:0:0:0:
316,144,196708,1,0,0:0:0:0:
296,152,196871,1,0,0:0:0:0:
208,204,197034,1,8,0:0:0:0:
224,184,197197,1,0,0:0:0:0:
180,168,197360,1,0,0:0:0:0:
200,208,197686,1,8,0:0:0:0:
208,204,197849,1,0,0:0:0:0:
208,204,197931,1,0,0:0:0:0:
208,204,198012,1,0,0:0:0:0:
216,208,198175,1,0,0:0:0:0:
368,152,198338,1,8,0:0:0:0:
224,172,198420,1,8,0:0:0:0:
224,176,198501,1,0,0:0:0:0:
276,168,198583,1,0,0:0:0:0:
368,152,198664,1,8,0:0:0:0:
180,108,198827,1,0,0:0:0:0:
384,152,198990,1,8,0:0:0:0:
180,108,199153,1,0,0:0:0:0:
140,128,199235,1,0,0:0:0:0:
180,108,199317,1,8,0:0:0:0:
148,108,199398,1,0,0:0:0:0:
140,128,199480,1,8,0:0:0:0:
140,128,199643,1,0,0:0:0:0:
176,108,199806,1,8,0:0:0:0:
320,132,199887,1,8,0:0:0:0:
320,132,199969,1,8,0:0:0:0:
320,132,200050,1,8,0:0:0:0:
320,132,200132,1,0,0:0:0:0:
352,128,200295,1,8,0:0:0:0:
352,136,200458,1,0,0:0:0:0:
356,132,200539,1,0,0:0:0:0:
356,132,200621,1,0,0:0:0:0:
356,132,200702,1,0,0:0:0:0:
356,128,200784,1,8,0:0:0:0:
380,192,200947,1,8,0:0:0:0:
200,168,201028,1,8,0:0:0:0:
200,168,201110,1,0,0:0:0:0:
184,140,201273,1,8,0:0:0:0:
124,148,201599,1,8,0:0:0:0:
224,116,201762,1,0,0:0:0:0:
224,164,201844,1,0,0:0:0:0:
224,116,201925,1,8,0:0:0:0:
224,172,202007,1,0,0:0:0:0:
224,164,202088,1,0,0:0:0:0:
184,176,202251,1,8,0:0:0:0:
228,108,202414,1,0,0:0:0:0:
268,112,202496,1,0,0:0:0:0:
268,128,202577,1,8,0:0:0:0:
256,124,202740,1,0,0:0:0:0:
252,128,202903,1,8,0:0:0:0:
252,132,202985,1,0,0:0:0:0:
252,136,203067,1,8,0:0:0:0:
252,136,203148,1,8,0:0:0:0:
252,136,203230,1,0,0:0:0:0:
236,140,203393,5,0,0:0:0:0:
232,148,203556,1,8,0:0:0:0:
224,144,203637,1,8,0:0:0:0:
224,144,203719,1,0,0:0:0:0:
224,144,203800,1,8,0:0:0:0:
224,144,203882,1,8,0:0:0:0:
188,128,204045,1,0,0:0:0:0:
128,164,204126,5,0,0:0:0:0:
188,128,204208,1,8,0:0:0:0:
128,164,204371,1,0,0:0:0:0:
124,176,204534,1,8,0:0:0:0:
124,176,204615,1,8,0:0:0:0:
120,184,204697,1,0,0:0:0:0:
120,180,204860,1,8,0:0:0:0:
124,184,205023,1,0,0:0:0:0:
208,148,205186,5,8,0:0:0:0:
224,120,205268,5,0,0:0:0:0:
224,116,205349,1,0,0:0:0:0:
224,116,205431,1,0,0:0:0:0:
224,116,205512,1,8,0:0:0:0:
224,120,205594,1,8,0:0:0:0:
224,120,205675,1,0,0:0:0:0:
224,120,205757,1,0,0:0:0:0:
224,120,205838,1,8,0:0:0:0:
224,120,205920,1,8,0:0:0:0:
224,120,206001,1,8,0:0:0:0:
224,120,206083,1,0,0:0:0:0:
228,120,206164,1,8,0:0:0:0:
224,120,206246,1,8,0:0:0:0:
224,116,206327,1,8,0:0:0:0:
188,136,206409,1,8,0:0:0:0:
120,200,206490,1,0,0:0:0:0:
204,152,206817,1,8,0:0:0:0:
240,144,206980,1,0,0:0:0:0:
240,152,207061,1,0,0:0:0:0:
240,160,207143,1,0,0:0:0:0:
240,172,207306,1,0,0:0:0:0:
184,136,207469,1,8,0:0:0:0:
176,176,207550,1,0,0:0:0:0:
176,172,207632,1,0,0:0:0:0:
180,152,207713,1,8,0:0:0:0:
176,180,207795,1,8,0:0:0:0:
176,176,207958,1,0,0:0:0:0:
276,184,208121,1,8,0:0:0:0:
288,204,208202,1,8,0:0:0:0:
288,212,208284,1,0,0:0:0:0:
288,216,208447,1,8,0:0:0:0:
232,112,208610,1,0,0:0:0:0:
288,212,208692,1,8,0:0:0:0:
224,140,208773,1,8,0:0:0:0:
256,64,208855,1,0,0:0:0:0:
256,80,208936,1,0,0:0:0:0:
224,148,209099,1,4,0:0:0:0:
272,152,209425,1,8,0:0:0:0:
248,160,209588,1,8,0:0:0:0:
112,140,209670,1,8,0:0:0:0:
300,228,209751,1,0,0:0:0:0:
300,228,209914,1,0,0:0:0:0:
300,228,210077,1,0,0:0:0:0:
200,128,210159,1,8,0:0:0:0:
292,228,210240,1,0,0:0:0:0:
184,108,210322,1,0,0:0:0:0:
292,228,210403,1,8,0:0:0:0:
200,128,210567,1,0,0:0:0:0:
292,228,210730,1,8,0:0:0:0:
200,128,210811,1,0,0:0:0:0:
292,228,210893,1,0,0:0:0:0:
292,228,211056,1,8,0:0:0:0:
252,228,211219,1,8,0:0:0:0:
184,116,211300,1,0,0:0:0:0:
292,228,211382,1,8,0:0:0:0:
196,136,211463,1,8,0:0:0:0:
292,228,211545,1,0,0:0:0:0:
184,156,211708,5,0,0:0:0:0:
144,132,212034,1,8,0:0:0:0:
308,172,212197,1,8,0:0:0:0:
308,172,212278,1,8,0:0:0:0:
232,160,212360,1,0,0:0:0:0:
232,160,212523,1,0,0:0:0:0:
176,140,212686,5,8,0:0:0:0:
176,140,212849,1,0,0:0:0:0:
224,108,212931,1,8,0:0:0:0:
316,192,213012,5,8,0:0:0:0:
152,120,213094,1,8,0:0:0:0:
304,144,213175,1,0,0:0:0:0:
112,152,213338,1,0,0:0:0:0:
132,196,213501,1,0,0:0:0:0:
132,212,213583,1,0,0:0:0:0:
132,216,213664,1,8,0:0:0:0:
200,168,213746,1,8,0:0:0:0:
132,224,213827,1,0,0:0:0:0:
136,224,213990,1,8,0:0:0:0:
308,232,214153,1,0,0:0:0:0:
308,232,214235,1,0,0:0:0:0:
368,76,214317,1,8,0:0:0:0:
144,144,214480,1,0,0:0:0:0:
332,108,214643,1,8,0:0:0:0:
248,108,214724,1,0,0:0:0:0:
328,112,214806,1,8,0:0:0:0:
192,64,214969,1,8,0:0:0:0:
252,76,215050,1,0,0:0:0:0:
320,124,215132,1,0,0:0:0:0:
316,128,215213,1,0,0:0:0:0:
316,136,215295,1,8,0:0:0:0:
320,136,215458,1,0,0:0:0:0:
180,136,215621,5,0,0:0:0:0:
72,144,215702,1,0,0:0:0:0:
80,144,215784,1,8,0:0:0:0:
84,144,215865,1,0,0:0:0:0:
236,128,215947,1,8,0:0:0:0:
96,144,216028,1,8,0:0:0:0:
96,144,216110,1,0,0:0:0:0:
96,148,216192,1,8,0:0:0:0:
240,116,216273,1,0,0:0:0:0:
104,144,216355,1,0,0:0:0:0:
104,144,216436,1,8,0:0:0:0:
104,148,216518,1,0,0:0:0:0:
240,116,216599,1,8,0:0:0:0:
84,144,216681,1,8,0:0:0:0:
80,144,216762,1,0,0:0:0:0:
240,124,216925,1,4,0:0:0:0:
104,116,217251,1,8,0:0:0:0:
196,112,217414,1,0,0:0:0:0:
196,112,217496,1,8,0:0:0:0:
196,112,217577,1,0,0:0:0:0:
196,112,217740,1,0,0:0:0:0:
196,112,217903,1,8,0:0:0:0:
216,108,217985,1,8,0:0:0:0:
212,104,218067,1,0,0:0:0:0:
216,108,218148,1,8,0:0:0:0:
216,104,218230,1,8,0:0:0:0:
216,108,218393,1,0,0:0:0:0:
216,108,218556,1,8,0:0:0:0:
60,96,218637,1,8,0:0:0:0:
220,108,218719,1,0,0:0:0:0:
220,108,218882,1,8,0:0:0:0:
220,108,219045,1,0,0:0:0:0:
220,108,219126,1,0,0:0:0:0:
224,108,219208,1,8,0:0:0:0:
248,164,219289,1,0,0:0:0:0:
260,96,219371,1,0,0:0:0:0:
156,128,219534,1,8,0:0:0:0:
236,104,219697,1,0,0:0:0:0:
236,104,219778,1,0,0:0:0:0:
272,104,219860,1,8,0:0:0:0:
156,128,220023,1,0,0:0:0:0:
156,128,220186,1,8,0:0:0:0:
128,176,220268,1,0,0:0:0:0:
152,132,220349,5,8,0:0:0:0:
116,156,220431,1,8,0:0:0:0:
216,128,220512,1,0,0:0:0:0:
148,140,220675,1,0,0:0:0:0:
256,184,220838,1,8,0:0:0:0:
256,184,220920,1,8,0:0:0:0:
256,184,221001,1,0,0:0:0:0:
256,184,221083,1,0,0:0:0:0:
256,184,221164,1,8,0:0:0:0:
352,100,221327,1,0,0:0:0:0:
268,140,221490,1,8,0:0:0:0:
268,140,221572,1,0,0:0:0:0:
268,140,221653,1,0,0:0:0:0:
320,108,221735,1,0,0:0:0:0:
320,112,221817,1,8,0:0:0:0:
176,160,221898,1,8,0:0:0:0:
180,168,221980,1,0,0:0:0:0:
124,72,222143,5,4,0:0:0:0:
256,128,222469,5,0,0:0:0:0:
72,152,222632,1,0,0:0:0:0:
104,152,222795,1,8,0:0:0:0:
236,112,222876,1,8,0:0:0:0:
236,112,222958,1,0,0:0:0:0:
96,156,223121,1,0,0:0:0:0:
104,152,223284,1,8,0:0:0:0:
96,100,223447,1,0,0:0:0:0:
104,152,223610,1,8,0:0:0:0:
160,88,223773,1,0,0:0:0:0:
104,152,224099,1,8,0:0:0:0:
236,120,224262,1,0,0:0:0:0:
168,72,224425,1,8,0:0:0:0:
236,124,224507,1,8,0:0:0:0:
304,64,224588,1,8,0:0:0:0:
260,104,224751,5,0,0:0:0:0:
232,116,225077,5,8,0:0:0:0:
232,116,225240,1,8,0:0:0:0:
232,116,225567,1,0,0:0:0:0:
248,116,225730,1,8,0:0:0:0:
256,192,226056,12,0,229643,0:0:0:0:
328,104,229969,5,4,0:0:0:0:
160,108,230295,1,8,0:0:0:0:
244,92,230458,1,0,0:0:0:0:
244,92,230621,1,8,0:0:0:0:
104,88,230702,1,8,0:0:0:0:
228,160,230784,1,0,0:0:0:0:
252,108,230865,1,0,0:0:0:0:
228,160,230947,1,8,0:0:0:0:
260,124,231110,1,0,0:0:0:0:
276,64,231273,1,8,0:0:0:0:
176,136,231355,1,8,0:0:0:0:
276,64,231436,1,0,0:0:0:0:
108,88,231599,1,8,0:0:0:0:
276,64,231762,1,0,0:0:0:0:
108,88,231925,1,8,0:0:0:0:
276,64,232007,1,8,0:0:0:0:
280,68,232088,1,0,0:0:0:0:
120,128,232170,1,8,0:0:0:0:
108,88,232251,1,0,0:0:0:0:
312,200,232414,1,8,0:0:0:0:
108,88,232577,1,0,0:0:0:0:
108,88,232903,1,8,0:0:0:0:
256,136,233067,1,0,0:0:0:0:
108,88,233230,1,8,0:0:0:0:
216,104,233311,1,8,0:0:0:0:
216,104,233393,1,0,0:0:0:0:
108,88,233556,1,8,0:0:0:0:
216,104,233719,1,0,0:0:0:0:
184,136,233800,1,0,0:0:0:0:
108,88,233882,1,8,0:0:0:0:
152,136,233963,1,8,0:0:0:0:
240,64,234045,1,0,0:0:0:0:
108,88,234208,1,8,0:0:0:0:
240,88,234371,1,0,0:0:0:0:
180,72,234534,1,0,0:0:0:0:
112,164,234615,1,8,0:0:0:0:
204,136,234697,1,0,0:0:0:0:
312,112,234778,1,0,0:0:0:0:
108,88,234860,1,8,0:0:0:0:
312,112,234942,1,0,0:0:0:0:
312,112,235023,1,8,0:0:0:0:
424,156,235105,1,8,0:0:0:0:
144,100,235186,1,0,0:0:0:0:
160,108,235512,1,8,0:0:0:0:
244,92,235675,1,0,0:0:0:0:
244,92,235838,1,8,0:0:0:0:
104,88,235920,1,8,0:0:0:0:
228,160,236001,1,0,0:0:0:0:
252,108,236083,1,0,0:0:0:0:
228,160,236164,1,8,0:0:0:0:
260,124,236327,1,0,0:0:0:0:
276,64,236490,1,8,0:0:0:0:
176,136,236572,1,8,0:0:0:0:
276,64,236653,1,0,0:0:0:0:
108,88,236817,1,8,0:0:0:0:
276,64,236980,1,0,0:0:0:0:
108,88,237143,1,8,0:0:0:0:
276,64,237224,1,8,0:0:0:0:
280,68,237306,1,0,0:0:0:0:
120,128,237387,1,8,0:0:0:0:
108,88,237469,1,0,0:0:0:0:
312,200,237632,1,8,0:0:0:0:
108,88,237795,1,0,0:0:0:0:
108,88,238121,1,8,0:0:0:0:
256,136,238284,1,0,0:0:0:0:
108,88,238447,1,0,0:0:0:0:
184,156,238528,1,8,0:0:0:0:
224,68,238610,1,0,0:0:0:0:
108,88,238773,1,8,0:0:0:0:
224,68,238855,1,8,0:0:0:0:
224,172,238936,1,0,0:0:0:0:
176,108,239099,1,8,0:0:0:0:
240,64,239262,1,0,0:0:0:0:
108,136,239344,1,0,0:0:0:0:
272,136,239425,1,8,0:0:0:0:
152,136,239507,1,8,0:0:0:0:
272,136,239588,1,0,0:0:0:0:
272,136,239670,1,0,0:0:0:0:
272,136,239751,1,8,0:0:0:0:
152,136,239833,1,8,0:0:0:0:
236,148,239914,1,0,0:0:0:0:
236,148,239996,1,0,0:0:0:0:
272,136,240077,1,8,0:0:0:0:
152,136,240159,1,8,0:0:0:0:
236,148,240240,1,0,0:0:0:0:
328,108,240403,1,4,0:0:0:0:
160,112,240730,1,8,0:0:0:0:
244,96,240893,1,0,0:0:0:0:
244,96,241056,1,8,0:0:0:0:
104,92,241137,1,8,0:0:0:0:
228,164,241219,1,0,0:0:0:0:
252,112,241300,1,0,0:0:0:0:
228,164,241382,1,8,0:0:0:0:
260,128,241545,1,0,0:0:0:0:
276,68,241708,1,8,0:0:0:0:
176,140,241789,1,8,0:0:0:0:
276,68,241871,1,0,0:0:0:0:
108,92,242034,1,8,0:0:0:0:
276,68,242197,1,0,0:0:0:0:
108,92,242360,1,8,0:0:0:0:
276,68,242442,1,8,0:0:0:0:
280,72,242523,1,0,0:0:0:0:
120,132,242605,1,8,0:0:0:0:
108,92,242686,1,0,0:0:0:0:
312,204,242849,1,8,0:0:0:0:
108,92,243012,1,0,0:0:0:0:
108,92,243338,1,8,0:0:0:0:
256,140,243501,1,0,0:0:0:0:
108,92,243664,1,8,0:0:0:0:
216,108,243746,1,8,0:0:0:0:
216,108,243827,1,0,0:0:0:0:
108,92,243990,1,8,0:0:0:0:
216,108,244153,1,0,0:0:0:0:
184,140,244235,1,0,0:0:0:0:
108,92,244317,1,8,0:0:0:0:
152,140,244398,1,8,0:0:0:0:
240,68,244480,1,0,0:0:0:0:
108,92,244643,1,8,0:0:0:0:
240,92,244806,1,0,0:0:0:0:
180,76,244969,1,0,0:0:0:0:
112,168,245050,1,8,0:0:0:0:
204,140,245132,1,0,0:0:0:0:
312,116,245213,1,0,0:0:0:0:
108,92,245295,1,8,0:0:0:0:
312,116,245376,1,0,0:0:0:0:
312,116,245458,1,8,0:0:0:0:
424,160,245539,1,8,0:0:0:0:
144,104,245621,1,0,0:0:0:0:
160,112,245947,1,8,0:0:0:0:
244,96,246110,1,0,0:0:0:0:
244,96,246273,1,8,0:0:0:0:
104,92,246355,1,8,0:0:0:0:
228,164,246436,1,0,0:0:0:0:
252,112,246518,1,0,0:0:0:0:
228,164,246599,1,8,0:0:0:0:
260,128,246762,1,0,0:0:0:0:
276,68,246925,1,8,0:0:0:0:
176,140,247007,1,8,0:0:0:0:
276,68,247088,1,0,0:0:0:0:
108,92,247251,1,8,0:0:0:0:
276,68,247414,1,0,0:0:0:0:
108,92,247577,1,8,0:0:0:0:
276,68,247659,1,8,0:0:0:0:
280,72,247740,1,0,0:0:0:0:
120,132,247822,1,8,0:0:0:0:
108,92,247903,1,0,0:0:0:0:
312,204,248067,1,8,0:0:0:0:
108,92,248230,1,0,0:0:0:0:
108,92,248556,1,8,0:0:0:0:
256,140,248719,5,0,0:0:0:0:
108,92,248882,1,8,0:0:0:0:
224,72,249045,1,8,0:0:0:0:
224,72,249126,1,0,0:0:0:0:
108,92,249208,1,8,0:0:0:0:
216,108,249371,1,8,0:0:0:0:
152,140,249452,1,8,0:0:0:0:
108,92,249534,1,0,0:0:0:0:
280,108,249615,1,0,0:0:0:0:
240,68,249697,1,0,0:0:0:0:
160,156,249860,5,12,0:0:0:0:
160,156,250186,1,12,0:0:0:0:
160,156,250512,1,12,0:0:0:0:
296,136,250838,1,0,0:0:0:0:
288,136,251164,1,8,0:0:0:0:
284,136,251327,1,0,0:0:0:0:
284,148,251490,1,8,0:0:0:0:
276,144,251817,1,0,0:0:0:0:
160,104,251980,1,8,0:0:0:0:
276,148,252143,1,8,0:0:0:0:
276,148,252469,1,8,0:0:0:0:
300,128,252632,1,0,0:0:0:0:
300,128,252795,1,8,0:0:0:0:
300,128,252958,1,8,0:0:0:0:
300,128,253121,1,0,0:0:0:0:
296,136,253447,1,0,0:0:0:0:
288,136,253773,1,8,0:0:0:0:
284,136,253936,5,0,0:0:0:0:
284,148,254099,1,8,0:0:0:0:
276,144,254425,1,0,0:0:0:0:
168,88,254588,1,8,0:0:0:0:
276,148,254751,1,8,0:0:0:0:
200,120,255077,5,8,0:0:0:0:
200,120,255240,1,0,0:0:0:0:
232,120,255403,1,8,0:0:0:0:
148,128,255567,1,8,0:0:0:0:
232,136,255730,5,4,0:0:0:0:
232,136,255893,1,4,0:0:0:0:
256,192,256056,12,2,261925,0:0:0:0:
