osu file format v14

[General]
AudioFilename: audio.mp3
AudioLeadIn: 0
PreviewTime: 129697
Countdown: 0
SampleSet: Normal
StackLeniency: 0.7
Mode: 1
LetterboxInBreaks: 0
WidescreenStoryboard: 0

[Editor]
Bookmarks: 5621,11490,16708,33664,51599,64969,65295,81925,84534,86490,98882,116817,130186,130512,147143,149751,151708,172251,186925,191164,195077,195403,222795,225240,228664,229317,229969,252795
DistanceSpacing: 0.8
BeatDivisor: 2
GridSize: 4
TimelineZoom: 0.6999999

[Metadata]
Title:Yuki no Youni
TitleUnicode:雪のように
Artist:AKINO with bless4
ArtistUnicode:AKINO with bless4
Creator:Volta
Version:Kantan
Source:
Tags:christmas xmas winter
BeatmapID:1390705
BeatmapSetID:630705

[Difficulty]
HPDrainRate:7
CircleSize:2
OverallDifficulty:3
ApproachRate:0
SliderMultiplier:1.4
SliderTickRate:1

[Events]
//Background and Video events
0,0,"yukine.jpg",0,95
//Break Periods
//Storyboard Layer 0 (Background)
//Storyboard Layer 1 (Fail)
//Storyboard Layer 2 (Pass)
//Storyboard Layer 3 (Foreground)
//Storyboard Sound Samples

[TimingPoints]
404,326.086956521739,4,1,0,30,1,0
9860,-100,4,1,0,70,0,0
65621,-100,4,1,0,80,0,1
86490,-100,4,1,0,70,0,0
130838,-100,4,1,0,80,0,1
151708,-100,4,1,0,70,0,0
196056,-100,4,1,0,80,0,1
229969,-100,4,1,0,70,0,0

[HitObjects]
252,148,404,5,8,0:0:0:0:
252,148,1708,1,0,0:0:0:0:
172,92,3012,1,8,0:0:0:0:
172,92,4317,1,0,0:0:0:0:
48,188,4969,1,0,0:0:0:0:
172,92,5621,1,0,0:0:0:0:
236,88,6925,5,8,0:0:0:0:
248,100,8230,5,0,0:0:0:0:
248,100,9534,1,8,0:0:0:0:
228,172,10186,1,8,0:0:0:0:
232,144,10838,1,4,0:0:0:0:
228,104,12143,1,12,0:0:0:0:
272,120,12795,1,0,0:0:0:0:
364,220,13447,1,4,0:0:0:0:
284,156,14751,1,8,0:0:0:0:
208,128,15403,1,8,0:0:0:0:
96,144,15730,1,0,0:0:0:0:
208,128,16056,1,4,0:0:0:0:
112,132,17034,1,0,0:0:0:0:
112,132,17360,1,12,0:0:0:0:
152,124,18664,1,4,0:0:0:0:
272,160,19317,1,4,0:0:0:0:
220,144,19969,1,12,0:0:0:0:
192,140,20295,1,8,0:0:0:0:
192,100,20621,1,0,0:0:0:0:
192,100,20947,1,8,0:0:0:0:
328,104,21273,5,4,0:0:0:0:
276,64,22577,1,8,0:0:0:0:
108,88,23230,5,8,0:0:0:0:
108,88,23556,1,0,0:0:0:0:
108,88,23882,1,0,0:0:0:0:
108,88,24534,1,8,0:0:0:0:
108,88,25186,1,8,0:0:0:0:
180,72,25838,5,0,0:0:0:0:
108,88,26164,1,8,0:0:0:0:
144,100,26490,1,4,0:0:0:0:
276,64,27795,1,8,0:0:0:0:
108,88,28447,1,8,0:0:0:0:
108,88,28773,1,0,0:0:0:0:
108,88,29099,1,0,0:0:0:0:
108,88,29751,1,8,0:0:0:0:
108,88,30403,1,0,0:0:0:0:
32,144,30730,1,12,0:0:0:0:
32,144,31056,1,12,0:0:0:0:
32,144,31382,1,12,0:0:0:0:
32,144,31708,1,4,0:0:0:0:
192,112,33012,1,0,0:0:0:0:
320,108,34317,1,8,0:0:0:0:
272,96,34969,1,0,0:0:0:0:
272,104,35621,1,8,0:0:0:0:
232,112,36925,1,0,0:0:0:0:
192,152,37577,1,0,0:0:0:0:
276,80,37903,1,0,0:0:0:0:
192,152,38230,1,8,0:0:0:0:
220,120,38882,1,8,0:0:0:0:
144,128,39534,1,0,0:0:0:0:
196,40,40838,1,8,0:0:0:0:
100,152,41490,1,8,0:0:0:0:
120,152,42143,5,4,0:0:0:0:
248,120,42469,1,8,0:0:0:0:
232,148,43121,1,8,0:0:0:0:
256,108,43447,1,0,0:0:0:0:
256,148,44099,1,8,0:0:0:0:
232,132,44751,1,0,0:0:0:0:
236,112,45077,1,0,0:0:0:0:
256,144,45403,1,8,0:0:0:0:
96,152,46056,1,0,0:0:0:0:
268,96,47360,1,8,0:0:0:0:
116,148,48012,1,8,0:0:0:0:
116,148,48338,1,8,0:0:0:0:
256,172,48664,1,0,0:0:0:0:
96,132,49317,1,8,0:0:0:0:
336,224,49969,1,4,0:0:0:0:
364,204,50621,1,4,0:0:0:0:
164,148,51273,1,12,0:0:0:0:
232,144,52577,1,12,0:0:0:0:
240,136,52903,1,12,0:0:0:0:
88,132,53882,1,0,0:0:0:0:
104,152,54534,1,8,0:0:0:0:
172,136,55186,1,4,0:0:0:0:
172,136,55512,1,4,0:0:0:0:
244,96,56490,1,0,0:0:0:0:
260,140,57143,1,8,0:0:0:0:
240,76,57795,1,12,0:0:0:0:
88,140,58121,1,12,0:0:0:0:
240,132,59099,1,8,0:0:0:0:
240,136,59751,1,0,0:0:0:0:
256,156,60403,1,0,0:0:0:0:
196,100,61056,1,0,0:0:0:0:
256,156,61382,1,8,0:0:0:0:
256,156,61708,1,8,0:0:0:0:
28,152,62360,1,0,0:0:0:0:
264,112,63012,5,12,0:0:0:0:
152,152,63990,1,12,0:0:0:0:
148,136,64317,1,4,0:0:0:0:
240,196,64969,1,8,0:0:0:0:
176,140,65621,5,4,0:0:0:0:
180,176,66925,1,8,0:0:0:0:
184,176,67577,1,8,0:0:0:0:
180,176,67903,1,0,0:0:0:0:
192,84,68230,1,0,0:0:0:0:
300,228,68882,1,0,0:0:0:0:
292,228,69534,1,8,0:0:0:0:
292,228,69860,1,8,0:0:0:0:
292,228,70186,1,0,0:0:0:0:
292,228,70512,1,8,0:0:0:0:
292,228,70838,1,0,0:0:0:0:
272,140,72143,1,8,0:0:0:0:
196,148,72795,1,8,0:0:0:0:
196,152,73121,1,8,0:0:0:0:
240,172,73447,1,0,0:0:0:0:
112,184,74099,1,8,0:0:0:0:
180,136,74751,5,0,0:0:0:0:
236,128,75077,1,0,0:0:0:0:
240,116,75403,1,8,0:0:0:0:
240,116,75730,1,8,0:0:0:0:
240,120,76056,1,4,0:0:0:0:
216,104,77360,1,8,0:0:0:0:
220,108,78012,1,8,0:0:0:0:
224,108,78338,1,0,0:0:0:0:
156,128,78664,1,8,0:0:0:0:
156,128,79317,1,0,0:0:0:0:
256,184,79969,1,8,0:0:0:0:
256,184,80295,1,0,0:0:0:0:
268,140,80621,1,0,0:0:0:0:
320,112,80947,1,8,0:0:0:0:
256,128,81273,1,4,0:0:0:0:
244,144,82577,1,0,0:0:0:0:
256,140,83230,1,8,0:0:0:0:
160,132,83882,1,4,0:0:0:0:
188,124,85186,1,0,0:0:0:0:
248,120,85838,1,8,0:0:0:0:
256,120,86164,1,8,0:0:0:0:
328,104,86490,5,4,0:0:0:0:
276,64,87795,1,8,0:0:0:0:
108,88,88448,5,8,0:0:0:0:
108,88,88774,1,0,0:0:0:0:
108,88,89100,1,0,0:0:0:0:
108,88,89752,1,8,0:0:0:0:
108,88,90404,1,8,0:0:0:0:
180,72,91056,5,0,0:0:0:0:
108,88,91382,1,8,0:0:0:0:
144,100,91708,1,4,0:0:0:0:
276,64,93013,1,8,0:0:0:0:
108,88,93665,1,8,0:0:0:0:
108,88,93991,1,0,0:0:0:0:
108,88,94317,1,0,0:0:0:0:
108,88,94969,1,8,0:0:0:0:
108,88,95621,1,0,0:0:0:0:
32,144,95948,1,12,0:0:0:0:
32,144,96274,1,12,0:0:0:0:
32,144,96600,5,12,0:0:0:0:
32,144,96926,1,4,0:0:0:0:
192,112,98230,1,8,0:0:0:0:
320,108,99534,1,0,0:0:0:0:
272,96,100186,1,0,0:0:0:0:
260,104,100838,1,8,0:0:0:0:
160,120,101164,1,0,0:0:0:0:
144,132,101490,1,8,0:0:0:0:
232,112,102143,1,0,0:0:0:0:
192,152,103447,1,8,0:0:0:0:
144,128,104751,1,0,0:0:0:0:
176,128,105403,1,0,0:0:0:0:
208,152,106056,1,8,0:0:0:0:
100,152,106708,1,8,0:0:0:0:
120,152,107360,5,4,0:0:0:0:
248,120,107686,1,8,0:0:0:0:
232,148,108338,1,8,0:0:0:0:
256,108,108664,1,0,0:0:0:0:
256,148,109316,1,8,0:0:0:0:
232,132,109968,1,0,0:0:0:0:
256,144,110620,1,8,0:0:0:0:
236,112,110947,1,8,0:0:0:0:
96,152,111273,1,0,0:0:0:0:
268,96,112577,1,8,0:0:0:0:
64,184,113230,1,8,0:0:0:0:
64,184,113556,1,8,0:0:0:0:
256,172,113881,1,0,0:0:0:0:
96,132,114534,1,8,0:0:0:0:
336,224,115186,1,4,0:0:0:0:
364,204,115838,1,4,0:0:0:0:
164,148,116490,5,12,0:0:0:0:
232,144,117795,5,12,0:0:0:0:
240,136,118121,1,12,0:0:0:0:
236,80,119099,1,0,0:0:0:0:
104,152,119751,1,8,0:0:0:0:
172,136,120403,1,4,0:0:0:0:
172,136,120730,1,4,0:0:0:0:
244,96,121708,1,0,0:0:0:0:
260,140,122360,1,8,0:0:0:0:
240,76,123012,1,12,0:0:0:0:
88,140,123338,1,12,0:0:0:0:
184,120,124317,1,8,0:0:0:0:
240,136,124969,1,0,0:0:0:0:
256,156,125621,1,0,0:0:0:0:
196,100,126273,1,0,0:0:0:0:
256,104,126599,1,8,0:0:0:0:
256,156,126925,1,0,0:0:0:0:
208,120,127577,1,8,0:0:0:0:
264,112,128230,5,12,0:0:0:0:
148,136,129208,1,12,0:0:0:0:
148,136,129534,1,4,0:0:0:0:
176,140,130186,1,8,0:0:0:0:
176,140,130838,5,4,0:0:0:0:
180,176,132143,1,8,0:0:0:0:
184,176,132795,1,0,0:0:0:0:
180,176,133121,1,8,0:0:0:0:
192,84,133447,1,0,0:0:0:0:
300,228,134099,1,0,0:0:0:0:
292,228,134751,1,8,0:0:0:0:
292,228,135077,1,0,0:0:0:0:
292,228,135403,1,8,0:0:0:0:
292,228,135730,1,8,0:0:0:0:
292,228,136056,1,0,0:0:0:0:
272,140,137360,1,8,0:0:0:0:
196,148,138012,1,8,0:0:0:0:
196,152,138338,1,0,0:0:0:0:
240,172,138664,1,8,0:0:0:0:
112,184,139317,1,0,0:0:0:0:
180,136,139969,5,0,0:0:0:0:
236,128,140295,1,8,0:0:0:0:
240,116,140621,1,8,0:0:0:0:
240,116,140947,1,0,0:0:0:0:
240,120,141273,1,4,0:0:0:0:
216,104,142577,1,8,0:0:0:0:
220,108,143230,1,8,0:0:0:0:
224,108,143556,1,0,0:0:0:0:
156,128,143882,1,8,0:0:0:0:
156,128,144534,1,0,0:0:0:0:
256,184,145186,1,8,0:0:0:0:
256,184,145512,1,0,0:0:0:0:
268,140,145838,1,0,0:0:0:0:
148,140,146164,1,8,0:0:0:0:
232,120,146490,1,4,0:0:0:0:
220,192,147795,1,0,0:0:0:0:
220,200,148121,1,0,0:0:0:0:
220,200,148447,1,8,0:0:0:0:
208,176,149099,1,4,0:0:0:0:
236,160,150403,1,0,0:0:0:0:
248,172,151056,1,8,0:0:0:0:
256,172,151382,1,8,0:0:0:0:
256,172,151708,1,0,0:0:0:0:
208,136,153012,1,8,0:0:0:0:
32,160,153664,1,0,0:0:0:0:
268,128,153990,5,8,0:0:0:0:
168,88,154317,1,0,0:0:0:0:
252,120,154969,1,8,0:0:0:0:
140,132,155621,1,0,0:0:0:0:
140,132,156273,1,0,0:0:0:0:
264,120,156925,1,8,0:0:0:0:
176,200,158230,1,8,0:0:0:0:
268,128,158882,1,0,0:0:0:0:
268,128,159208,5,8,0:0:0:0:
152,64,159534,1,0,0:0:0:0:
232,116,160186,1,8,0:0:0:0:
20,168,160838,1,0,0:0:0:0:
184,176,161164,1,8,0:0:0:0:
152,120,161490,1,8,0:0:0:0:
184,176,161980,1,4,0:0:0:0:
224,116,163447,1,8,0:0:0:0:
196,132,164099,1,0,0:0:0:0:
248,112,164425,1,8,0:0:0:0:
224,96,164751,1,0,0:0:0:0:
124,144,165403,1,8,0:0:0:0:
280,144,166056,1,8,0:0:0:0:
112,132,166382,1,8,0:0:0:0:
288,96,166708,1,0,0:0:0:0:
196,136,167360,1,8,0:0:0:0:
224,116,168664,1,8,0:0:0:0:
140,160,169317,1,0,0:0:0:0:
140,160,169969,1,8,0:0:0:0:
296,148,170295,1,0,0:0:0:0:
260,180,170621,1,8,0:0:0:0:
160,144,170947,1,8,0:0:0:0:
332,148,171599,1,12,0:0:0:0:
168,148,172577,1,0,0:0:0:0:
252,104,172903,1,12,0:0:0:0:
176,168,173882,1,8,0:0:0:0:
104,116,174534,1,0,0:0:0:0:
144,116,174860,1,8,0:0:0:0:
276,156,175512,1,12,0:0:0:0:
244,120,176490,1,8,0:0:0:0:
152,124,177143,1,0,0:0:0:0:
32,136,177795,1,12,0:0:0:0:
260,148,178121,1,12,0:0:0:0:
112,104,179099,1,8,0:0:0:0:
308,256,179751,1,0,0:0:0:0:
272,144,180403,5,8,0:0:0:0:
156,192,180730,1,0,0:0:0:0:
364,136,181056,1,8,0:0:0:0:
364,128,181708,1,8,0:0:0:0:
364,128,182034,1,8,0:0:0:0:
356,112,182360,1,8,0:0:0:0:
328,200,183012,5,0,0:0:0:0:
328,192,183338,1,8,0:0:0:0:
324,192,183664,1,8,0:0:0:0:
324,192,183990,1,0,0:0:0:0:
224,140,184317,5,8,0:0:0:0:
60,128,184969,1,0,0:0:0:0:
204,160,185621,1,8,0:0:0:0:
152,92,187577,1,8,0:0:0:0:
136,84,188230,5,0,0:0:0:0:
208,128,190186,1,8,0:0:0:0:
120,132,191001,1,4,0:0:0:0:
204,108,192306,1,12,0:0:0:0:
204,108,192632,1,12,0:0:0:0:
216,152,192958,1,12,0:0:0:0:
220,164,193447,1,0,0:0:0:0:
220,112,194588,1,12,0:0:0:0:
244,88,195730,1,8,0:0:0:0:
148,136,196056,1,4,0:0:0:0:
180,168,197360,1,0,0:0:0:0:
208,204,198012,1,0,0:0:0:0:
368,152,198338,1,8,0:0:0:0:
368,152,198664,1,0,0:0:0:0:
180,108,199317,1,8,0:0:0:0:
180,108,199969,1,8,0:0:0:0:
96,96,200295,1,8,0:0:0:0:
356,132,200621,1,0,0:0:0:0:
124,200,200947,1,0,0:0:0:0:
184,140,201273,1,8,0:0:0:0:
268,128,202577,1,0,0:0:0:0:
252,136,203230,1,0,0:0:0:0:
232,148,203556,1,0,0:0:0:0:
224,144,203882,1,8,0:0:0:0:
124,176,204534,1,0,0:0:0:0:
208,148,205186,5,0,0:0:0:0:
224,116,205512,1,8,0:0:0:0:
224,120,205838,1,8,0:0:0:0:
228,120,206164,1,8,0:0:0:0:
120,200,206490,1,4,0:0:0:0:
180,176,207795,1,8,0:0:0:0:
184,176,208447,1,0,0:0:0:0:
180,176,208773,1,8,0:0:0:0:
192,84,209099,1,4,0:0:0:0:
300,228,209751,1,0,0:0:0:0:
292,228,210403,1,8,0:0:0:0:
292,228,210730,1,0,0:0:0:0:
292,228,211056,1,0,0:0:0:0:
292,228,211382,1,8,0:0:0:0:
292,228,211708,1,0,0:0:0:0:
272,140,213012,1,8,0:0:0:0:
196,148,213664,1,8,0:0:0:0:
196,152,213990,1,0,0:0:0:0:
240,172,214317,1,8,0:0:0:0:
204,116,214969,1,0,0:0:0:0:
180,136,215621,5,0,0:0:0:0:
236,128,215947,1,0,0:0:0:0:
240,116,216273,1,8,0:0:0:0:
240,116,216599,1,8,0:0:0:0:
240,124,216925,1,4,0:0:0:0:
216,104,218230,1,8,0:0:0:0:
220,108,218882,1,0,0:0:0:0:
224,108,219208,1,8,0:0:0:0:
156,128,219534,1,0,0:0:0:0:
156,128,220186,1,8,0:0:0:0:
256,184,220838,1,8,0:0:0:0:
256,184,221164,1,8,0:0:0:0:
268,140,221490,1,0,0:0:0:0:
320,112,221817,1,8,0:0:0:0:
124,72,222143,5,4,0:0:0:0:
96,100,223447,1,0,0:0:0:0:
160,88,223773,1,0,0:0:0:0:
104,152,224099,1,8,0:0:0:0:
260,104,224751,5,0,0:0:0:0:
256,192,226056,12,0,229643,0:0:0:0:
328,104,229969,5,4,0:0:0:0:
276,64,231273,1,8,0:0:0:0:
108,88,231926,5,8,0:0:0:0:
108,88,232252,1,0,0:0:0:0:
108,88,232578,1,0,0:0:0:0:
108,88,233230,1,8,0:0:0:0:
108,88,233882,1,8,0:0:0:0:
180,72,234534,5,0,0:0:0:0:
108,88,234860,1,8,0:0:0:0:
144,100,235186,1,4,0:0:0:0:
276,64,236491,1,8,0:0:0:0:
108,88,237143,1,8,0:0:0:0:
108,88,237469,1,0,0:0:0:0:
108,88,237795,1,0,0:0:0:0:
108,88,238447,1,8,0:0:0:0:
108,88,239099,1,0,0:0:0:0:
32,144,239426,5,8,0:0:0:0:
32,144,239752,1,8,0:0:0:0:
32,144,240078,1,8,0:0:0:0:
32,144,240404,1,4,0:0:0:0:
276,64,241708,1,8,0:0:0:0:
108,88,242361,5,8,0:0:0:0:
108,88,242687,1,0,0:0:0:0:
108,88,243013,1,0,0:0:0:0:
108,88,243665,1,8,0:0:0:0:
108,88,244317,1,8,0:0:0:0:
180,72,244969,5,0,0:0:0:0:
108,88,245295,1,8,0:0:0:0:
144,100,245621,1,4,0:0:0:0:
276,64,246926,1,8,0:0:0:0:
108,88,247578,1,8,0:0:0:0:
108,88,247904,1,0,0:0:0:0:
108,88,248230,1,0,0:0:0:0:
108,88,248882,1,8,0:0:0:0:
108,88,249534,1,0,0:0:0:0:
32,144,249861,5,12,0:0:0:0:
32,144,250187,1,12,0:0:0:0:
32,144,250513,1,12,0:0:0:0:
32,144,250838,1,0,0:0:0:0:
276,148,252143,1,8,0:0:0:0:
300,128,252795,1,8,0:0:0:0:
296,136,253447,1,0,0:0:0:0:
276,148,254751,1,8,0:0:0:0:
232,120,255403,1,8,0:0:0:0:
232,136,255730,5,4,0:0:0:0:
256,192,255893,12,2,261925,0:0:0:0:
