osu file format v14

[General]
AudioFilename: audio.mp3
AudioLeadIn: 0
PreviewTime: 129697
Countdown: 0
SampleSet: Normal
StackLeniency: 0.7
Mode: 1
LetterboxInBreaks: 0
WidescreenStoryboard: 0

[Editor]
Bookmarks: 5621,10838,21273,33664,40512,42143,51436,51762,64969,65295,81599,84208,86490,98882,106545,116817,130186,130512,146817,149425,151708,162306,171273,185947,195077,195403,222469,224996,228664,229317,229969,251164
DistanceSpacing: 0.8
BeatDivisor: 4
GridSize: 4
TimelineZoom: 1.5

[Metadata]
Title:Yuki no Youni
TitleUnicode:雪のように
Artist:AKINO with bless4
ArtistUnicode:AKINO with bless4
Creator:Volta
Version:Muzukashii
Source:
Tags:christmas xmas winter
BeatmapID:1345012
BeatmapSetID:630705

[Difficulty]
HPDrainRate:5
CircleSize:2
OverallDifficulty:5
ApproachRate:0
SliderMultiplier:1.4
SliderTickRate:1

[Events]
//Background and Video events
0,0,"yukine.jpg",0,95
//Break Periods
//Storyboard Layer 0 (Background)
//Storyboard Layer 1 (Fail)
//Storyboard Layer 2 (Pass)
//Storyboard Layer 3 (Foreground)
//Storyboard Sound Samples

[TimingPoints]
404,326.086956521739,4,1,0,30,1,0
404,-133.333333333333,4,1,0,30,0,0
9860,-100,4,1,0,70,0,0
65621,-100,4,1,0,80,0,1
86490,-100,4,1,0,70,0,0
130838,-100,4,1,0,80,0,1
151708,-100,4,1,0,70,0,0
196056,-100,4,1,0,80,0,1
229969,-100,4,1,0,70,0,0

[HitObjects]
252,148,404,5,8,0:0:0:0:
252,148,1056,1,8,0:0:0:0:
252,148,1708,1,0,0:0:0:0:
252,148,2360,1,0,0:0:0:0:
172,92,2686,1,0,0:0:0:0:
172,92,3012,1,8,0:0:0:0:
172,92,3664,1,8,0:0:0:0:
172,92,4317,1,0,0:0:0:0:
172,92,4969,1,0,0:0:0:0:
220,160,5295,1,8,0:0:0:0:
172,92,5621,1,0,0:0:0:0:
172,92,6273,1,0,0:0:0:0:
236,88,6925,5,8,0:0:0:0:
172,92,7577,1,8,0:0:0:0:
172,92,7903,1,8,0:0:0:0:
248,100,8230,5,0,0:0:0:0:
172,92,8882,1,0,0:0:0:0:
248,100,9534,1,8,0:0:0:0:
228,172,10023,5,8,0:0:0:0:
208,152,10105,1,8,0:0:0:0:
228,172,10186,1,8,0:0:0:0:
232,144,10838,1,4,0:0:0:0:
228,104,11490,1,0,0:0:0:0:
228,104,12143,1,12,0:0:0:0:
272,120,12306,1,0,0:0:0:0:
364,220,12632,1,8,0:0:0:0:
364,220,12958,1,0,0:0:0:0:
364,220,13121,1,0,0:0:0:0:
364,220,13447,1,4,0:0:0:0:
128,160,13936,1,8,0:0:0:0:
128,160,14099,1,8,0:0:0:0:
284,156,14751,1,4,0:0:0:0:
284,156,14914,1,8,0:0:0:0:
196,136,15240,1,8,0:0:0:0:
208,128,15567,1,8,0:0:0:0:
208,128,15730,1,0,0:0:0:0:
208,128,15893,1,0,0:0:0:0:
208,128,16056,1,4,0:0:0:0:
112,132,17034,1,0,0:0:0:0:
112,132,17360,1,12,0:0:0:0:
152,168,17849,1,0,0:0:0:0:
232,96,18012,1,8,0:0:0:0:
180,168,18175,1,0,0:0:0:0:
152,168,18338,1,0,0:0:0:0:
152,124,18664,1,4,0:0:0:0:
272,160,18990,1,8,0:0:0:0:
272,160,19317,1,4,0:0:0:0:
220,144,19643,1,8,0:0:0:0:
220,144,19969,1,12,0:0:0:0:
248,100,20132,1,0,0:0:0:0:
192,140,20295,1,8,0:0:0:0:
264,88,20458,1,0,0:0:0:0:
192,100,20621,1,8,0:0:0:0:
192,100,20784,1,8,0:0:0:0:
192,100,20865,1,8,0:0:0:0:
192,100,20947,1,8,0:0:0:0:
192,100,21110,1,8,0:0:0:0:
328,104,21273,5,4,0:0:0:0:
160,108,21599,5,8,0:0:0:0:
244,92,21762,1,0,0:0:0:0:
244,92,21925,1,8,0:0:0:0:
228,160,22251,5,8,0:0:0:0:
260,124,22414,1,0,0:0:0:0:
276,64,22577,1,8,0:0:0:0:
276,64,22740,1,8,0:0:0:0:
108,88,22903,1,0,0:0:0:0:
108,88,23230,5,8,0:0:0:0:
280,68,23393,1,0,0:0:0:0:
120,128,23474,1,0,0:0:0:0:
108,88,23556,1,0,0:0:0:0:
312,200,23719,1,8,0:0:0:0:
108,88,23882,1,0,0:0:0:0:
108,88,24208,5,8,0:0:0:0:
256,136,24371,1,0,0:0:0:0:
108,88,24534,1,8,0:0:0:0:
108,88,24860,5,8,0:0:0:0:
216,104,25023,1,0,0:0:0:0:
108,88,25186,1,8,0:0:0:0:
240,64,25349,1,8,0:0:0:0:
108,88,25512,1,0,0:0:0:0:
180,72,25838,5,0,0:0:0:0:
112,164,25920,1,0,0:0:0:0:
204,136,26001,1,0,0:0:0:0:
108,88,26164,1,8,0:0:0:0:
312,112,26327,1,8,0:0:0:0:
144,100,26490,1,4,0:0:0:0:
160,108,26817,1,8,0:0:0:0:
244,92,26980,1,0,0:0:0:0:
244,92,27143,1,8,0:0:0:0:
228,160,27469,1,8,0:0:0:0:
260,124,27632,1,0,0:0:0:0:
276,64,27795,1,8,0:0:0:0:
276,64,27958,1,8,0:0:0:0:
108,88,28121,1,0,0:0:0:0:
108,88,28447,1,8,0:0:0:0:
280,68,28610,1,0,0:0:0:0:
120,128,28692,1,0,0:0:0:0:
108,88,28773,1,0,0:0:0:0:
312,200,28936,1,8,0:0:0:0:
108,88,29099,1,0,0:0:0:0:
108,88,29425,1,8,0:0:0:0:
256,136,29588,1,0,0:0:0:0:
108,88,29751,1,8,0:0:0:0:
224,68,29914,1,8,0:0:0:0:
224,68,29996,1,8,0:0:0:0:
108,88,30077,1,8,0:0:0:0:
216,104,30240,1,8,0:0:0:0:
108,88,30403,1,0,0:0:0:0:
32,144,30730,1,12,0:0:0:0:
32,144,31056,1,12,0:0:0:0:
32,144,31382,1,12,0:0:0:0:
32,144,31708,1,4,0:0:0:0:
264,72,32034,1,0,0:0:0:0:
264,72,32360,1,8,0:0:0:0:
264,96,32523,1,0,0:0:0:0:
300,100,32686,1,8,0:0:0:0:
192,112,32849,1,8,0:0:0:0:
320,108,34317,1,8,0:0:0:0:
320,108,34643,1,8,0:0:0:0:
272,96,34969,1,8,0:0:0:0:
272,96,35132,1,0,0:0:0:0:
272,100,35295,1,0,0:0:0:0:
272,104,35458,1,8,0:0:0:0:
260,104,35784,1,0,0:0:0:0:
260,104,35947,1,0,0:0:0:0:
232,112,36925,1,0,0:0:0:0:
192,152,37251,1,0,0:0:0:0:
192,152,37577,1,0,0:0:0:0:
192,152,37740,1,0,0:0:0:0:
312,92,37903,1,8,0:0:0:0:
192,152,38067,1,8,0:0:0:0:
220,120,38556,1,8,0:0:0:0:
48,148,38882,1,0,0:0:0:0:
144,128,39208,1,8,0:0:0:0:
144,128,39534,1,0,0:0:0:0:
176,128,40186,1,0,0:0:0:0:
164,72,40512,1,8,0:0:0:0:
184,72,40838,1,0,0:0:0:0:
196,40,41001,1,8,0:0:0:0:
224,192,41327,1,0,0:0:0:0:
100,152,41490,1,8,0:0:0:0:
100,152,41653,1,0,0:0:0:0:
100,152,41817,1,8,0:0:0:0:
120,152,42143,5,4,0:0:0:0:
248,120,42469,1,8,0:0:0:0:
256,108,42795,1,0,0:0:0:0:
256,108,42958,1,0,0:0:0:0:
232,148,43121,1,8,0:0:0:0:
236,180,43284,1,0,0:0:0:0:
256,148,43773,1,8,0:0:0:0:
256,148,44099,1,0,0:0:0:0:
144,152,44262,1,0,0:0:0:0:
256,148,44425,1,8,0:0:0:0:
232,132,44751,1,0,0:0:0:0:
208,120,45077,1,8,0:0:0:0:
236,112,45403,1,8,0:0:0:0:
240,112,45567,1,0,0:0:0:0:
240,124,45730,1,8,0:0:0:0:
240,128,45893,1,8,0:0:0:0:
96,152,46056,1,0,0:0:0:0:
204,140,46382,1,8,0:0:0:0:
164,136,46708,1,8,0:0:0:0:
268,96,46871,1,0,0:0:0:0:
268,96,47034,1,8,0:0:0:0:
268,96,47360,1,0,0:0:0:0:
168,176,47686,1,8,0:0:0:0:
304,180,48012,1,0,0:0:0:0:
436,148,48175,1,0,0:0:0:0:
232,156,48338,1,8,0:0:0:0:
256,172,48664,1,0,0:0:0:0:
492,184,48990,1,8,0:0:0:0:
440,184,49317,1,8,0:0:0:0:
440,184,49480,1,0,0:0:0:0:
460,184,49643,1,8,0:0:0:0:
336,224,49969,1,4,0:0:0:0:
276,128,50295,1,8,0:0:0:0:
364,204,50458,1,4,0:0:0:0:
276,128,50784,1,4,0:0:0:0:
164,148,51110,1,12,0:0:0:0:
376,200,51925,1,8,0:0:0:0:
376,200,52088,1,8,0:0:0:0:
376,200,52251,1,0,0:0:0:0:
376,200,52333,1,0,0:0:0:0:
376,200,52414,1,0,0:0:0:0:
232,144,52577,1,12,0:0:0:0:
240,136,52903,1,12,0:0:0:0:
180,104,53230,1,8,0:0:0:0:
180,104,53393,1,0,0:0:0:0:
180,104,53556,1,8,0:0:0:0:
180,104,53719,1,8,0:0:0:0:
4,156,54045,1,0,0:0:0:0:
236,80,54208,1,8,0:0:0:0:
104,144,54371,1,0,0:0:0:0:
104,152,54534,1,0,0:0:0:0:
272,112,54615,1,0,0:0:0:0:
136,136,54697,1,0,0:0:0:0:
156,136,54860,1,8,0:0:0:0:
172,136,55186,1,4,0:0:0:0:
172,136,55512,1,4,0:0:0:0:
236,112,55838,1,0,0:0:0:0:
244,96,56001,1,8,0:0:0:0:
244,96,56164,1,0,0:0:0:0:
244,96,56327,1,8,0:0:0:0:
128,132,56653,1,8,0:0:0:0:
244,96,56817,1,0,0:0:0:0:
260,140,56980,1,0,0:0:0:0:
260,140,57143,1,8,0:0:0:0:
272,92,57306,1,8,0:0:0:0:
184,136,57387,1,8,0:0:0:0:
272,92,57469,1,8,0:0:0:0:
240,76,57795,1,12,0:0:0:0:
88,140,58121,1,12,0:0:0:0:
184,120,58447,1,0,0:0:0:0:
184,120,58610,1,0,0:0:0:0:
184,120,58773,1,8,0:0:0:0:
184,120,58936,1,8,0:0:0:0:
96,152,59262,1,0,0:0:0:0:
240,132,59425,1,8,0:0:0:0:
240,132,59588,1,0,0:0:0:0:
240,136,59751,1,0,0:0:0:0:
180,152,60077,1,8,0:0:0:0:
256,156,60403,1,0,0:0:0:0:
196,100,60730,1,0,0:0:0:0:
196,100,61056,1,0,0:0:0:0:
196,100,61219,1,0,0:0:0:0:
256,156,61382,1,8,0:0:0:0:
256,156,61708,1,8,0:0:0:0:
172,112,62034,1,0,0:0:0:0:
208,112,62197,1,0,0:0:0:0:
208,120,62360,1,8,0:0:0:0:
164,88,62523,1,0,0:0:0:0:
164,88,62686,1,8,0:0:0:0:
264,112,63012,5,12,0:0:0:0:
208,144,63175,1,0,0:0:0:0:
232,120,63338,1,0,0:0:0:0:
284,136,63501,1,12,0:0:0:0:
208,144,63664,1,0,0:0:0:0:
208,144,63827,1,0,0:0:0:0:
148,136,63990,1,12,0:0:0:0:
148,136,64317,1,4,0:0:0:0:
240,196,64969,1,8,0:0:0:0:
204,112,65295,1,0,0:0:0:0:
176,140,65621,5,4,0:0:0:0:
252,132,65947,1,8,0:0:0:0:
252,132,66110,1,8,0:0:0:0:
180,116,66273,1,0,0:0:0:0:
256,108,66599,5,8,0:0:0:0:
152,172,66762,1,0,0:0:0:0:
180,176,66925,1,0,0:0:0:0:
180,168,67007,1,0,0:0:0:0:
180,176,67088,1,0,0:0:0:0:
180,176,67251,1,8,0:0:0:0:
124,160,67414,1,0,0:0:0:0:
184,176,67577,1,8,0:0:0:0:
184,176,67740,1,8,0:0:0:0:
180,176,67903,1,0,0:0:0:0:
192,84,68230,1,4,0:0:0:0:
272,104,68556,1,8,0:0:0:0:
248,160,68719,1,0,0:0:0:0:
300,228,68882,1,0,0:0:0:0:
300,228,69208,5,8,0:0:0:0:
292,228,69371,1,0,0:0:0:0:
292,228,69534,1,8,0:0:0:0:
200,128,69615,1,8,0:0:0:0:
200,128,69697,1,8,0:0:0:0:
292,228,69860,1,8,0:0:0:0:
292,228,70023,1,0,0:0:0:0:
292,228,70186,1,8,0:0:0:0:
252,228,70349,1,0,0:0:0:0:
292,228,70512,1,0,0:0:0:0:
292,228,70838,1,0,0:0:0:0:
208,132,71164,1,8,0:0:0:0:
164,140,71327,1,0,0:0:0:0:
256,132,71490,1,8,0:0:0:0:
268,136,71817,5,8,0:0:0:0:
272,140,71980,1,0,0:0:0:0:
272,140,72143,1,8,0:0:0:0:
272,144,72224,1,8,0:0:0:0:
272,144,72306,1,8,0:0:0:0:
288,136,72469,1,0,0:0:0:0:
196,132,72632,1,0,0:0:0:0:
196,148,72795,1,8,0:0:0:0:
196,156,72958,1,0,0:0:0:0:
196,152,73121,1,8,0:0:0:0:
240,172,73447,1,8,0:0:0:0:
240,144,73773,1,8,0:0:0:0:
240,144,73936,1,0,0:0:0:0:
112,184,74099,1,0,0:0:0:0:
112,184,74425,1,8,0:0:0:0:
112,184,74588,1,0,0:0:0:0:
180,136,74751,5,0,0:0:0:0:
80,144,74914,1,8,0:0:0:0:
236,128,75077,1,8,0:0:0:0:
96,144,75159,1,8,0:0:0:0:
96,144,75240,1,8,0:0:0:0:
240,116,75403,1,0,0:0:0:0:
104,144,75567,1,0,0:0:0:0:
240,116,75730,1,8,0:0:0:0:
240,120,76056,1,4,0:0:0:0:
104,116,76382,1,8,0:0:0:0:
196,112,76545,1,0,0:0:0:0:
196,112,76708,1,0,0:0:0:0:
196,112,77034,1,8,0:0:0:0:
212,104,77197,1,0,0:0:0:0:
216,104,77360,1,8,0:0:0:0:
216,108,77442,1,8,0:0:0:0:
216,108,77523,1,8,0:0:0:0:
216,108,77686,1,8,0:0:0:0:
220,108,77849,1,0,0:0:0:0:
220,108,78012,1,8,0:0:0:0:
220,108,78175,1,0,0:0:0:0:
224,108,78338,1,0,0:0:0:0:
156,128,78664,1,8,0:0:0:0:
272,104,78990,1,8,0:0:0:0:
156,128,79153,1,8,0:0:0:0:
156,128,79317,1,0,0:0:0:0:
184,124,79398,1,0,0:0:0:0:
152,132,79480,1,0,0:0:0:0:
148,140,79643,1,8,0:0:0:0:
148,140,79806,1,0,0:0:0:0:
256,184,79969,1,8,0:0:0:0:
256,184,80295,1,8,0:0:0:0:
352,100,80458,1,0,0:0:0:0:
268,140,80621,1,8,0:0:0:0:
268,140,80784,1,8,0:0:0:0:
320,112,80947,1,0,0:0:0:0:
256,128,81273,1,4,0:0:0:0:
160,92,81925,1,8,0:0:0:0:
236,144,82414,1,8,0:0:0:0:
244,144,82577,1,0,0:0:0:0:
256,128,82740,1,8,0:0:0:0:
256,140,82903,1,0,0:0:0:0:
256,140,83230,1,8,0:0:0:0:
288,136,83556,1,0,0:0:0:0:
172,112,83719,1,8,0:0:0:0:
160,132,83882,1,4,0:0:0:0:
188,124,84534,1,8,0:0:0:0:
200,120,85023,1,8,0:0:0:0:
188,124,85186,1,0,0:0:0:0:
204,128,85349,1,8,0:0:0:0:
200,120,85512,1,0,0:0:0:0:
248,120,85838,1,8,0:0:0:0:
248,120,86001,1,0,0:0:0:0:
256,120,86164,1,8,0:0:0:0:
256,120,86246,1,8,0:0:0:0:
256,120,86327,1,8,0:0:0:0:
328,104,86490,5,4,0:0:0:0:
160,108,86817,1,8,0:0:0:0:
244,92,86980,1,0,0:0:0:0:
244,92,87143,1,8,0:0:0:0:
228,160,87469,1,8,0:0:0:0:
260,124,87632,1,0,0:0:0:0:
276,64,87795,1,8,0:0:0:0:
276,64,87958,1,8,0:0:0:0:
108,88,88121,1,0,0:0:0:0:
108,88,88447,1,8,0:0:0:0:
280,68,88610,1,0,0:0:0:0:
120,128,88692,1,0,0:0:0:0:
108,88,88773,1,0,0:0:0:0:
312,200,88936,1,8,0:0:0:0:
108,88,89099,1,0,0:0:0:0:
108,88,89425,1,8,0:0:0:0:
256,136,89588,1,0,0:0:0:0:
108,88,89751,1,8,0:0:0:0:
108,88,90077,1,8,0:0:0:0:
216,104,90240,1,0,0:0:0:0:
108,88,90403,1,8,0:0:0:0:
240,64,90567,1,8,0:0:0:0:
108,88,90730,1,0,0:0:0:0:
180,72,91056,1,0,0:0:0:0:
112,164,91137,1,0,0:0:0:0:
204,136,91219,1,0,0:0:0:0:
108,88,91382,1,8,0:0:0:0:
312,112,91545,1,8,0:0:0:0:
144,100,91708,1,4,0:0:0:0:
160,108,92034,1,8,0:0:0:0:
244,92,92197,1,0,0:0:0:0:
244,92,92360,1,8,0:0:0:0:
228,160,92686,1,8,0:0:0:0:
260,124,92849,1,0,0:0:0:0:
276,64,93012,1,8,0:0:0:0:
276,64,93175,1,8,0:0:0:0:
108,88,93338,1,0,0:0:0:0:
108,88,93664,1,8,0:0:0:0:
280,68,93827,1,0,0:0:0:0:
120,128,93909,1,0,0:0:0:0:
108,88,93990,1,0,0:0:0:0:
312,200,94153,1,8,0:0:0:0:
108,88,94317,1,0,0:0:0:0:
108,88,94643,1,8,0:0:0:0:
256,136,94806,1,0,0:0:0:0:
108,88,94969,1,8,0:0:0:0:
224,68,95132,1,8,0:0:0:0:
224,68,95213,1,8,0:0:0:0:
108,88,95295,1,8,0:0:0:0:
216,104,95458,5,8,0:0:0:0:
108,88,95621,1,0,0:0:0:0:
32,144,95947,1,12,0:0:0:0:
32,144,96273,1,12,0:0:0:0:
32,144,96599,1,12,0:0:0:0:
32,144,96925,1,4,0:0:0:0:
264,72,97251,5,0,0:0:0:0:
264,72,97577,1,0,0:0:0:0:
264,96,97740,1,8,0:0:0:0:
300,100,97903,1,0,0:0:0:0:
192,112,98067,1,8,0:0:0:0:
320,108,99534,1,0,0:0:0:0:
320,108,99860,1,0,0:0:0:0:
272,96,100186,1,0,0:0:0:0:
272,96,100349,1,8,0:0:0:0:
272,100,100512,1,8,0:0:0:0:
272,104,100675,1,0,0:0:0:0:
260,104,100838,1,8,0:0:0:0:
260,104,101001,1,0,0:0:0:0:
160,120,101327,1,0,0:0:0:0:
232,112,102143,1,0,0:0:0:0:
88,128,102469,1,0,0:0:0:0:
192,152,102795,1,0,0:0:0:0:
192,152,102958,1,0,0:0:0:0:
312,92,103121,1,8,0:0:0:0:
192,152,103284,1,8,0:0:0:0:
220,120,103773,1,8,0:0:0:0:
48,148,104099,1,0,0:0:0:0:
144,128,104425,1,8,0:0:0:0:
144,128,104751,1,0,0:0:0:0:
176,128,105403,1,0,0:0:0:0:
208,152,106056,1,8,0:0:0:0:
224,192,106545,1,8,0:0:0:0:
100,152,106708,1,8,0:0:0:0:
236,120,106871,1,0,0:0:0:0:
100,152,107034,1,8,0:0:0:0:
128,200,107360,1,4,0:0:0:0:
248,120,107686,1,8,0:0:0:0:
256,108,108012,1,0,0:0:0:0:
256,108,108175,1,0,0:0:0:0:
232,148,108338,1,8,0:0:0:0:
236,180,108501,1,0,0:0:0:0:
256,148,108990,1,8,0:0:0:0:
256,148,109317,1,0,0:0:0:0:
144,152,109480,1,0,0:0:0:0:
256,148,109643,1,8,0:0:0:0:
232,132,109969,1,0,0:0:0:0:
208,120,110295,1,8,0:0:0:0:
236,112,110621,1,8,0:0:0:0:
240,112,110784,1,0,0:0:0:0:
240,124,110947,1,8,0:0:0:0:
240,128,111110,1,8,0:0:0:0:
96,152,111273,1,0,0:0:0:0:
204,140,111599,1,8,0:0:0:0:
164,136,111925,1,8,0:0:0:0:
268,96,112088,1,0,0:0:0:0:
268,96,112251,1,8,0:0:0:0:
268,96,112577,1,0,0:0:0:0:
168,176,112903,1,8,0:0:0:0:
304,180,113230,1,0,0:0:0:0:
436,148,113393,1,0,0:0:0:0:
232,156,113556,1,8,0:0:0:0:
256,172,113882,1,0,0:0:0:0:
492,184,114208,1,8,0:0:0:0:
440,184,114534,1,8,0:0:0:0:
440,184,114697,1,0,0:0:0:0:
460,184,114860,1,8,0:0:0:0:
336,224,115186,5,4,0:0:0:0:
276,128,115512,1,8,0:0:0:0:
364,204,115675,1,4,0:0:0:0:
276,128,116001,1,4,0:0:0:0:
164,148,116327,1,12,0:0:0:0:
376,200,117143,1,8,0:0:0:0:
376,200,117306,1,8,0:0:0:0:
376,200,117469,1,0,0:0:0:0:
376,200,117550,1,0,0:0:0:0:
376,200,117632,1,0,0:0:0:0:
232,144,117795,1,12,0:0:0:0:
240,136,118121,1,12,0:0:0:0:
180,104,118447,1,8,0:0:0:0:
180,104,118610,1,0,0:0:0:0:
180,104,118773,1,8,0:0:0:0:
180,104,118936,1,8,0:0:0:0:
204,88,119262,1,0,0:0:0:0:
236,80,119425,1,8,0:0:0:0:
104,144,119588,1,8,0:0:0:0:
104,152,119751,1,0,0:0:0:0:
272,112,119833,1,0,0:0:0:0:
136,136,119914,1,0,0:0:0:0:
156,136,120077,1,8,0:0:0:0:
172,136,120403,1,4,0:0:0:0:
172,136,120730,1,4,0:0:0:0:
236,112,121056,1,0,0:0:0:0:
244,96,121219,1,8,0:0:0:0:
244,96,121382,1,0,0:0:0:0:
244,96,121545,1,8,0:0:0:0:
244,96,121871,1,8,0:0:0:0:
244,96,122034,1,0,0:0:0:0:
260,140,122197,1,0,0:0:0:0:
260,140,122360,1,8,0:0:0:0:
272,92,122523,1,8,0:0:0:0:
232,100,122605,1,8,0:0:0:0:
272,92,122686,1,8,0:0:0:0:
240,76,123012,1,12,0:0:0:0:
88,140,123338,1,12,0:0:0:0:
184,120,123664,1,0,0:0:0:0:
184,120,123827,1,0,0:0:0:0:
184,120,123990,1,8,0:0:0:0:
184,120,124153,1,8,0:0:0:0:
200,128,124480,1,0,0:0:0:0:
240,132,124643,1,8,0:0:0:0:
240,132,124806,1,0,0:0:0:0:
240,136,124969,1,0,0:0:0:0:
180,152,125295,1,8,0:0:0:0:
256,156,125621,1,0,0:0:0:0:
196,100,125947,1,0,0:0:0:0:
196,100,126273,1,0,0:0:0:0:
256,156,126599,1,0,0:0:0:0:
256,104,126762,1,8,0:0:0:0:
256,156,126925,1,0,0:0:0:0:
172,112,127251,1,0,0:0:0:0:
208,112,127414,1,0,0:0:0:0:
208,120,127577,1,8,0:0:0:0:
164,88,127740,1,0,0:0:0:0:
164,88,127903,1,8,0:0:0:0:
264,112,128230,5,12,0:0:0:0:
208,144,128393,1,0,0:0:0:0:
232,120,128556,1,0,0:0:0:0:
284,136,128719,1,12,0:0:0:0:
208,144,128882,1,0,0:0:0:0:
208,144,129045,1,0,0:0:0:0:
148,136,129208,1,12,0:0:0:0:
148,136,129534,1,4,0:0:0:0:
176,140,130186,1,8,0:0:0:0:
84,124,130512,1,0,0:0:0:0:
176,140,130838,5,4,0:0:0:0:
252,132,131164,1,8,0:0:0:0:
252,132,131327,1,8,0:0:0:0:
180,116,131490,1,0,0:0:0:0:
256,108,131817,1,8,0:0:0:0:
152,172,131980,1,0,0:0:0:0:
180,176,132143,1,8,0:0:0:0:
100,140,132224,1,8,0:0:0:0:
180,176,132306,1,8,0:0:0:0:
180,176,132469,1,8,0:0:0:0:
184,176,132632,1,0,0:0:0:0:
184,176,132795,1,8,0:0:0:0:
184,176,132958,1,0,0:0:0:0:
180,176,133121,1,0,0:0:0:0:
192,84,133447,1,4,0:0:0:0:
272,104,133773,1,8,0:0:0:0:
248,160,133936,1,0,0:0:0:0:
300,228,134099,1,0,0:0:0:0:
300,228,134425,1,8,0:0:0:0:
292,228,134588,1,0,0:0:0:0:
292,228,134751,1,0,0:0:0:0:
184,108,134833,1,0,0:0:0:0:
200,128,134914,1,0,0:0:0:0:
292,228,135077,1,8,0:0:0:0:
292,228,135240,1,0,0:0:0:0:
292,228,135403,1,8,0:0:0:0:
252,228,135567,1,8,0:0:0:0:
292,228,135730,1,0,0:0:0:0:
292,228,136056,1,0,0:0:0:0:
208,132,136382,1,8,0:0:0:0:
164,140,136545,1,0,0:0:0:0:
256,132,136708,1,8,0:0:0:0:
268,136,137034,1,8,0:0:0:0:
272,140,137197,1,0,0:0:0:0:
272,140,137360,1,8,0:0:0:0:
272,144,137442,1,8,0:0:0:0:
272,144,137523,1,8,0:0:0:0:
288,136,137686,1,0,0:0:0:0:
196,132,137849,1,0,0:0:0:0:
196,148,138012,1,8,0:0:0:0:
196,156,138175,1,0,0:0:0:0:
196,152,138338,1,8,0:0:0:0:
240,172,138664,1,8,0:0:0:0:
240,144,138990,1,8,0:0:0:0:
240,144,139153,1,0,0:0:0:0:
112,184,139317,1,0,0:0:0:0:
112,184,139643,1,8,0:0:0:0:
112,184,139806,1,0,0:0:0:0:
180,136,139969,5,0,0:0:0:0:
80,144,140132,1,8,0:0:0:0:
236,128,140295,1,8,0:0:0:0:
96,148,140376,1,8,0:0:0:0:
96,144,140458,1,8,0:0:0:0:
240,116,140621,1,0,0:0:0:0:
104,144,140784,1,0,0:0:0:0:
240,116,140947,1,8,0:0:0:0:
240,120,141273,1,4,0:0:0:0:
104,116,141599,1,8,0:0:0:0:
196,112,141762,1,0,0:0:0:0:
196,112,141925,1,0,0:0:0:0:
196,112,142251,1,8,0:0:0:0:
212,104,142414,1,0,0:0:0:0:
216,104,142577,1,8,0:0:0:0:
216,108,142659,1,8,0:0:0:0:
216,108,142740,1,8,0:0:0:0:
216,108,142903,1,8,0:0:0:0:
220,108,143067,1,0,0:0:0:0:
220,108,143230,1,8,0:0:0:0:
220,108,143393,1,0,0:0:0:0:
224,108,143556,1,0,0:0:0:0:
156,128,143882,1,8,0:0:0:0:
272,104,144208,1,8,0:0:0:0:
156,128,144371,1,8,0:0:0:0:
156,128,144534,1,0,0:0:0:0:
156,128,144615,1,0,0:0:0:0:
152,132,144697,1,0,0:0:0:0:
148,140,144860,1,8,0:0:0:0:
148,140,145023,1,0,0:0:0:0:
256,184,145186,1,8,0:0:0:0:
256,184,145512,1,8,0:0:0:0:
352,100,145675,1,0,0:0:0:0:
268,140,145838,1,8,0:0:0:0:
320,108,146001,1,8,0:0:0:0:
320,112,146164,1,0,0:0:0:0:
232,120,146490,1,4,0:0:0:0:
216,188,147143,1,8,0:0:0:0:
200,76,147469,1,0,0:0:0:0:
220,192,147632,1,8,0:0:0:0:
220,192,147795,1,0,0:0:0:0:
220,192,147958,1,8,0:0:0:0:
216,188,148121,1,0,0:0:0:0:
220,200,148447,1,8,0:0:0:0:
220,200,148773,1,8,0:0:0:0:
220,200,148936,1,8,0:0:0:0:
208,176,149099,1,4,0:0:0:0:
272,144,149751,1,8,0:0:0:0:
136,96,150077,1,0,0:0:0:0:
236,160,150240,1,8,0:0:0:0:
236,160,150403,1,0,0:0:0:0:
236,160,150567,1,8,0:0:0:0:
236,160,150730,1,0,0:0:0:0:
248,172,151056,1,8,0:0:0:0:
256,172,151219,1,0,0:0:0:0:
256,172,151382,1,8,0:0:0:0:
256,172,151463,1,8,0:0:0:0:
256,172,151545,1,8,0:0:0:0:
256,172,151708,1,0,0:0:0:0:
208,136,152034,1,8,0:0:0:0:
208,136,152197,1,8,0:0:0:0:
208,136,152360,1,0,0:0:0:0:
208,136,152686,1,8,0:0:0:0:
208,136,152849,1,0,0:0:0:0:
176,200,153175,1,0,0:0:0:0:
176,200,153338,1,8,0:0:0:0:
268,128,153664,1,8,0:0:0:0:
268,128,153827,1,0,0:0:0:0:
268,128,153990,1,8,0:0:0:0:
268,128,154153,5,8,0:0:0:0:
204,120,154480,1,0,0:0:0:0:
264,108,154643,1,8,0:0:0:0:
264,108,154806,1,8,0:0:0:0:
252,108,154969,1,0,0:0:0:0:
252,120,155295,1,8,0:0:0:0:
136,124,155458,1,0,0:0:0:0:
136,124,155784,1,0,0:0:0:0:
136,124,156110,1,8,0:0:0:0:
112,136,156436,1,8,0:0:0:0:
120,160,156599,1,0,0:0:0:0:
264,120,156762,1,8,0:0:0:0:
204,120,157088,1,0,0:0:0:0:
264,108,157251,1,8,0:0:0:0:
264,108,157414,1,8,0:0:0:0:
252,108,157577,1,0,0:0:0:0:
252,120,157903,1,8,0:0:0:0:
136,124,158067,1,0,0:0:0:0:
176,200,158393,1,0,0:0:0:0:
176,200,158556,1,8,0:0:0:0:
268,128,158882,1,8,0:0:0:0:
176,200,159045,1,0,0:0:0:0:
268,128,159208,1,8,0:0:0:0:
268,128,159371,5,8,0:0:0:0:
264,96,159697,1,0,0:0:0:0:
232,116,159860,1,8,0:0:0:0:
232,116,160023,1,8,0:0:0:0:
232,116,160186,1,0,0:0:0:0:
264,96,160512,1,8,0:0:0:0:
232,116,160675,1,0,0:0:0:0:
168,68,160838,1,0,0:0:0:0:
184,176,161164,1,8,0:0:0:0:
184,176,161327,1,8,0:0:0:0:
112,144,161409,1,8,0:0:0:0:
184,176,161490,1,8,0:0:0:0:
184,176,161653,1,0,0:0:0:0:
184,176,161817,1,8,0:0:0:0:
184,176,161980,1,4,0:0:0:0:
268,128,162469,1,8,0:0:0:0:
268,128,162632,1,8,0:0:0:0:
268,128,162795,1,0,0:0:0:0:
268,128,162958,1,0,0:0:0:0:
224,116,163121,1,8,0:0:0:0:
224,116,163284,1,0,0:0:0:0:
176,116,163610,1,0,0:0:0:0:
136,136,163773,1,8,0:0:0:0:
196,132,163936,1,0,0:0:0:0:
196,132,164099,1,8,0:0:0:0:
44,136,164262,1,8,0:0:0:0:
248,112,164588,1,8,0:0:0:0:
216,124,164914,1,0,0:0:0:0:
224,96,165077,1,8,0:0:0:0:
224,96,165240,1,8,0:0:0:0:
264,240,165403,1,0,0:0:0:0:
124,144,165730,1,8,0:0:0:0:
44,136,165893,1,0,0:0:0:0:
304,108,166056,5,8,0:0:0:0:
268,144,166219,1,0,0:0:0:0:
236,152,166382,1,0,0:0:0:0:
280,144,166545,1,8,0:0:0:0:
280,144,166871,1,8,0:0:0:0:
288,96,167034,1,0,0:0:0:0:
160,96,167197,1,8,0:0:0:0:
268,128,167523,1,0,0:0:0:0:
268,128,167686,1,8,0:0:0:0:
268,128,167849,1,8,0:0:0:0:
268,128,168012,1,0,0:0:0:0:
268,128,168175,1,0,0:0:0:0:
224,116,168338,1,8,0:0:0:0:
224,116,168501,1,0,0:0:0:0:
216,136,168827,1,8,0:0:0:0:
216,136,168990,1,8,0:0:0:0:
144,152,169153,1,0,0:0:0:0:
140,160,169317,1,8,0:0:0:0:
140,160,169480,1,0,0:0:0:0:
160,72,169806,1,8,0:0:0:0:
280,152,170132,1,0,0:0:0:0:
296,148,170295,1,8,0:0:0:0:
276,168,170458,1,8,0:0:0:0:
260,180,170621,1,0,0:0:0:0:
300,108,170784,1,0,0:0:0:0:
160,144,170947,1,8,0:0:0:0:
332,148,171599,1,8,0:0:0:0:
204,56,171762,1,0,0:0:0:0:
332,148,171925,1,8,0:0:0:0:
204,56,172088,1,8,0:0:0:0:
332,148,172170,1,8,0:0:0:0:
332,148,172251,1,8,0:0:0:0:
332,148,172414,1,8,0:0:0:0:
332,148,172577,1,4,0:0:0:0:
252,104,172903,1,12,0:0:0:0:
48,128,173393,1,0,0:0:0:0:
316,176,173556,1,8,0:0:0:0:
176,160,173719,1,8,0:0:0:0:
176,168,173882,1,0,0:0:0:0:
300,156,174045,1,0,0:0:0:0:
248,128,174126,1,0,0:0:0:0:
236,136,174208,1,0,0:0:0:0:
308,256,174371,1,8,0:0:0:0:
220,192,174534,1,0,0:0:0:0:
256,148,174697,1,8,0:0:0:0:
200,164,175023,1,8,0:0:0:0:
184,184,175186,1,0,0:0:0:0:
276,156,175512,1,12,0:0:0:0:
240,112,176001,1,0,0:0:0:0:
240,112,176164,1,8,0:0:0:0:
248,116,176327,1,8,0:0:0:0:
244,120,176490,1,0,0:0:0:0:
176,128,176653,1,8,0:0:0:0:
196,104,176735,1,8,0:0:0:0:
192,112,176817,1,8,0:0:0:0:
188,120,176980,1,0,0:0:0:0:
152,124,177306,1,0,0:0:0:0:
176,128,177469,1,8,0:0:0:0:
176,128,177632,1,0,0:0:0:0:
260,148,177795,5,12,0:0:0:0:
260,148,178121,1,12,0:0:0:0:
48,128,178610,1,0,0:0:0:0:
316,176,178773,1,8,0:0:0:0:
176,160,178936,1,8,0:0:0:0:
176,168,179099,1,0,0:0:0:0:
300,156,179262,1,0,0:0:0:0:
208,116,179344,1,0,0:0:0:0:
236,136,179425,1,0,0:0:0:0:
308,256,179588,1,8,0:0:0:0:
140,124,179914,1,0,0:0:0:0:
156,124,180077,1,8,0:0:0:0:
160,124,180240,1,8,0:0:0:0:
272,144,180403,5,0,0:0:0:0:
304,140,180567,1,0,0:0:0:0:
304,140,180648,1,0,0:0:0:0:
304,136,180730,1,0,0:0:0:0:
304,136,180893,1,8,0:0:0:0:
364,136,181056,1,0,0:0:0:0:
364,128,181382,1,8,0:0:0:0:
364,128,181545,1,0,0:0:0:0:
364,128,181708,1,8,0:0:0:0:
364,128,181871,1,8,0:0:0:0:
364,128,181952,1,8,0:0:0:0:
364,128,182034,1,8,0:0:0:0:
352,120,182197,1,0,0:0:0:0:
356,112,182360,1,8,0:0:0:0:
356,120,182686,1,8,0:0:0:0:
176,104,182849,5,0,0:0:0:0:
328,200,183012,5,0,0:0:0:0:
328,192,183094,1,0,0:0:0:0:
328,192,183175,1,0,0:0:0:0:
328,192,183338,1,8,0:0:0:0:
256,148,183501,1,0,0:0:0:0:
324,192,183664,1,8,0:0:0:0:
256,156,183746,1,8,0:0:0:0:
324,192,183827,1,8,0:0:0:0:
324,192,183990,1,0,0:0:0:0:
244,128,184072,1,0,0:0:0:0:
244,128,184153,1,0,0:0:0:0:
224,140,184317,5,8,0:0:0:0:
224,140,184643,1,4,0:0:0:0:
224,140,184969,1,4,0:0:0:0:
224,140,185295,1,4,0:0:0:0:
204,160,185621,1,8,0:0:0:0:
204,160,186273,1,8,0:0:0:0:
152,92,187251,1,0,0:0:0:0:
152,92,187577,1,8,0:0:0:0:
176,84,187903,1,8,0:0:0:0:
136,84,188230,5,0,0:0:0:0:
92,104,188882,5,0,0:0:0:0:
208,128,189860,1,8,0:0:0:0:
208,128,190186,1,0,0:0:0:0:
208,128,190512,1,0,0:0:0:0:
208,128,190838,1,8,0:0:0:0:
120,132,191001,5,4,0:0:0:0:
120,132,191164,1,4,0:0:0:0:
224,112,191327,1,8,0:0:0:0:
204,108,192306,1,12,0:0:0:0:
204,108,192632,1,12,0:0:0:0:
204,108,192958,1,12,0:0:0:0:
216,152,193121,1,0,0:0:0:0:
216,152,193284,1,8,0:0:0:0:
216,152,193447,1,8,0:0:0:0:
216,152,193528,1,8,0:0:0:0:
220,160,193610,1,8,0:0:0:0:
220,164,193773,1,0,0:0:0:0:
220,168,193936,1,8,0:0:0:0:
220,168,194099,1,8,0:0:0:0:
220,168,194262,1,0,0:0:0:0:
220,168,194344,1,0,0:0:0:0:
220,168,194425,1,0,0:0:0:0:
220,112,194588,1,12,0:0:0:0:
244,88,195730,1,8,0:0:0:0:
148,136,196056,1,4,0:0:0:0:
244,168,196382,1,8,0:0:0:0:
316,144,196545,1,8,0:0:0:0:
316,144,196708,1,0,0:0:0:0:
208,204,197034,1,8,0:0:0:0:
224,184,197197,1,0,0:0:0:0:
180,168,197360,1,0,0:0:0:0:
200,208,197686,1,8,0:0:0:0:
208,204,197849,1,0,0:0:0:0:
208,204,198012,1,0,0:0:0:0:
136,128,198094,1,0,0:0:0:0:
216,208,198175,1,0,0:0:0:0:
368,152,198338,1,8,0:0:0:0:
224,176,198501,1,0,0:0:0:0:
368,152,198664,1,8,0:0:0:0:
384,152,198990,1,8,0:0:0:0:
180,108,199317,1,8,0:0:0:0:
140,128,199480,1,8,0:0:0:0:
140,128,199643,1,0,0:0:0:0:
176,108,199806,1,8,0:0:0:0:
144,124,199887,1,8,0:0:0:0:
180,108,199969,1,8,0:0:0:0:
352,128,200132,1,0,0:0:0:0:
96,96,200295,1,8,0:0:0:0:
352,136,200458,1,0,0:0:0:0:
356,132,200539,1,0,0:0:0:0:
356,132,200621,1,0,0:0:0:0:
356,128,200784,1,8,0:0:0:0:
380,192,200947,1,0,0:0:0:0:
184,140,201273,1,8,0:0:0:0:
124,148,201599,1,8,0:0:0:0:
224,116,201762,1,8,0:0:0:0:
224,116,201925,1,0,0:0:0:0:
224,164,202088,1,0,0:0:0:0:
184,176,202251,1,8,0:0:0:0:
268,128,202577,1,8,0:0:0:0:
256,124,202740,1,0,0:0:0:0:
252,128,202903,1,8,0:0:0:0:
252,132,202985,1,8,0:0:0:0:
252,136,203067,1,8,0:0:0:0:
252,136,203230,1,0,0:0:0:0:
236,140,203393,5,0,0:0:0:0:
232,148,203556,1,8,0:0:0:0:
224,144,203882,1,8,0:0:0:0:
188,128,204045,1,0,0:0:0:0:
188,128,204208,1,8,0:0:0:0:
128,164,204371,1,8,0:0:0:0:
124,176,204534,1,0,0:0:0:0:
120,180,204860,1,8,0:0:0:0:
124,184,205023,1,0,0:0:0:0:
208,148,205186,5,8,0:0:0:0:
224,116,205349,1,0,0:0:0:0:
224,116,205431,1,0,0:0:0:0:
224,116,205512,1,0,0:0:0:0:
224,120,205675,1,8,0:0:0:0:
224,120,205838,1,0,0:0:0:0:
224,120,206001,1,8,0:0:0:0:
228,120,206164,1,8,0:0:0:0:
224,120,206246,1,8,0:0:0:0:
224,116,206327,1,8,0:0:0:0:
120,200,206490,1,4,0:0:0:0:
252,132,206817,1,8,0:0:0:0:
252,132,206980,1,8,0:0:0:0:
180,116,207143,1,0,0:0:0:0:
256,108,207469,5,8,0:0:0:0:
152,172,207632,1,0,0:0:0:0:
180,176,207795,1,0,0:0:0:0:
180,168,207876,1,0,0:0:0:0:
180,176,207958,1,0,0:0:0:0:
180,176,208121,1,8,0:0:0:0:
124,160,208284,1,0,0:0:0:0:
184,176,208447,1,8,0:0:0:0:
184,176,208610,1,8,0:0:0:0:
180,176,208773,1,0,0:0:0:0:
192,84,209099,1,4,0:0:0:0:
272,104,209425,1,8,0:0:0:0:
248,160,209588,1,0,0:0:0:0:
300,228,209751,1,0,0:0:0:0:
300,228,210077,5,8,0:0:0:0:
292,228,210240,1,0,0:0:0:0:
292,228,210403,1,8,0:0:0:0:
200,128,210485,1,8,0:0:0:0:
200,128,210567,1,8,0:0:0:0:
292,228,210730,1,8,0:0:0:0:
292,228,210893,1,0,0:0:0:0:
292,228,211056,1,8,0:0:0:0:
252,228,211219,1,0,0:0:0:0:
292,228,211382,1,0,0:0:0:0:
292,228,211708,1,0,0:0:0:0:
208,132,212034,1,8,0:0:0:0:
164,140,212197,1,0,0:0:0:0:
256,132,212360,1,8,0:0:0:0:
268,136,212686,5,8,0:0:0:0:
272,140,212849,1,0,0:0:0:0:
272,140,213012,1,8,0:0:0:0:
272,144,213094,1,8,0:0:0:0:
272,144,213175,1,8,0:0:0:0:
288,136,213338,1,0,0:0:0:0:
196,132,213501,5,0,0:0:0:0:
196,148,213664,1,8,0:0:0:0:
196,156,213827,1,0,0:0:0:0:
196,152,213990,1,8,0:0:0:0:
240,172,214317,1,8,0:0:0:0:
200,112,214643,1,8,0:0:0:0:
200,112,214806,1,0,0:0:0:0:
204,116,214969,1,0,0:0:0:0:
192,140,215050,1,0,0:0:0:0:
192,140,215132,1,0,0:0:0:0:
316,136,215295,5,8,0:0:0:0:
320,136,215458,1,0,0:0:0:0:
180,136,215621,5,0,0:0:0:0:
164,132,215784,1,8,0:0:0:0:
236,128,215947,1,8,0:0:0:0:
168,144,216028,1,8,0:0:0:0:
96,144,216110,1,8,0:0:0:0:
240,116,216273,1,0,0:0:0:0:
104,144,216436,1,0,0:0:0:0:
240,116,216599,1,8,0:0:0:0:
240,124,216925,1,4,0:0:0:0:
104,116,217251,1,8,0:0:0:0:
196,112,217414,1,0,0:0:0:0:
196,112,217577,1,0,0:0:0:0:
196,112,217903,1,8,0:0:0:0:
212,104,218067,1,0,0:0:0:0:
216,104,218230,1,8,0:0:0:0:
224,156,218311,1,8,0:0:0:0:
216,108,218393,1,8,0:0:0:0:
216,108,218556,1,8,0:0:0:0:
220,108,218719,1,0,0:0:0:0:
220,108,218882,1,8,0:0:0:0:
220,108,219045,1,0,0:0:0:0:
224,108,219208,1,0,0:0:0:0:
156,128,219534,1,8,0:0:0:0:
272,104,219860,1,8,0:0:0:0:
156,128,220023,1,8,0:0:0:0:
156,128,220186,1,0,0:0:0:0:
156,128,220268,1,0,0:0:0:0:
152,132,220349,5,0,0:0:0:0:
148,140,220512,1,8,0:0:0:0:
148,140,220675,1,0,0:0:0:0:
256,184,220838,1,8,0:0:0:0:
256,184,221164,1,8,0:0:0:0:
352,100,221327,1,0,0:0:0:0:
268,140,221490,1,8,0:0:0:0:
268,140,221653,1,8,0:0:0:0:
320,112,221817,1,0,0:0:0:0:
176,160,221898,1,0,0:0:0:0:
180,168,221980,1,0,0:0:0:0:
124,72,222143,5,4,0:0:0:0:
104,152,222795,1,8,0:0:0:0:
96,156,223121,1,0,0:0:0:0:
104,152,223284,1,8,0:0:0:0:
96,100,223447,1,0,0:0:0:0:
236,112,223610,1,8,0:0:0:0:
160,88,223773,1,0,0:0:0:0:
104,152,224099,1,8,0:0:0:0:
236,120,224262,1,0,0:0:0:0:
168,72,224425,1,8,0:0:0:0:
236,124,224507,1,8,0:0:0:0:
304,64,224588,1,8,0:0:0:0:
260,104,224751,5,0,0:0:0:0:
232,116,225240,1,8,0:0:0:0:
232,116,225567,1,0,0:0:0:0:
248,116,225730,1,8,0:0:0:0:
256,192,226056,12,0,229643,0:0:0:0:
328,104,229969,5,4,0:0:0:0:
160,108,230295,1,8,0:0:0:0:
244,92,230458,1,0,0:0:0:0:
244,92,230621,1,8,0:0:0:0:
228,160,230947,1,8,0:0:0:0:
260,124,231110,1,0,0:0:0:0:
276,64,231273,1,8,0:0:0:0:
276,64,231436,1,8,0:0:0:0:
108,88,231599,1,0,0:0:0:0:
108,88,231925,1,8,0:0:0:0:
280,68,232088,1,0,0:0:0:0:
120,128,232170,1,0,0:0:0:0:
108,88,232251,1,0,0:0:0:0:
312,200,232414,1,8,0:0:0:0:
108,88,232577,1,0,0:0:0:0:
108,88,232903,1,8,0:0:0:0:
256,136,233067,1,0,0:0:0:0:
108,88,233230,1,8,0:0:0:0:
108,88,233556,1,8,0:0:0:0:
216,104,233719,1,0,0:0:0:0:
108,88,233882,1,8,0:0:0:0:
240,64,234045,1,8,0:0:0:0:
108,88,234208,1,0,0:0:0:0:
180,72,234534,1,0,0:0:0:0:
112,164,234615,1,0,0:0:0:0:
204,136,234697,1,0,0:0:0:0:
108,88,234860,1,8,0:0:0:0:
312,112,235023,1,8,0:0:0:0:
144,100,235186,1,4,0:0:0:0:
160,108,235512,1,8,0:0:0:0:
244,92,235675,1,0,0:0:0:0:
244,92,235838,1,8,0:0:0:0:
228,160,236164,1,8,0:0:0:0:
260,124,236327,1,0,0:0:0:0:
276,64,236490,1,8,0:0:0:0:
276,64,236653,1,8,0:0:0:0:
108,88,236817,1,0,0:0:0:0:
108,88,237143,1,8,0:0:0:0:
280,68,237306,1,0,0:0:0:0:
120,128,237387,1,0,0:0:0:0:
108,88,237469,5,0,0:0:0:0:
312,200,237632,1,8,0:0:0:0:
108,88,237795,1,0,0:0:0:0:
272,136,238121,1,8,0:0:0:0:
236,148,238284,1,0,0:0:0:0:
236,148,238447,1,8,0:0:0:0:
236,148,238773,1,8,0:0:0:0:
160,168,238936,1,0,0:0:0:0:
236,148,239099,1,0,0:0:0:0:
240,64,239262,1,8,0:0:0:0:
108,136,239344,1,8,0:0:0:0:
272,136,239425,1,8,0:0:0:0:
209,120,239588,1,0,0:0:0:0:
236,184,239751,1,0,0:0:0:0:
299,155,239914,1,8,0:0:0:0:
311,165,240077,1,8,0:0:0:0:
305,167,240159,1,8,0:0:0:0:
196,156,240240,1,8,0:0:0:0:
328,108,240403,1,4,0:0:0:0:
160,108,240730,1,8,0:0:0:0:
244,92,240893,1,0,0:0:0:0:
244,92,241056,1,8,0:0:0:0:
228,160,241382,1,8,0:0:0:0:
260,124,241545,1,0,0:0:0:0:
276,64,241708,1,8,0:0:0:0:
276,64,241871,1,8,0:0:0:0:
108,88,242034,1,0,0:0:0:0:
108,88,242360,1,8,0:0:0:0:
280,68,242523,1,0,0:0:0:0:
120,128,242605,1,0,0:0:0:0:
108,88,242686,1,0,0:0:0:0:
312,200,242849,1,8,0:0:0:0:
108,88,243012,1,0,0:0:0:0:
108,88,243338,1,8,0:0:0:0:
256,136,243501,1,0,0:0:0:0:
108,88,243664,1,8,0:0:0:0:
108,88,243990,1,8,0:0:0:0:
216,104,244153,1,0,0:0:0:0:
108,88,244317,1,8,0:0:0:0:
240,64,244480,1,8,0:0:0:0:
108,88,244643,1,0,0:0:0:0:
180,72,244969,1,0,0:0:0:0:
112,164,245050,1,0,0:0:0:0:
204,136,245132,1,0,0:0:0:0:
108,88,245295,1,8,0:0:0:0:
312,112,245458,1,8,0:0:0:0:
144,100,245621,1,4,0:0:0:0:
160,108,245947,1,8,0:0:0:0:
244,92,246110,1,0,0:0:0:0:
244,92,246273,1,8,0:0:0:0:
228,160,246599,1,8,0:0:0:0:
260,124,246762,1,0,0:0:0:0:
276,64,246925,1,8,0:0:0:0:
276,64,247088,1,8,0:0:0:0:
108,88,247251,1,0,0:0:0:0:
108,88,247577,1,8,0:0:0:0:
280,68,247740,1,0,0:0:0:0:
120,128,247822,1,0,0:0:0:0:
108,88,247903,5,0,0:0:0:0:
312,200,248067,5,8,0:0:0:0:
108,88,248230,1,0,0:0:0:0:
108,88,248556,1,8,0:0:0:0:
256,136,248719,1,0,0:0:0:0:
108,88,248882,1,8,0:0:0:0:
224,68,249045,1,8,0:0:0:0:
224,68,249126,1,8,0:0:0:0:
108,88,249208,1,8,0:0:0:0:
216,104,249371,1,8,0:0:0:0:
130,177,249534,1,0,0:0:0:0:
160,156,249860,5,12,0:0:0:0:
160,156,250186,1,12,0:0:0:0:
160,156,250512,1,12,0:0:0:0:
296,136,250838,1,0,0:0:0:0:
284,148,251490,1,8,0:0:0:0:
276,144,251817,1,0,0:0:0:0:
160,104,251980,1,8,0:0:0:0:
276,148,252143,1,8,0:0:0:0:
276,148,252469,1,0,0:0:0:0:
300,128,252795,1,8,0:0:0:0:
300,128,252958,1,8,0:0:0:0:
300,128,253121,1,0,0:0:0:0:
296,136,253447,1,0,0:0:0:0:
284,148,254099,1,8,0:0:0:0:
276,144,254425,1,0,0:0:0:0:
168,88,254588,1,8,0:0:0:0:
276,148,254751,1,8,0:0:0:0:
200,120,255077,5,0,0:0:0:0:
232,120,255403,1,8,0:0:0:0:
148,128,255567,1,8,0:0:0:0:
232,136,255730,5,4,0:0:0:0:
232,136,255893,1,4,0:0:0:0:
256,192,256056,12,2,261925,0:0:0:0:
