osu file format v14

[General]
AudioFilename: weeb.mp3
AudioLeadIn: 0
PreviewTime: 64601
Countdown: 0
SampleSet: Soft
StackLeniency: 0.4
Mode: 0
LetterboxInBreaks: 0
WidescreenStoryboard: 1

[Editor]
Bookmarks: 18678,21287,26504,31722,52591,65635,81287,89113,99548
DistanceSpacing: 1.1
BeatDivisor: 4
GridSize: 32
TimelineZoom: 1.8

[Metadata]
Title:Yuki no Youni
TitleUnicode:雪のように
Artist:AKINO with bless4
ArtistUnicode:AKINO with bless4
Creator:Sotarks
Version:pkhg's Light Insane
Source:
Tags:akitoshi corinn electoz pkhg janpai [_Sc4v4ng3r_] Sc4v4ng3r appleeaterx Doormat Deppyforce davided kibbleru pentori kalibe hb24 fcl linada christmas
BeatmapID:1130447
BeatmapSetID:532165

[Difficulty]
HPDrainRate:6
CircleSize:4
OverallDifficulty:7
ApproachRate:8.7
SliderMultiplier:1.6
SliderTickRate:1

[Events]
//Background and Video events
0,0,"no.jpg",0,0
//Break Periods
//Storyboard Layer 0 (Background)
//Storyboard Layer 1 (Fail)
//Storyboard Layer 2 (Pass)
//Storyboard Layer 3 (Foreground)
//Storyboard Sound Samples

[TimingPoints]
444,326.086956521739,4,2,22,22,1,0
5335,-166.666666666667,4,2,22,22,0,0
6884,-166.666666666667,4,2,22,5,0,0
6965,-166.666666666667,4,2,22,32,0,0
7862,-166.666666666667,4,2,22,5,0,0
7943,-166.666666666667,4,2,22,22,0,0
8270,-125,4,2,22,32,0,0
9492,-125,4,2,22,5,0,0
9574,-125,4,2,22,32,0,0
10878,-142.857142857143,4,2,22,42,0,0
18704,-142.857142857143,4,2,22,52,0,0
21313,-100,4,2,22,62,0,0
30770,-100,4,2,22,72,0,0
31014,-100,4,2,22,5,0,0
31096,-100,4,2,22,62,0,0
31340,-100,4,2,22,5,0,0
31422,-100,4,2,22,52,0,0
31666,-100,4,2,22,5,0,0
31748,-111.111111111111,4,2,22,42,0,0
52617,-111.111111111111,4,2,22,52,0,0
64683,-111.111111111111,4,2,22,62,0,0
64927,-111.111111111111,4,2,22,5,0,0
65009,-111.111111111111,4,2,22,72,0,0
65253,-111.111111111111,4,2,22,5,0,0
65335,-111.111111111111,4,2,22,82,0,0
65579,-111.111111111111,4,2,22,5,0,0
65661,-100,4,2,22,62,0,0
72509,-100,4,2,22,72,0,0
72835,-100,4,2,22,82,0,0
73161,-100,4,2,22,72,0,0
73487,-100,4,2,22,62,0,0
75362,-100,4,2,22,5,0,0
75443,-100,4,2,22,62,0,0
75688,-100,4,2,22,5,0,0
75770,-100,4,2,22,62,0,0
76014,-100,4,2,22,5,0,0
76096,-100,4,2,22,62,0,0
81313,-111.111111111111,4,2,22,52,0,0
83922,-111.111111111111,4,2,22,42,0,0
84900,-111.111111111111,4,2,22,32,0,0
89058,-111.111111111111,4,2,22,5,0,0
89139,-100,4,2,22,62,0,0
99574,-100,4,2,22,42,0,0
101857,-100,4,2,22,72,0,0
102101,-100,4,2,22,72,0,0
108052,-100,4,2,22,22,0,0

[Colours]
Combo1 : 102,238,238
Combo2 : 211,10,10
Combo3 : 17,255,58
Combo4 : 80,83,216

[HitObjects]
108,328,5335,5,2,0:0:0:0:
108,328,5661,2,0,P|94:216|186:282,1,287.999991210938,2|0,0:0|0:0,0:0:0:0:
185,284,6965,2,0,B|241:268|241:268|305:300|305:300|365:284,1,191.999994140625,2|0,0:0|0:0,0:0:0:0:
365,283,7943,2,0,L|370:236,1,47.9999985351563,2|0,0:0|0:0,0:0:0:0:
338,163,8270,6,0,B|345:123|391:109|391:109|448:94|470:21|402:-19|355:14|355:14|318:-29|243:-6|246:69|298:97|298:97|340:123|324:160,1,512,2|2,0:0|0:0,0:0:0:0:
327,131,10063,5,0,1:0:0:0:
321,144,10145,1,0,1:0:0:0:
315,157,10226,1,8,0:0:0:0:
68,190,10878,6,0,P|73:282|152:233,1,223.999993164063,6|0,0:0|3:0,0:0:0:0:
152,233,12183,1,4,3:0:0:0:
53,302,12346,1,4,3:0:0:0:
53,302,12672,1,8,3:0:0:0:
53,302,12998,1,4,3:0:0:0:
152,233,13161,1,4,3:0:0:0:
299,318,13487,5,6,0:0:0:0:
299,318,13976,1,8,0:0:0:0:
263,170,14139,1,8,0:0:0:0:
263,170,14791,5,6,0:0:0:0:
299,318,14954,1,8,0:0:0:0:
299,318,15280,1,0,0:0:0:0:
299,318,15607,1,8,0:0:0:0:
346,194,15770,1,4,3:0:0:0:
346,194,15933,1,8,3:0:0:0:
204,265,16096,5,6,0:0:0:0:
204,265,17074,1,8,3:0:0:0:
388,184,17400,1,4,3:0:0:0:
388,184,17889,5,4,3:0:0:0:
388,184,18215,1,8,3:0:0:0:
256,304,18378,1,8,3:0:0:0:
176,112,18704,5,6,0:0:0:0:
336,272,19030,1,0,0:0:0:0:
256,80,19357,5,6,0:0:0:0:
256,304,19683,1,2,0:0:0:0:
336,112,20009,5,8,0:0:0:0:
176,272,20335,1,8,0:0:0:0:
368,192,20661,5,8,0:0:0:0:
144,192,20987,1,8,0:0:0:0:
336,272,21313,6,0,P|345:192|351:100,2,160,4|8|0,1:0|0:0|1:0,0:0:0:0:
249,358,22128,1,2,0:0:0:0:
167,272,22291,2,0,P|128:263|85:257,1,80,8|0,0:0|3:0,0:0:0:0:
0,147,22617,6,0,P|49:171|130:114,1,160,0|8,1:0|0:0,0:0:0:0:
170,8,23107,1,0,0:0:0:0:
275,69,23270,2,0,P|283:107|290:151,1,80,0|2,1:0|0:0,0:0:0:0:
194,236,23596,2,0,P|185:274|179:318,1,80,8|2,0:0|0:0,0:0:0:0:
351,308,23922,6,0,P|312:299|269:293,1,80,0|0,1:0|0:0,0:0:0:0:
115,250,24248,2,0,P|154:244|193:236,1,80,8|0,0:0|0:0,0:0:0:0:
263,143,24574,1,0,1:0:0:0:
194,236,24737,1,0,0:0:0:0:
334,200,24900,2,0,P|342:161|349:118,1,80,8|0,0:0|3:0,0:0:0:0:
426,0,25226,6,0,P|437:79|452:157,1,160,0|8,1:0|0:0,0:0:0:0:
512,257,25715,1,2,0:0:0:0:
390,233,25878,2,0,P|351:239|312:247,1,80,0|2,1:0|0:0,0:0:0:0:
208,310,26204,2,0,P|169:304|130:296,1,80,8|0,0:0|3:0,0:0:0:0:
311,247,26530,6,0,P|319:207|325:168,1,80,4|0,1:0|0:0,0:0:0:0:
219,105,26857,2,0,P|227:144|233:183,1,80,8|0,0:0|0:0,0:0:0:0:
153,244,27183,1,0,1:0:0:0:
89,164,27346,1,2,0:0:0:0:
233,183,27509,2,0,P|272:176|311:168,1,80,8|0,0:0|3:0,0:0:0:0:
410,53,27835,6,0,P|425:131|436:210,1,160,0|8,1:0|0:0,0:0:0:0:
382,318,28324,1,0,0:0:0:0:
280,255,28487,2,0,P|240:246|201:239,1,80,0|2,1:0|0:0,0:0:0:0:
102,186,28813,2,0,P|62:193|23:201,1,80,8|0,0:0|0:0,0:0:0:0:
206,243,29139,5,0,1:0:0:0:
206,243,29302,1,0,0:0:0:0:
160,108,29465,2,0,P|120:99|81:93,1,80,8|2,0:0|0:0,0:0:0:0:
239,44,29791,2,0,P|278:35|317:29,1,80,0|8,1:0|0:0,0:0:0:0:
330,32,30036,1,8,0:0:0:0:
342,35,30117,1,8,0:0:0:0:
432,115,30280,1,8,0:0:0:0:
436,127,30362,1,8,0:0:0:0:
439,139,30443,1,6,0:0:0:0:
286,84,30770,5,12,0:0:0:0:
264,226,31096,1,12,0:0:0:0:
407,246,31422,1,12,0:0:0:0:
429,104,31748,6,0,P|357:93|281:84,2,143.999995605469,0|0|0,1:0|1:0|1:0,0:0:0:0:
490,198,32563,1,2,0:0:0:0:
405,271,32726,2,0,P|410:306|418:341,1,71.9999978027344,8|0,0:0|0:0,0:0:0:0:
311,250,33052,6,0,P|239:239|163:230,1,143.999995605469,0|0,1:0|1:0,0:0:0:0:
69,276,33541,1,2,0:0:0:0:
13,179,33704,2,0,P|18:143|26:108,1,71.9999978027344,0|2,1:0|0:0,0:0:0:0:
112,32,34030,2,0,P|147:23|182:18,1,71.9999978027344,0|2,1:0|0:0,0:0:0:0:
261,89,34357,6,0,P|318:127|383:103,1,143.999995605469,0|12,1:0|0:0,0:0:0:0:
448,17,34846,1,0,0:0:0:0:
512,122,35009,2,0,P|507:157|501:193,1,71.9999978027344,0|2,1:0|0:0,0:0:0:0:
434,284,35335,1,0,1:0:0:0:
343,201,35498,6,0,P|307:194|271:190,1,71.9999978027344,2|0,0:0|1:0,0:0:0:0:
156,218,35824,1,0,0:0:0:0:
220,115,35987,2,0,P|256:108|292:104,1,71.9999978027344,0|0,1:0|0:0,0:0:0:0:
412,143,36313,5,0,1:0:0:0:
412,143,36639,1,8,0:0:0:0:
412,143,36965,6,0,P|422:214|431:285,2,143.999995605469,4|0|0,1:0|1:0|1:0,0:0:0:0:
356,46,37780,1,2,0:0:0:0:
255,102,37943,2,0,P|219:97|183:91,1,71.9999978027344,0|2,1:0|0:0,0:0:0:0:
76,162,38270,6,0,P|69:197|65:233,1,71.9999978027344,0|0,1:0|0:0,0:0:0:0:
197,284,38596,2,0,P|192:248|186:212,1,71.9999978027344,12|0,0:0|0:0,0:0:0:0:
255,102,38922,2,0,P|290:95|326:91,1,71.9999978027344,0|2,1:0|0:0,0:0:0:0:
428,182,39248,2,0,P|392:175|356:171,1,71.9999978027344,0|2,1:0|0:0,0:0:0:0:
253,251,39574,6,0,P|196:289|131:265,2,143.999995605469,0|0|0,1:0|1:0|1:0,0:0:0:0:
253,251,40552,2,0,P|288:244|324:240,1,71.9999978027344,8|0,0:0|0:0,0:0:0:0:
424,294,40878,1,0,1:0:0:0:
477,187,41041,2,0,P|473:151|465:115,1,71.9999978027344,8|0,0:0|0:0,0:0:0:0:
465,115,41530,1,8,3:0:0:0:
440,89,41611,1,8,3:0:0:0:
407,77,41693,1,8,3:0:0:0:
371,81,41774,1,8,3:0:0:0:
342,101,41856,1,12,0:0:0:0:
342,101,42183,6,0,P|270:111|199:120,1,143.999995605469,4|8,1:0|0:0,0:0:0:0:
115,49,42672,1,0,0:0:0:0:
38,134,42835,2,0,P|30:169|26:204,1,71.9999978027344,0|2,1:0|0:0,0:0:0:0:
87,301,43161,2,0,P|122:309|157:313,1,71.9999978027344,8|2,0:0|0:0,0:0:0:0:
241,244,43487,6,0,P|298:206|363:230,1,143.999995605469,0|8,1:0|0:0,0:0:0:0:
434,319,43976,1,0,0:0:0:0:
512,233,44139,2,0,P|507:197|499:162,1,71.9999978027344,0|2,1:0|0:0,0:0:0:0:
417,81,44465,2,0,P|421:45|429:10,1,71.9999978027344,8|2,0:0|0:0,0:0:0:0:
316,121,44791,6,0,P|280:116|245:108,1,71.9999978027344,0|0,1:0|0:0,0:0:0:0:
147,49,45117,2,0,P|111:54|76:62,1,71.9999978027344,8|0,0:0|0:0,0:0:0:0:
0,132,45443,1,0,1:0:0:0:
101,191,45607,1,2,0:0:0:0:
147,49,45770,2,0,P|154:84|158:119,1,71.9999978027344,8|2,0:0|0:0,0:0:0:0:
30,202,46096,6,0,P|65:194|101:191,1,71.9999978027344,0|0,1:0|0:0,0:0:0:0:
194,258,46422,2,0,P|229:265|264:269,1,71.9999978027344,8|0,0:0|0:0,0:0:0:0:
338,189,46748,2,0,P|392:147|458:166,1,143.999995605469,0|8,1:0|0:0,0:0:0:0:
391,288,47237,1,0,0:0:0:0:
266,239,47400,6,0,P|258:203|254:168,1,71.9999978027344,0|2,1:0|0:0,0:0:0:0:
269,46,47726,1,8,0:0:0:0:
169,105,47889,2,0,P|159:177|150:248,1,143.999995605469,2|0,0:0|1:0,0:0:0:0:
201,353,48378,1,8,0:0:0:0:
201,353,48704,6,0,P|272:343|343:334,1,143.999995605469,0|8,1:0|0:0,0:0:0:0:
450,365,49193,1,2,0:0:0:0:
506,257,49357,2,0,P|501:221|494:186,1,71.9999978027344,0|0,0:0|1:0,0:0:0:0:
410,83,49683,1,8,0:0:0:0:
357,184,49846,1,0,0:0:0:0:
277,60,50009,6,0,P|210:39|155:81,1,143.999995605469,4|8,1:0|0:0,0:0:0:0:
183,230,50498,2,0,P|233:182|224:114,1,143.999995605469,4|8,1:0|3:0,0:0:0:0:
80,63,50987,1,8,0:0:0:0:
80,63,51150,6,0,P|95:131|160:158,1,143.999995605469,2|0,0:0|0:0,0:0:0:0:
258,79,51639,2,0,P|293:72|328:68,1,71.9999978027344,2|2,0:0|0:0,0:0:0:0:
450,109,51965,1,8,0:0:0:0:
470,138,52047,1,8,0:0:0:0:
474,174,52128,1,8,0:0:0:0:
462,207,52210,1,8,0:0:0:0:
436,232,52291,2,0,L|389:237,3,35.9999989013672,8|8|8|8,0:0|0:0|0:0|0:0,0:0:0:0:
373,225,52617,6,0,P|337:217|301:213,1,71.9999978027344,4|0,1:0|0:0,0:0:0:0:
214,295,52943,2,0,P|178:302|142:306,1,71.9999978027344,8|8,0:0|0:0,0:0:0:0:
54,199,53270,2,0,P|89:203|125:210,1,71.9999978027344,2|2,0:0|0:0,0:0:0:0:
214,295,53596,1,8,0:0:0:0:
310,195,53759,6,0,P|300:123|291:52,1,143.999995605469,0|0,1:0|1:0,0:0:0:0:
136,91,54248,2,0,P|171:98|207:102,1,71.9999978027344,8|0,0:0|0:0,0:0:0:0:
291,52,54574,2,0,P|326:44|362:40,1,71.9999978027344,0|2,1:0|0:0,0:0:0:0:
464,108,54900,1,8,0:0:0:0:
375,185,55063,1,2,0:0:0:0:
291,52,55226,6,0,P|283:88|279:124,1,71.9999978027344,4|0,1:0|0:0,0:0:0:0:
204,219,55552,2,0,P|199:183|192:148,1,71.9999978027344,8|8,0:0|0:0,0:0:0:0:
99,73,55878,1,2,0:0:0:0:
99,73,56041,1,2,0:0:0:0:
51,188,56204,1,8,0:0:0:0:
192,148,56367,6,0,P|264:137|340:128,1,143.999995605469,0|0,1:0|1:0,0:0:0:0:
449,156,56857,1,8,0:0:0:0:
357,40,57020,1,0,1:0:0:0:
351,48,57101,1,0,1:0:0:0:
345,57,57183,2,0,P|337:92|333:127,1,71.9999978027344,8|0,0:0|1:0,0:0:0:0:
460,226,57509,2,0,P|455:190|448:155,1,71.9999978027344,8|0,0:0|1:0,0:0:0:0:
296,223,57835,6,0,P|288:258|284:293,1,71.9999978027344,12|0,0:0|0:0,0:0:0:0:
359,375,58161,1,8,0:0:0:0:
410,275,58324,1,8,0:0:0:0:
296,223,58487,2,0,P|260:215|225:211,1,71.9999978027344,2|2,0:0|0:0,0:0:0:0:
115,250,58813,1,8,0:0:0:0:
185,132,58976,6,0,P|257:121|333:112,1,143.999995605469,0|0,1:0|1:0,0:0:0:0:
428,38,59465,2,0,P|417:110|408:186,1,143.999995605469,8|0,0:0|1:0,0:0:0:0:
464,282,59954,1,2,0:0:0:0:
364,339,60117,2,0,P|328:334|293:327,1,71.9999978027344,8|0,0:0|0:0,0:0:0:0:
199,245,60443,6,0,P|163:249|128:256,1,71.9999978027344,8|2,0:0|0:0,0:0:0:0:
36,177,60770,2,0,P|40:141|47:106,1,71.9999978027344,8|2,0:0|0:0,0:0:0:0:
161,41,61096,2,0,P|168:76|172:111,1,71.9999978027344,8|2,0:0|0:0,0:0:0:0:
265,192,61422,2,0,P|300:199|335:203,1,71.9999978027344,8|2,0:0|0:0,0:0:0:0:
420,91,61748,6,0,P|384:95|349:102,1,71.9999978027344,8|2,0:0|0:0,0:0:0:0:
265,192,62074,2,0,P|257:227|253:262,1,71.9999978027344,8|2,0:0|0:0,0:0:0:0:
360,351,62400,2,0,P|356:316|349:281,1,71.9999978027344,8|2,0:0|0:0,0:0:0:0:
265,192,62726,1,8,3:0:0:0:
236,172,62808,1,8,3:0:0:0:
200,168,62889,1,8,3:0:0:0:
167,180,62971,1,8,3:0:0:0:
142,206,63052,6,0,P|138:275|191:318,1,143.999995605469,12|2,0:0|0:0,0:0:0:0:
208,164,63541,2,0,P|150:126|86:150,1,143.999995605469,12|2,0:0|0:0,0:0:0:0:
211,244,64030,2,0,P|272:212|283:145,1,143.999995605469,12|8,0:0|0:0,0:0:0:0:
142,206,64683,5,12,0:0:0:0:
211,244,65009,1,12,0:0:0:0:
208,164,65335,1,12,0:0:0:0:
142,206,65661,6,0,P|221:197|301:191,1,160,4|8,1:0|0:0,0:0:0:0:
415,266,66150,1,0,0:0:0:0:
473,143,66313,2,0,P|467:103|458:64,1,80,0|0,1:0|1:0,0:0:0:0:
323,0,66639,2,0,P|313:38|308:78,1,80,8|2,0:0|0:0,0:0:0:0:
395,177,66965,5,0,0:0:0:0:
395,177,67128,1,2,0:0:0:0:
305,278,67291,2,0,P|231:300|175:248,1,160,8|0,0:0|1:0,0:0:0:0:
213,118,67780,1,0,1:0:0:0:
101,188,67943,2,0,P|91:226|86:266,1,80,8|0,0:0|0:0,0:0:0:0:
213,351,68270,6,0,P|207:311|198:272,1,80,0|0,1:0|0:0,0:0:0:0:
101,188,68596,2,0,P|106:148|115:109,1,80,8|0,0:0|0:0,0:0:0:0:
203,24,68922,1,0,1:0:0:0:
264,134,69085,1,0,1:0:0:0:
115,109,69248,2,0,P|75:114|36:123,1,80,8|2,0:0|0:0,0:0:0:0:
203,24,69574,6,0,P|242:29|281:38,1,80,0|2,0:0|0:0,0:0:0:0:
381,136,69900,2,0,P|307:113|251:165,1,160,8|0,0:0|1:0,0:0:0:0:
277,291,70389,1,0,0:0:0:0:
394,214,70552,2,0,P|389:174|381:136,1,80,8|2,0:0|0:0,0:0:0:0:
257,41,70878,6,0,P|177:46|97:56,1,160,2|8,0:0|0:0,0:0:0:0:
1,143,71367,2,0,P|80:148|160:158,1,160,2|2,0:0|0:0,0:0:0:0:
248,239,71857,2,0,P|287:234|326:225,1,80,8|0,0:0|0:0,0:0:0:0:
402,150,72183,5,0,1:0:0:0:
272,109,72346,1,0,1:0:0:0:
248,239,72509,2,0,P|253:279|262:318,1,80,8|2,0:0|0:0,0:0:0:0:
359,384,72835,2,0,P|367:345|372:305,1,80,8|2,0:0|0:0,0:0:0:0:
248,239,73161,2,0,P|239:200|234:160,1,80,8|2,0:0|0:0,0:0:0:0:
434,131,73487,6,0,P|387:192|312:183,1,160,4|8,1:0|0:0,0:0:0:0:
237,70,73976,1,0,0:0:0:0:
149,163,74139,2,0,P|140:201|135:241,1,80,0|0,1:0|1:0,0:0:0:0:
194,349,74465,1,8,0:0:0:0:
58,271,74628,2,0,P|137:261|217:255,1,160,2|2,0:0|0:0,0:0:0:0:
360,340,75117,6,0,P|320:335|281:326,1,80,12|0,0:0|0:0,0:0:0:0:
309,181,75443,2,0,P|324:217|336:256,1,80,12|0,0:0|0:0,0:0:0:0:
193,300,75770,2,0,P|217:268|244:238,1,80,12|0,0:0|0:0,0:0:0:0:
411,278,76096,6,0,P|358:333|284:315,1,160,4|8,1:0|0:0,0:0:0:0:
226,199,76585,1,0,0:0:0:0:
122,257,76748,2,0,P|113:296|108:336,1,80,0|0,1:0|1:0,0:0:0:0:
226,199,77074,2,0,P|221:159|212:120,1,80,8|2,0:0|0:0,0:0:0:0:
126,33,77400,5,0,0:0:0:0:
126,33,77563,1,2,0:0:0:0:
54,154,77726,2,0,P|93:163|133:168,1,80,8|0,0:0|0:0,0:0:0:0:
237,84,78052,2,0,P|276:75|316:70,1,80,0|0,1:0|1:0,0:0:0:0:
436,167,78378,2,0,P|397:158|357:153,1,80,8|2,0:0|0:0,0:0:0:0:
369,321,78704,6,0,P|378:282|383:242,1,80,0|2,1:0|0:0,0:0:0:0:
267,130,79030,2,0,P|271:169|280:208,1,80,8|0,0:0|0:0,0:0:0:0:
369,321,79357,1,0,1:0:0:0:
462,229,79520,1,0,1:0:0:0:
357,153,79683,1,8,0:0:0:0:
270,298,79846,6,0,P|190:292|110:281,1,160,2|2,0:0|0:0,0:0:0:0:
0,167,80335,2,0,P|79:155|158:150,1,160,8|0,0:0|1:0,0:0:0:0:
266,222,80824,1,0,1:0:0:0:
335,109,80987,2,0,P|331:70|322:31,1,80,8|2,0:0|0:0,0:0:0:0:
266,222,81313,6,0,P|256:260|252:300,1,71.9999978027344,6|0,0:0|0:0,0:0:0:0:
328,384,81639,1,0,0:0:0:0:
392,286,81802,2,0,P|426:276|462:272,1,71.9999978027344,2|8,0:0|0:0,0:0:0:0:
328,384,82128,1,0,0:0:0:0:
259,263,82291,2,0,P|224:253|188:249,1,71.9999978027344,2|8,0:0|0:0,0:0:0:0:
53,190,82617,6,0,P|88:185|123:176,1,71.9999978027344,2|8,0:0|0:0,0:0:0:0:
199,88,82943,1,2,0:0:0:0:
199,88,83270,1,8,0:0:0:0:
123,176,83433,1,0,0:0:0:0:
80,29,83596,1,2,0:0:0:0:
80,29,83759,1,8,0:0:0:0:
199,88,83922,1,2,0:0:0:0:
256,192,84003,12,0,88813,0:0:0:0:
340,212,89139,6,0,P|336:173|327:134,1,80,4|0,1:0|0:0,0:0:0:0:
200,64,89465,2,0,P|190:102|186:142,1,80,8|0,0:0|0:0,0:0:0:0:
257,245,89791,1,0,1:0:0:0:
326,133,89954,2,0,P|364:123|404:119,1,80,2|8,0:0|0:0,0:0:0:0:
257,245,90280,1,0,3:0:0:0:
203,105,90443,6,0,P|123:95|43:89,1,160,0|8,1:0|0:0,0:0:0:0:
143,186,90933,1,0,0:0:0:0:
289,127,91096,2,0,P|284:87|275:48,1,80,0|2,1:0|0:0,0:0:0:0:
403,0,91422,2,0,P|394:38|389:78,1,80,8|2,0:0|0:0,0:0:0:0:
475,174,91748,5,0,1:0:0:0:
475,174,91911,1,0,0:0:0:0:
401,282,92074,2,0,P|362:290|322:295,1,80,8|0,0:0|0:0,0:0:0:0:
223,205,92400,2,0,P|184:196|145:192,1,80,0|0,1:0|0:0,0:0:0:0:
41,253,92726,1,8,0:0:0:0:
138,321,92889,1,0,3:0:0:0:
223,205,93052,6,0,P|218:165|209:126,1,80,0|0,1:0|0:0,0:0:0:0:
322,38,93378,2,0,P|313:76|308:116,1,80,8|2,0:0|0:0,0:0:0:0:
371,205,93704,1,0,1:0:0:0:
462,145,93867,1,2,0:0:0:0:
308,116,94030,2,0,P|268:120|229:129,1,80,8|0,0:0|3:0,0:0:0:0:
100,198,94357,6,0,P|140:202|179:211,1,80,4|0,1:0|0:0,0:0:0:0:
308,116,94683,2,0,P|292:194|280:273,1,160,8|0,0:0|1:0,0:0:0:0:
348,368,95172,1,2,0:0:0:0:
429,280,95335,2,0,P|424:240|414:201,1,80,8|0,0:0|3:0,0:0:0:0:
308,116,95661,6,0,P|312:76|322:37,1,80,0|0,1:0|0:0,0:0:0:0:
451,167,95987,2,0,P|412:176|372:181,1,80,8|0,0:0|0:0,0:0:0:0:
234,163,96313,1,0,1:0:0:0:
300,262,96476,1,2,0:0:0:0:
159,219,96639,2,0,P|149:180|145:140,1,80,8|0,0:0|0:0,0:0:0:0:
261,40,96965,6,0,P|256:79|247:118,1,80,8|0,0:0|0:0,0:0:0:0:
159,219,97291,2,0,P|163:258|172:297,1,80,12|0,0:0|0:0,0:0:0:0:
271,378,97617,1,12,0:0:0:0:
310,266,97780,1,8,0:0:0:0:
331,238,97862,1,8,0:0:0:0:
365,223,97943,1,8,0:0:0:0:
399,223,98025,1,0,0:0:0:0:
431,241,98107,2,0,L|449:288,2,40,0|8|0,0:0|0:0|1:0,0:0:0:0:
416,64,98596,5,12,0:0:0:0:
256,192,98922,1,12,0:0:0:0:
96,320,99248,1,12,0:0:0:0:
256,288,101857,5,4,1:0:0:0:
256,96,102020,1,4,1:0:0:0:
256,192,102101,12,0,108052,0:0:0:0:
