osu file format v14

[General]
AudioFilename: weeb.mp3
AudioLeadIn: 0
PreviewTime: 64601
Countdown: 0
SampleSet: Soft
StackLeniency: 0.7
Mode: 0
LetterboxInBreaks: 0
WidescreenStoryboard: 1

[Editor]
DistanceSpacing: 1.4
BeatDivisor: 4
GridSize: 4
TimelineZoom: 1

[Metadata]
Title:Yuki no Youni
TitleUnicode:雪のように
Artist:AKINO with bless4
ArtistUnicode:AKINO with bless4
Creator:Sotarks
Version:Sc4's Insane
Source:
Tags:akitoshi corinn electoz pkhg janpai [_Sc4v4ng3r_] Sc4v4ng3r appleeaterx Doormat Deppyforce davided kibbleru pentori kalibe hb24 fcl linada christmas
BeatmapID:1127622
BeatmapSetID:532165

[Difficulty]
HPDrainRate:6
CircleSize:4
OverallDifficulty:7
ApproachRate:9
SliderMultiplier:1.62
SliderTickRate:1

[Events]
//Background and Video events
0,0,"test2.jpg",0,0
//Break Periods
//Storyboard Layer 0 (Background)
//Storyboard Layer 1 (Fail)
//Storyboard Layer 2 (Pass)
//Storyboard Layer 3 (Foreground)
//Storyboard Sound Samples

[TimingPoints]
444,326.086956521739,4,2,22,22,1,0
5661,-192.307692307692,4,2,22,22,0,0
6965,-192.307692307692,4,2,22,32,0,0
7943,-192.307692307692,4,2,22,22,0,0
8270,-192.307692307692,4,2,22,32,0,0
9574,-138.888888888889,4,2,22,32,0,0
10878,-138.888888888889,4,2,22,42,0,0
18704,-121.951219512195,4,2,22,52,0,0
21313,-98.0392156862745,4,2,22,62,0,0
30770,-98.0392156862745,4,2,22,72,0,0
31096,-98.0392156862745,4,2,22,62,0,0
31422,-98.0392156862745,4,2,22,52,0,0
31748,-108.695652173913,4,2,22,42,0,0
42183,-98.0392156862745,4,2,22,42,0,0
52617,-98.0392156862745,4,2,22,52,0,0
64683,-98.0392156862745,4,2,22,62,0,0
65009,-98.0392156862745,4,2,22,72,0,0
65335,-98.0392156862745,4,2,22,82,0,0
65661,-98.0392156862745,4,2,22,62,0,1
72509,-98.0392156862745,4,2,22,72,0,1
72835,-98.0392156862745,4,2,22,82,0,1
73161,-98.0392156862745,4,2,22,72,0,1
73487,-98.0392156862745,4,2,22,62,0,1
75443,-98.0392156862745,4,2,22,62,0,1
75770,-98.0392156862745,4,2,22,62,0,1
76096,-98.0392156862745,4,2,22,62,0,1
81313,-98.0392156862745,4,2,22,52,0,1
83922,-138.888888888889,4,2,22,42,0,1
84900,-138.888888888889,4,2,22,32,0,1
89139,-98.0392156862745,4,2,22,62,0,0
99574,-108.695652173913,4,2,22,42,0,0
101857,-98.0392156862745,4,2,22,72,0,0
108052,-98.0392156862745,4,2,22,22,0,0

[Colours]
Combo1 : 120,92,252
Combo2 : 40,234,255
Combo3 : 252,95,95

[HitObjects]
112,112,5661,6,0,B|176:56|252:104|328:152|396:96,1,294.839998200439,2|0,0:0|0:0,0:0:0:0:
464,56,6965,6,0,B|486:104|464:140|464:140|472:176|472:176|441:208|468:256,1,210.5999987146,2|0,0:0|0:0,0:0:0:0:
392,304,7943,2,0,P|380:276|372:248,1,42.1199997429199,2|0,0:0|0:0,0:0:0:0:
344,192,8270,6,0,P|335:161|167:223,1,294.839998200439,2|0,0:0|0:0,0:0:0:0:
255,201,9574,6,0,L|224:28,1,174.960004271484,2|0,0:0|1:0,0:0:0:0:
224,28,10145,1,0,1:0:0:0:
224,28,10226,1,8,0:0:0:0:
216,320,10878,6,0,P|276:328|360:248,1,174.960004271484,6|2,0:0|0:0,0:0:0:0:
357,257,11530,1,0,3:0:0:0:
456,4,12183,5,4,3:0:0:0:
504,160,12346,1,4,3:0:0:0:
504,160,12672,1,8,3:0:0:0:
464,232,12835,2,0,L|472:312,1,58.3200014238282,0|4,0:0|3:0,0:0:0:0:
476,372,13161,2,0,B|436:368|436:368|376:380,1,87.4800021357422,4|0,3:0|0:0,0:0:0:0:
356,376,13487,6,0,P|316:376|248:272,1,174.960004271484,6|8,0:0|0:0,0:0:0:0:
288,128,14139,1,8,0:0:0:0:
24,24,14791,5,6,0:0:0:0:
88,128,14954,2,0,B|112:168|112:168|84:256,1,116.640002847656,8|0,0:0|0:0,0:0:0:0:
90,234,15362,1,0,1:0:0:0:
90,234,15443,1,0,1:0:0:0:
288,216,15607,1,8,0:0:0:0:
144,320,15770,1,4,3:0:0:0:
268,304,15933,1,8,3:0:0:0:
52,320,16096,6,0,B|12:272|12:272|4:152,1,174.960004271484,6|0,0:0|0:0,0:0:0:0:
4,159,16748,1,0,3:0:0:0:
4,159,17074,1,8,3:0:0:0:
200,92,17400,6,0,B|244:56|284:88|324:116|392:72,1,174.960004271484,4|4,0:0|3:0,0:0:0:0:
448,52,18052,2,0,P|452:96|444:124,1,58.3200014238282,0|8,0:0|3:0,0:0:0:0:
408,176,18378,2,0,L|416:268,1,87.4800021357422,8|0,3:0|0:0,0:0:0:0:
420,304,18704,6,0,P|376:296|300:360,1,132.840002026978,6|0,0:0|0:0,0:0:0:0:
84,228,19357,2,0,P|128:220|204:284,1,132.840002026978,6|2,0:0|0:0,0:0:0:0:
432,176,20009,6,0,P|392:172|352:184,1,66.4200010134888,12|2,0:0|0:0,0:0:0:0:
276,292,20335,2,0,L|288:340,2,33.2100005067444,8|0|2,0:0|0:0|0:0,0:0:0:0:
240,112,20661,1,8,0:0:0:0:
132,16,20824,1,8,0:0:0:0:
124,48,20905,1,8,0:0:0:0:
116,80,20987,1,8,0:0:0:0:
20,160,21150,1,8,0:0:0:0:
28,192,21231,1,8,0:0:0:0:
36,224,21313,6,0,B|66:335|66:335|116:364,1,165.240001008545,4|8,1:0|0:0,0:0:0:0:
224,352,21802,1,0,0:0:0:0:
140,176,21965,1,0,1:0:0:0:
140,176,22128,1,2,0:0:0:0:
260,268,22291,1,8,0:0:0:0:
316,128,22454,1,0,3:0:0:0:
504,100,22617,6,0,B|392:88|392:88|352:48,1,165.240001008545,0|8,1:0|0:0,0:0:0:0:
244,84,23107,1,0,0:0:0:0:
216,264,23270,2,0,L|128:272,1,82.6200005042725,0|2,1:0|0:0,0:0:0:0:
57,168,23596,2,0,L|145:176,1,82.6200005042725,8|2,0:0|0:0,0:0:0:0:
312,260,23922,6,0,P|280:336|196:356,1,165.240001008545,0|8,1:0|0:0,0:0:0:0:
116,284,24411,1,0,0:0:0:0:
260,156,24574,1,0,1:0:0:0:
260,156,24737,1,0,0:0:0:0:
216,264,24900,1,8,0:0:0:0:
176,100,25063,1,0,3:0:0:0:
328,88,25226,6,0,B|436:96|436:96|465:144,1,165.240001008545,0|8,1:0|0:0,0:0:0:0:
512,264,25715,1,2,0:0:0:0:
295,207,25878,1,0,1:0:0:0:
438,351,26041,1,2,0:0:0:0:
466,147,26204,1,8,0:0:0:0:
330,323,26367,1,0,0:0:0:0:
256,116,26530,6,0,P|232:80|100:100,1,165.240001008545,4|8,1:0|0:0,0:0:0:0:
12,148,27020,1,0,0:0:0:0:
112,316,27183,1,0,1:0:0:0:
112,316,27346,1,2,0:0:0:0:
100,152,27509,1,8,0:0:0:0:
200,288,27672,1,0,3:0:0:0:
360,192,27835,6,0,B|400:160|400:160|416:40,1,165.240001008545,0|8,1:0|0:0,0:0:0:0:
304,16,28324,1,0,0:0:0:0:
164,128,28487,2,0,L|180:212,1,82.6200005042725,0|2,1:0|0:0,0:0:0:0:
260,316,28813,2,0,L|275:234,1,82.6200005042725,8|0,0:0|0:0,0:0:0:0:
308,76,29139,6,0,P|340:36|448:88,1,165.240001008545,0|8,1:0|0:0,0:0:0:0:
484,168,29628,1,2,0:0:0:0:
404,324,29791,1,0,1:0:0:0:
376,144,29954,1,8,0:0:0:0:
376,144,30036,1,8,0:0:0:0:
376,144,30117,1,8,0:0:0:0:
378,348,30280,1,8,0:0:0:0:
378,348,30362,1,8,0:0:0:0:
378,348,30443,1,0,0:0:0:0:
152,328,30770,6,0,L|68:316,1,82.6200005042725,12|0,0:0|0:0,0:0:0:0:
344,256,31096,2,0,L|432:244,1,82.6200005042725,12|0,0:0|0:0,0:0:0:0:
164,208,31422,2,0,L|76:196,1,82.6200005042725,12|0,0:0|0:0,0:0:0:0:
336,132,31748,6,0,L|500:112,2,149.039994996826,4|0|0,0:0|1:0|1:0,0:0:0:0:
236,100,32563,1,2,0:0:0:0:
144,232,32726,1,8,0:0:0:0:
204,364,32889,6,0,L|368:352|368:352,1,149.039994996826
448,308,33378,2,0,P|488:248|444:176,1,149.039994996826
336,140,33867,1,2,0:0:0:0:
216,180,34030,2,0,P|172:160|152:120,1,74.5199974984132,0|2,1:0|0:0,0:0:0:0:
24,44,34357,6,0,L|16:148,1,74.5199974984132,0|0,1:0|0:0,0:0:0:0:
48,264,34683,2,0,P|71:292|104:312,1,74.5199974984132,8|0,0:0|0:0,0:0:0:0:
224,324,35009,1,0,1:0:0:0:
132,224,35172,1,2,0:0:0:0:
264,196,35335,1,0,1:0:0:0:
328,368,35498,6,0,P|368:372|416:336,1,74.5199974984132,2|0,0:0|1:0,0:0:0:0:
492,284,35824,1,0,0:0:0:0:
436,176,35987,2,0,L|452:84,1,74.5199974984132,0|0,1:0|0:0,0:0:0:0:
300,32,36313,2,0,L|212:40,1,74.5199974984132,0|2,1:0|0:0,0:0:0:0:
72,100,36639,2,0,L|160:108,1,74.5199974984132,8|2,0:0|0:0,0:0:0:0:
328,148,36965,6,0,P|380:172|380:260,2,149.039994996826,4|0|0,0:0|1:0|1:0,0:0:0:0:
216,192,37780,1,2,0:0:0:0:
140,64,37943,1,0,1:0:0:0:
120,216,38107,6,0,L|108:312,1,74.5199974984132,2|0,0:0|1:0,0:0:0:0:
200,344,38433,1,0,0:0:0:0:
216,192,38596,2,0,P|192:152|152:128,1,74.5199974984132,8|0,0:0|0:0,0:0:0:0:
68,124,38922,1,0,1:0:0:0:
132,244,39085,1,2,0:0:0:0:
132,244,39248,1,0,1:0:0:0:
32,312,39411,1,2,0:0:0:0:
200,344,39574,6,0,L|372:336,1,149.039994996826,0|0,1:0|1:0,0:0:0:0:
448,312,40063,1,0,0:0:0:0:
320,236,40226,2,0,P|280:224|240:192,1,74.5199974984132,0|2,1:0|0:0,0:0:0:0:
144,104,40552,2,0,L|232:88,1,74.5199974984132,8|0,0:0|0:0,0:0:0:0:
388,136,40878,5,0,1:0:0:0:
292,16,41041,2,0,L|384:28,1,74.5199974984132,8|0,0:0|0:0,0:0:0:0:
424,140,41367,1,0,0:0:0:0:
300,264,41530,1,8,3:0:0:0:
263,259,41611,1,8,3:0:0:0:
226,254,41693,1,8,3:0:0:0:
189,249,41774,1,8,3:0:0:0:
152,245,41857,2,0,L|56:232,1,74.5199974984132,12|0,0:0|0:0,0:0:0:0:
308,168,42183,6,0,L|492:156,1,165.240001008545,4|8,0:0|0:0,0:0:0:0:
408,64,42672,1,0,0:0:0:0:
276,168,42835,1,0,1:0:0:0:
276,168,42998,1,2,0:0:0:0:
404,248,43161,2,0,L|492:244,1,82.6200005042725,8|2,0:0|0:0,0:0:0:0:
288,348,43487,6,0,L|192:344,1,82.6200005042725,0|0,1:0|0:0,0:0:0:0:
100,248,43813,1,8,0:0:0:0:
244,244,43976,1,0,0:0:0:0:
152,176,44139,2,0,P|144:132|160:80,1,82.6200005042725,0|2,1:0|0:0,0:0:0:0:
300,68,44465,2,0,P|308:112|292:164,1,82.6200005042725,8|2,0:0|0:0,0:0:0:0:
100,248,44791,6,0,P|72:188|72:84,1,165.240001008545,0|8,1:0|0:0,0:0:0:0:
160,16,45280,1,0,0:0:0:0:
180,168,45443,1,0,1:0:0:0:
180,168,45607,1,2,0:0:0:0:
76,268,45770,1,8,0:0:0:0:
88,120,45933,1,2,0:0:0:0:
260,80,46096,6,0,L|352:84,1,82.6200005042725,0|0,1:0|0:0,0:0:0:0:
436,192,46422,1,8,0:0:0:0:
292,168,46585,1,0,0:0:0:0:
448,284,46748,2,0,L|460:368,1,82.6200005042725,0|0,1:0|0:0,0:0:0:0:
280,264,47074,2,0,L|268:348,1,82.6200005042725,8|0,0:0|0:0,0:0:0:0:
104,240,47400,6,0,B|120:120|120:120|80:72,1,165.240001008545,4|8,0:0|0:0,0:0:0:0:
28,184,47889,1,2,0:0:0:0:
192,208,48052,1,0,0:0:0:0:
204,80,48215,1,0,1:0:0:0:
188,240,48378,2,0,L|180:324,1,82.6200005042725,8|0,0:0|0:0,0:0:0:0:
408,272,48704,6,0,B|448:232|448:232|460:116,2,165.240001008545,4|8|0,0:0|0:0|0:0,0:0:0:0:
268,300,49520,1,0,1:0:0:0:
360,180,49683,2,0,L|368:96,1,82.6200005042725,8|0,0:0|0:0,0:0:0:0:
168,32,50009,6,0,P|104:56|152:132,1,165.240001008545,4|8,0:0|0:0,0:0:0:0:
272,204,50498,1,4,1:0:0:0:
184,328,50661,1,0,0:0:0:0:
356,264,50824,1,8,3:0:0:0:
300,108,50987,1,8,0:0:0:0:
300,108,51150,1,2,0:0:0:0:
464,200,51313,6,0,P|488:260|456:356,1,165.240001008545,4|2,1:0|0:0,0:0:0:0:
316,352,51802,1,2,0:0:0:0:
172,228,51965,1,8,0:0:0:0:
213,224,52046,1,8,0:0:0:0:
254,221,52128,1,8,0:0:0:0:
295,218,52209,1,8,0:0:0:0:
336,215,52291,2,0,L|388:208,1,41.3100002521362,8|8,0:0|0:0,0:0:0:0:
484,152,52454,2,0,L|432:144,1,41.3100002521362,8|8,0:0|0:0,0:0:0:0:
324,112,52617,5,4,1:0:0:0:
100,264,52943,1,8,0:0:0:0:
272,292,53107,1,8,0:0:0:0:
140,340,53270,2,0,L|44:344,1,82.6200005042725,2|2,0:0|0:0,0:0:0:0:
0,208,53596,1,8,0:0:0:0:
160,120,53759,6,0,L|332:112,1,165.240001008545
508,104,54248,1,8,0:0:0:0:
496,260,54411,2,0,L|508:348,1,82.6200005042725
360,212,54737,1,0,0:0:0:0:
332,360,54900,1,8,0:0:0:0:
216,256,55063,1,2,0:0:0:0:
356,384,55226,5,0,1:0:0:0:
376,128,55552,1,8,0:0:0:0:
476,240,55715,1,8,0:0:0:0:
476,124,55878,1,2,0:0:0:0:
476,124,56041,1,2,0:0:0:0:
348,44,56204,1,8,0:0:0:0:
292,224,56367,6,0,B|284:344|284:344|240:376,1,165.240001008545
96,240,56857,1,8,0:0:0:0:
240,152,57020,1,0,1:0:0:0:
240,152,57101,1,0,1:0:0:0:
240,152,57183,1,8,0:0:0:0:
368,316,57346,2,0,L|372:372,2,41.3100002521362,0|0|8,1:0|1:0|0:0,0:0:0:0:
352,104,57672,1,0,1:0:0:0:
352,104,57753,1,0,1:0:0:0:
352,104,57835,5,12,0:0:0:0:
96,240,58161,1,8,0:0:0:0:
216,324,58324,1,8,0:0:0:0:
360,280,58487,2,0,L|376:196,1,82.6200005042725,2|2,0:0|0:0,0:0:0:0:
216,240,58813,1,8,0:0:0:0:
64,144,58976,6,0,P|36:100|132:84,1,165.240001008545
232,104,59465,2,0,P|276:112|316:104,1,82.6200005042725,8|0,0:0|0:0,0:0:0:0:
432,64,59791,2,0,L|448:168,1,82.6200005042725,0|2,1:0|0:0,0:0:0:0:
488,280,60117,2,0,L|472:368,1,82.6200005042725,8|0,0:0|0:0,0:0:0:0:
248,360,60443,5,8,0:0:0:0:
204,184,60607,1,2,0:0:0:0:
156,336,60770,1,8,0:0:0:0:
320,296,60933,1,2,0:0:0:0:
280,132,61096,2,0,L|252:48,1,82.6200005042725,8|2,0:0|0:0,0:0:0:0:
448,152,61422,2,0,L|424:248,1,82.6200005042725,8|2,0:0|0:0,0:0:0:0:
248,360,61748,6,0,L|220:268,1,82.6200005042725,8|2,0:0|0:0,0:0:0:0:
180,136,62074,1,8,0:0:0:0:
344,208,62237,1,2,0:0:0:0:
228,56,62400,2,0,L|136:52,1,82.6200005042725,8|2,0:0|0:0,0:0:0:0:
56,213,62726,1,8,3:0:0:0:
97,215,62807,1,8,3:0:0:0:
138,217,62889,1,8,3:0:0:0:
179,219,62970,1,8,3:0:0:0:
221,221,63052,6,0,L|228:51,1,165.240001008545,12|2,0:0|0:0,0:0:0:0:
348,264,63541,2,0,L|341:94,1,165.240001008545,12|2,0:0|0:0,0:0:0:0:
504,12,64030,2,0,L|500:100,1,82.6200005042725,12|0,0:0|0:0,0:0:0:0:
492,212,64357,1,2,0:0:0:0:
492,212,64683,6,0,L|409:214,1,82.6200005042725,12|0,0:0|0:0,0:0:0:0:
232,32,65009,2,0,L|314:28,1,82.6200005042725,12|0,0:0|0:0,0:0:0:0:
409,213,65335,2,0,L|316:216,1,82.6200005042725,12|0,0:0|0:0,0:0:0:0:
88,296,65661,6,0,P|44:256|108:188,1,165.240001008545,4|8,0:0|0:0,0:0:0:0:
224,268,66150,1,0,0:0:0:0:
424,192,66313,1,0,1:0:0:0:
404,308,66476,1,0,1:0:0:0:
276,172,66639,2,0,L|296:76,1,82.6200005042725,8|2,0:0|0:0,0:0:0:0:
116,204,66965,5,0,0:0:0:0:
116,204,67128,1,2,0:0:0:0:
128,336,67291,2,0,L|40:348,1,82.6200005042725,8|0,0:0|0:0,0:0:0:0:
264,344,67617,2,0,L|364:360,1,82.6200005042725,0|0,1:0|1:0,0:0:0:0:
488,292,67943,2,0,P|480:240|448:200,1,82.6200005042725,8|0,0:0|0:0,0:0:0:0:
336,48,68270,6,0,L|320:216,1,165.240001008545,0|8,1:0|0:0,0:0:0:0:
176,256,68759,1,0,0:0:0:0:
216,104,68922,1,0,1:0:0:0:
320,212,69085,1,0,1:0:0:0:
336,48,69248,2,0,P|300:24|252:8,1,82.6200005042725,8|2,0:0|0:0,0:0:0:0:
108,136,69574,6,0,P|72:160|24:176,1,82.6200005042725,0|2,0:0|0:0,0:0:0:0:
176,256,69900,1,8,0:0:0:0:
296,192,70063,1,0,0:0:0:0:
128,108,70226,1,0,1:0:0:0:
264,84,70389,1,0,0:0:0:0:
396,160,70552,2,0,L|408:248,1,82.6200005042725,8|2,0:0|0:0,0:0:0:0:
228,328,70878,6,0,P|152:340|92:264,1,165.240001008545,2|8,0:0|0:0,0:0:0:0:
96,120,71367,2,0,L|108:16,1,82.6200005042725,2|0,0:0|0:0,0:0:0:0:
264,84,71693,1,2,0:0:0:0:
176,256,71857,2,0,L|188:164,1,82.6200005042725,8|0,0:0|0:0,0:0:0:0:
368,80,72183,6,0,B|416:108|416:108|428:236,1,165.240001008545,0|8,1:0|0:0,0:0:0:0:
332,284,72672,1,2,0:0:0:0:
100,216,72835,2,0,P|96:292|184:348,1,165.240001008545,8|8,0:0|0:0,0:0:0:0:
312,308,73324,1,2,0:0:0:0:
456,112,73487,6,0,L|276:52,1,165.240001008545,4|8,1:0|0:0,0:0:0:0:
124,132,73976,1,0,0:0:0:0:
316,156,74139,1,0,1:0:0:0:
316,156,74302,1,0,1:0:0:0:
148,248,74465,1,8,0:0:0:0:
224,76,74628,1,2,0:0:0:0:
32,144,74791,5,0,0:0:0:0:
168,276,74954,1,2,0:0:0:0:
344,168,75117,2,0,L|360:68,1,82.6200005042725,12|0,0:0|0:0,0:0:0:0:
124,132,75443,2,0,L|141:51,1,82.6200005042725,12|0,0:0|0:0,0:0:0:0:
304,252,75770,2,0,L|316:348,1,82.6200005042725,12|0,0:0|0:0,0:0:0:0:
68,204,76096,6,0,B|84:324|84:324|128:376,1,165.240001008545,4|8,0:0|0:0,0:0:0:0:
196,232,76585,1,0,0:0:0:0:
32,116,76748,1,0,1:0:0:0:
168,48,76911,1,0,1:0:0:0:
276,160,77074,2,0,P|336:168|376:152,1,82.6200005042725,8|2,0:0|0:0,0:0:0:0:
504,48,77400,6,0,L|512:224,1,165.240001008545,0|8,1:0|0:0,0:0:0:0:
392,304,77889,1,0,0:0:0:0:
252,188,78052,1,0,1:0:0:0:
392,200,78215,1,0,1:0:0:0:
320,356,78378,2,0,L|232:360,1,82.6200005042725,8|2,0:0|0:0,0:0:0:0:
44,276,78704,6,0,B|24:232|24:232|48:80,1,165.240001008545,0|8,1:0|0:0,0:0:0:0:
136,48,79193,1,0,0:0:0:0:
116,220,79357,1,0,1:0:0:0:
248,88,79520,1,0,1:0:0:0:
42,116,79683,1,8,0:0:0:0:
124,308,79846,6,0,P|184:336|260:264,1,165.240001008545,2|2,0:0|0:0,0:0:0:0:
272,116,80335,1,8,0:0:0:0:
476,52,80498,1,0,0:0:0:0:
360,164,80661,2,0,P|372:224|400:256,1,82.6200005042725,0|0,1:0|1:0,0:0:0:0:
468,360,80987,2,0,L|384:376,1,82.6200005042725,8|2,0:0|0:0,0:0:0:0:
204,336,81313,6,0,L|40:308,1,165.240001008545,6|0,0:0|0:0,0:0:0:0:
132,236,81802,1,2,0:0:0:0:
292,224,81965,2,0,L|308:132,1,82.6200005042725,8|0,0:0|0:0,0:0:0:0:
176,72,82291,1,2,0:0:0:0:
104,216,82454,1,8,0:0:0:0:
88,40,82617,5,2,0:0:0:0:
264,56,82780,1,8,0:0:0:0:
316,208,82943,2,0,L|340:116,1,82.6200005042725,2|0,0:0|0:0,0:0:0:0:
488,72,83270,2,0,L|504:172,1,82.6200005042725,8|0,0:0|0:0,0:0:0:0:
392,268,83596,1,2,0:0:0:0:
220,188,83759,1,8,0:0:0:0:
320,324,83922,6,0,B|356:380|456:380|504:304|480:240|480:240|464:192|512:144,1,349.920008542969,2|2,0:0|0:0,0:0:0:0:
256,192,85226,12,0,88813,0:0:0:0:
120,140,89139,6,0,B|232:128|232:128|300:72,1,165.240001008545,4|8,0:0|0:0,0:0:0:0:
352,12,89628,1,0,0:0:0:0:
292,200,89791,1,0,1:0:0:0:
292,200,89954,1,2,0:0:0:0:
440,244,90117,1,8,0:0:0:0:
396,100,90280,1,0,3:0:0:0:
356,280,90443,6,0,P|324:332|220:312,1,165.240001008545,0|8,1:0|0:0,0:0:0:0:
156,236,90933,1,0,0:0:0:0:
320,192,91096,2,0,L|416:176,1,82.6200005042725,0|2,1:0|0:0,0:0:0:0:
512,76,91422,2,0,L|430:62,1,82.6200005042725,8|2,0:0|0:0,0:0:0:0:
240,76,91748,6,0,B|192:100|192:100|160:224,1,165.240001008545,0|8,1:0|0:0,0:0:0:0:
92,296,92237,1,0,0:0:0:0:
77,124,92400,1,0,1:0:0:0:
77,124,92563,1,0,0:0:0:0:
168,20,92726,1,8,0:0:0:0:
264,164,92889,1,0,3:0:0:0:
352,4,93052,6,0,L|516:16,1,165.240001008545,0|8,1:0|0:0,0:0:0:0:
424,160,93541,1,2,0:0:0:0:
256,16,93704,1,0,1:0:0:0:
280,192,93867,1,2,0:0:0:0:
168,20,94030,1,8,0:0:0:0:
160,216,94193,1,0,3:0:0:0:
380,240,94357,6,0,P|440:256|472:352,1,165.240001008545,4|8,1:0|0:0,0:0:0:0:
360,372,94846,1,0,0:0:0:0:
256,216,95009,1,0,1:0:0:0:
256,216,95172,1,2,0:0:0:0:
396,144,95335,1,8,0:0:0:0:
224,128,95498,1,0,3:0:0:0:
276,308,95661,6,0,L|92:332,1,165.240001008545,0|8,1:0|0:0,0:0:0:0:
32,244,96150,1,0,0:0:0:0:
80,60,96313,2,0,P|128:36|180:40,1,82.6200005042725,0|2,1:0|0:0,0:0:0:0:
300,60,96639,2,0,L|312:148,1,82.6200005042725,8|0,0:0|0:0,0:0:0:0:
420,240,96965,6,0,L|408:332,1,82.6200005042725,8|0,0:0|0:0,0:0:0:0:
180,352,97291,1,12,0:0:0:0:
284,252,97454,1,0,0:0:0:0:
108,176,97617,1,12,0:0:0:0:
308,152,97780,1,8,0:0:0:0:
308,152,97862,1,8,0:0:0:0:
308,152,97943,1,8,0:0:0:0:
132,60,98107,1,8,0:0:0:0:
132,60,98188,1,8,0:0:0:0:
132,60,98270,1,8,0:0:0:0:
416,80,98596,6,0,L|440:200,1,82.6200005042725,12|0,0:0|0:0,0:0:0:0:
340,332,98922,2,0,L|356:250,1,82.6200005042725,12|0,0:0|0:0,0:0:0:0:
268,76,99248,2,0,L|251:157,1,82.6200005042725,12|0,0:0|0:0,0:0:0:0:
232,260,99574,5,0,0:0:0:0:
232,260,99737,1,0,0:0:0:0:
140,308,99900,2,0,L|56:304,1,74.5199974984132
28,208,100226,1,0,0:0:0:0:
132,196,100389,1,0,0:0:0:0:
68,116,100552,1,0,0:0:0:0:
208,128,100715,1,0,0:0:0:0:
316,208,100878,5,0,0:0:0:0:
332,312,101041,1,0,0:0:0:0:
432,288,101204,2,0,L|444:192,1,74.5199974984132
412,92,101530,2,0,P|368:92|316:108,1,74.5199974984132
184,264,101857,5,8,0:0:0:0:
216,40,102020,1,12,0:0:0:0:
256,192,102183,12,0,108052,0:0:0:0:
