osu file format v14

[General]
AudioFilename: weeb.mp3
AudioLeadIn: 0
PreviewTime: 64601
Countdown: 0
SampleSet: Soft
StackLeniency: 0.7
Mode: 0
LetterboxInBreaks: 0
WidescreenStoryboard: 1

[Editor]
DistanceSpacing: 2.3
BeatDivisor: 4
GridSize: 32
TimelineZoom: 2.4

[Metadata]
Title:Yuki no Youni
TitleUnicode:雪のように
Artist:AKINO with bless4
ArtistUnicode:AKINO with bless4
Creator:Sotarks
Version:Pentori's Extra
Source:
Tags:akitoshi corinn electoz pkhg janpai [_Sc4v4ng3r_] Sc4v4ng3r appleeaterx Doormat Deppyforce davided kibbleru pentori kalibe hb24 fcl linada christmas
BeatmapID:1128220
BeatmapSetID:532165

[Difficulty]
HPDrainRate:5.9
CircleSize:4
OverallDifficulty:8.1
ApproachRate:9.1
SliderMultiplier:1.82
SliderTickRate:1

[Events]
//Background and Video events
0,0,"mattori.jpg",0,0
//Break Periods
//Storyboard Layer 0 (Background)
//Storyboard Layer 1 (Fail)
//Storyboard Layer 2 (Pass)
//Storyboard Layer 3 (Foreground)
//Storyboard Sound Samples

[TimingPoints]
444,326.086956521739,4,2,22,22,1,0
5661,-400,4,2,22,22,0,0
6965,-400,4,2,22,32,0,0
7943,-200,4,2,22,22,0,0
8270,-400,4,2,22,32,0,0
10063,-125,4,2,22,32,0,0
10878,-125,4,2,22,42,0,0
18704,-125,4,2,22,52,0,0
20824,-83.3333333333333,4,2,22,52,0,0
21313,-100,4,2,22,62,0,0
30770,-100,4,2,22,72,0,0
31014,-100,4,2,22,5,0,0
31096,-100,4,2,22,62,0,0
31340,-100,4,2,22,5,0,0
31422,-100,4,2,22,52,0,0
31666,-100,4,2,22,5,0,0
31748,-125,4,2,22,42,0,0
42183,-111.111111111111,4,2,22,42,0,0
52291,-83.3333333333333,4,2,22,42,0,0
52617,-111.111111111111,4,2,22,52,0,0
63052,-125,4,2,22,52,0,0
64683,-83.3333333333333,4,2,22,62,0,0
64927,-83.3333333333333,4,2,22,5,0,0
65009,-83.3333333333333,4,2,22,72,0,0
65253,-83.3333333333333,4,2,22,5,0,0
65335,-83.3333333333333,4,2,22,82,0,0
65579,-83.3333333333333,4,2,22,5,0,0
65661,-100,4,2,22,62,0,1
72509,-100,4,2,22,72,0,1
72835,-100,4,2,22,82,0,1
73161,-100,4,2,22,72,0,1
73487,-100,4,2,22,62,0,1
75362,-100,4,2,22,5,0,1
75443,-100,4,2,22,62,0,1
75688,-100,4,2,22,5,0,1
75770,-100,4,2,22,62,0,1
76014,-100,4,2,22,5,0,1
76096,-100,4,2,22,62,0,1
81313,-125,4,2,22,52,0,0
83922,-125,4,2,22,42,0,0
88976,-125,4,2,22,5,0,0
89139,-100,4,2,22,62,0,0
98596,-83.3333333333333,4,2,22,72,0,0
98840,-83.3333333333333,4,2,22,5,0,0
98922,-83.3333333333333,4,2,22,62,0,0
99166,-83.3333333333333,4,2,22,5,0,0
99248,-83.3333333333333,4,2,22,52,0,0
99492,-83.3333333333333,4,2,22,5,0,0
99574,-200,4,2,22,42,0,0
101857,-55.5555555555556,4,2,22,72,0,1
101938,-55.5555555555556,4,2,22,72,0,0
108052,-55.5555555555556,4,2,22,22,0,0

[Colours]
Combo1 : 192,192,192
Combo2 : 128,128,192
Combo3 : 207,48,64
Combo4 : 0,128,128

[HitObjects]
120,126,5335,5,2,0:0:0:0:
120,126,5661,2,0,P|174:78|274:103,1,182,2|2,0:0|0:0,0:0:0:0:
200,214,7943,2,0,L|205:166,1,45.5,2|0,0:0|0:0,0:0:0:0:
273,102,8270,6,0,B|363:76|363:133|457:102,1,182,2|2,0:0|0:0,0:0:0:0:
314,259,10063,1,0,1:0:0:0:
316,222,10144,1,0,1:0:0:0:
319,186,10226,1,8,0:0:0:0:
405,19,10878,5,6,0:0:0:0:
112,133,11530,1,0,3:0:0:0:
405,247,12183,1,4,3:0:0:0:
405,247,12346,2,0,L|413:127,1,109.2,4|0,3:0|0:0,0:0:0:0:
389,104,12672,2,0,P|350:99|304:120,1,72.8,8|0,3:0|0:0,0:0:0:0:
193,256,12998,1,4,3:0:0:0:
163,176,13161,2,0,P|202:171|248:192,1,72.8,4|0,3:0|0:0,0:0:0:0:
109,242,13487,6,0,P|79:176|112:107,1,145.6,6|0,0:0|0:0,0:0:0:0:
277,253,13976,1,8,0:0:0:0:
46,325,14139,1,8,0:0:0:0:
217,27,14791,5,6,0:0:0:0:
267,88,14954,2,0,P|262:135|259:185,1,72.8,8|0,0:0|0:0,0:0:0:0:
252,245,15280,5,0,0:0:0:0:
368,120,15443,1,0,1:0:0:0:
418,282,15607,1,8,0:0:0:0:
461,206,15770,5,4,3:0:0:0:
345,331,15933,1,8,3:0:0:0:
260,160,16096,6,0,P|202:122|115:148,1,145.6,6|0,0:0|0:0,0:0:0:0:
273,340,16748,2,0,P|328:331|367:330,1,72.8,0|0,3:0|0:0,0:0:0:0:
202,274,17074,2,0,P|147:265|108:264,1,72.8,8|0,3:0|0:0,0:0:0:0:
260,160,17400,6,0,P|318:122|405:148,1,145.6,4|0,3:0|0:0,0:0:0:0:
456,335,17889,2,0,P|462:288|463:236,1,72.8,4|0,3:0|0:0,0:0:0:0:
266,326,18215,1,8,3:0:0:0:
335,206,18378,2,0,P|337:242|342:278,1,72.8,8|0,3:0|0:0,0:0:0:0:
194,267,18704,6,0,P|125:259|32:255,1,145.6,6|0,0:0|0:0,0:0:0:0:
261,81,19357,1,6,0:0:0:0:
344,367,19683,2,0,P|388:362|427:358,1,72.8,2|0,0:0|0:0,0:0:0:0:
266,326,20009,5,8,0:0:0:0:
449,373,20172,1,2,0:0:0:0:
150,278,20335,5,8,0:0:0:0:
372,236,20498,1,2,0:0:0:0:
24,283,20661,5,8,0:0:0:0:
225,138,20824,2,0,L|220:215,1,54.5999983337403,8|8,0:0|0:0,0:0:0:0:
183,365,20987,5,8,0:0:0:0:
136,105,21150,1,8,0:0:0:0:
136,105,21232,1,8,0:0:0:0:
136,105,21313,2,0,P|196:47|296:74,1,182,4|8,1:0|0:0,0:0:0:0:
311,263,21802,1,0,0:0:0:0:
221,218,21965,2,0,P|182:207|108:225,1,91,0|2,1:0|0:0,0:0:0:0:
320,278,22291,2,0,P|364:284|408:272,1,91,8|0,0:0|3:0,0:0:0:0:
460,161,22617,6,0,L|451:352,1,182,0|8,1:0|0:0,0:0:0:0:
355,185,23107,1,0,0:0:0:0:
505,268,23270,1,0,1:0:0:0:
358,356,23433,1,2,0:0:0:0:
386,82,23596,1,8,0:0:0:0:
460,161,23759,1,2,0:0:0:0:
346,195,23922,6,0,B|292:200|292:200|222:177|222:177|154:183,1,182,0|8,1:0|0:0,0:0:0:0:
304,109,24411,1,0,0:0:0:0:
210,267,24574,2,0,P|214:315|217:381,1,91,0|0,1:0|0:0,0:0:0:0:
296,96,24900,2,0,P|298:50|302:5,1,91,8|0,0:0|3:0,0:0:0:0:
181,78,25226,6,0,P|102:100|36:37,1,182,0|8,1:0|0:0,0:0:0:0:
0,173,25715,1,2,0:0:0:0:
172,262,25878,1,0,1:0:0:0:
101,131,26041,1,2,0:0:0:0:
26,368,26204,1,8,0:0:0:0:
109,149,26367,1,0,3:0:0:0:
257,330,26530,6,0,L|405:318,1,136.5,4|0,1:0|0:0,0:0:0:0:
415,295,26857,2,0,P|416:247|418:198,1,91,8|0,0:0|0:0,0:0:0:0:
276,67,27183,2,0,P|277:112|278:157,1,91,0|2,1:0|0:0,0:0:0:0:
393,10,27509,1,8,0:0:0:0:
458,100,27672,1,0,3:0:0:0:
269,56,27835,6,0,B|179:30|179:83|78:50,1,182,0|8,1:0|0:0,0:0:0:0:
136,276,28324,1,0,0:0:0:0:
213,228,28487,2,0,P|229:179|218:130,1,91,0|2,1:0|0:0,0:0:0:0:
11,246,28813,5,8,0:0:0:0:
118,173,28976,1,0,0:0:0:0:
231,330,29139,2,0,B|350:314|350:314|419:343,1,182,0|8,1:0|0:0,0:0:0:0:
326,208,29628,1,2,0:0:0:0:
151,382,29791,1,0,1:0:0:0:
222,140,29954,6,0,L|225:201,1,45.5,8|8,0:0|0:0,0:0:0:0:
231,330,30117,1,8,0:0:0:0:
326,208,30280,6,0,L|323:147,1,45.5,8|8,0:0|0:0,0:0:0:0:
317,18,30443,1,8,0:0:0:0:
409,274,30770,6,0,P|345:249|276:277,1,136.5,12|0,0:0|0:0,0:0:0:0:
231,330,31096,2,0,P|167:355|98:327,1,136.5,12|0,0:0|0:0,0:0:0:0:
68,265,31422,2,0,P|74:173|78:118,1,136.5,12|0,0:0|0:0,0:0:0:0:
97,110,31748,5,4,1:0:0:0:
332,67,32074,2,0,L|247:58,1,72.8,0|0,1:0|0:0,0:0:0:0:
335,174,32400,2,0,L|420:165,1,72.8,0|2,1:0|0:0,0:0:0:0:
203,234,32726,1,8,0:0:0:0:
248,147,32889,5,0,0:0:0:0:
248,147,33052,2,0,L|252:300,1,145.6,0|0,1:0|1:0,0:0:0:0:
315,372,33541,1,2,0:0:0:0:
315,372,33704,2,0,P|363:370|398:347,1,72.8,0|2,1:0|0:0,0:0:0:0:
253,305,34030,2,0,P|216:303|183:317,1,72.8,0|2,1:0|0:0,0:0:0:0:
95,367,34357,6,0,P|63:313|93:225,1,145.6,0|8,1:0|0:0,0:0:0:0:
31,141,34846,1,0,0:0:0:0:
31,141,35009,2,0,L|136:148,1,72.8,0|2,1:0|0:0,0:0:0:0:
166,79,35335,2,0,L|238:74,1,72.8,0|2,1:0|0:0,0:0:0:0:
276,151,35661,6,0,L|289:5,2,145.6,0|0|0,1:0|1:0|1:0,0:0:0:0:
346,223,36476,1,2,0:0:0:0:
442,114,36639,2,0,P|409:102|346:117,1,72.8,8|2,0:0|0:0,0:0:0:0:
286,285,36965,6,0,P|347:310|423:262,1,145.6,4|0,1:0|1:0,0:0:0:0:
504,317,37454,1,0,0:0:0:0:
504,317,37617,2,0,P|508:256|511:217,1,72.8,0|2,1:0|0:0,0:0:0:0:
341,150,37943,2,0,P|343:186|345:222,1,72.8,0|2,1:0|0:0,0:0:0:0:
512,102,38270,5,0,1:0:0:0:
437,157,38433,1,0,0:0:0:0:
357,57,38596,2,0,P|307:61|266:93,1,72.8,8|0,0:0|0:0,0:0:0:0:
208,211,38922,2,0,P|229:165|222:114,1,72.8,0|2,1:0|0:0,0:0:0:0:
149,4,39248,2,0,P|177:45|225:64,1,72.8,0|2,1:0|0:0,0:0:0:0:
357,57,39574,6,0,P|444:39|505:94,2,145.6,0|0|0,1:0|1:0|1:0,0:0:0:0:
314,137,40389,1,2,0:0:0:0:
433,242,40552,2,0,P|478:234|522:232,1,72.8,8|0,0:0|0:0,0:0:0:0:
401,361,40878,5,0,1:0:0:0:
346,291,41041,2,0,P|301:283|257:281,1,72.8,8|0,0:0|0:0,0:0:0:0:
200,327,41367,1,0,0:0:0:0:
360,207,41530,1,8,3:0:0:0:
303,380,41693,1,8,3:0:0:0:
303,380,41775,1,8,3:0:0:0:
303,380,41857,1,12,0:0:0:0:
261,117,42020,5,0,0:0:0:0:
261,117,42101,1,0,0:0:0:0:
261,117,42183,2,0,P|267:187|274:284,1,163.799995001221,4|8,1:0|0:0,0:0:0:0:
360,207,42672,1,0,0:0:0:0:
174,190,42835,1,0,1:0:0:0:
253,360,42998,1,2,0:0:0:0:
369,197,43161,2,0,P|373:141|375:102,1,81.8999975006104,8|2,0:0|0:0,0:0:0:0:
484,56,43487,6,0,P|434:83|335:36,1,163.799995001221,0|8,1:0|0:0,0:0:0:0:
205,136,43976,1,0,0:0:0:0:
205,136,44139,2,0,P|259:139|300:119,1,81.8999975006104,0|2,1:0|0:0,0:0:0:0:
165,15,44465,2,0,P|126:3|85:8,1,81.8999975006104,8|2,0:0|0:0,0:0:0:0:
113,175,44791,6,0,P|116:129|118:85,1,81.8999975006104,0|0,1:0|0:0,0:0:0:0:
0,191,45117,2,0,P|1:231|4:272,1,81.8999975006104,8|0,0:0|0:0,0:0:0:0:
211,287,45443,5,0,1:0:0:0:
101,323,45607,1,2,0:0:0:0:
113,175,45770,2,0,P|163:167|210:182,1,81.8999975006104,8|2,0:0|0:0,0:0:0:0:
293,330,46096,6,0,B|319:247|261:247|300:145,1,163.799995001221,0|8,1:0|0:0,0:0:0:0:
211,287,46585,1,0,0:0:0:0:
374,212,46748,2,0,P|421:208|467:207,1,81.8999975006104,0|0,1:0|0:0,0:0:0:0:
201,295,47074,2,0,P|154:291|108:290,1,81.8999975006104,8|0,0:0|0:0,0:0:0:0:
374,378,47400,6,0,P|421:374|467:373,1,81.8999975006104,0|2,1:0|0:0,0:0:0:0:
293,330,47726,1,8,0:0:0:0:
375,283,47889,2,0,P|402:244|368:129,1,163.799995001221,2|0,0:0|1:0,0:0:0:0:
271,169,48378,2,0,P|216:161|173:155,1,81.8999975006104,8|0,0:0|0:0,0:0:0:0:
296,59,48704,5,0,1:0:0:0:
296,59,48867,1,2,0:0:0:0:
188,252,49030,1,8,0:0:0:0:
107,204,49193,2,0,P|80:165|114:50,1,163.799995001221,2|0,0:0|1:0,0:0:0:0:
214,70,49683,2,0,P|269:62|312:56,1,81.8999975006104,8|0,0:0|0:0,0:0:0:0:
407,158,50009,6,0,P|403:213|402:257,1,81.8999975006104,4|0,1:0|0:0,0:0:0:0:
486,111,50335,1,8,0:0:0:0:
314,190,50498,1,4,1:0:0:0:
468,298,50661,1,0,0:0:0:0:
407,158,50824,1,8,3:0:0:0:
351,384,50987,2,0,P|349:343|346:302,1,81.8999975006104,8|2,0:0|0:0,0:0:0:0:
314,190,51313,6,0,P|252:166|169:247,1,163.799995001221,4|2,1:0|0:0,0:0:0:0:
304,63,51802,1,2,0:0:0:0:
270,268,51965,1,8,0:0:0:0:
270,268,52047,1,8,0:0:0:0:
270,268,52128,1,8,0:0:0:0:
270,268,52210,1,8,0:0:0:0:
270,268,52291,2,0,L|263:189,1,54.5999983337403,8|8,0:0|0:0,0:0:0:0:
455,112,52454,2,0,L|450:166,1,54.5999983337403,8|8,0:0|0:0,0:0:0:0:
429,329,52617,5,4,1:0:0:0:
304,63,52943,1,8,0:0:0:0:
398,32,53107,1,8,0:0:0:0:
455,112,53270,1,2,0:0:0:0:
398,192,53433,1,2,0:0:0:0:
304,161,53596,1,8,0:0:0:0:
312,324,53759,6,0,L|303:146,1,163.799995001221,0|0,1:0|1:0,0:0:0:0:
232,92,54248,2,0,P|173:83|131:106,1,81.8999975006104,8|0,0:0|0:0,0:0:0:0:
64,48,54574,2,0,P|26:94|25:142,1,81.8999975006104,0|2,1:0|0:0,0:0:0:0:
88,188,54900,2,0,P|85:247|83:293,1,81.8999975006104,8|2,0:0|0:0,0:0:0:0:
36,355,55226,5,4,1:0:0:0:
232,92,55552,1,8,0:0:0:0:
138,61,55716,1,8,0:0:0:0:
81,141,55879,1,2,0:0:0:0:
138,221,56042,1,2,0:0:0:0:
232,190,56205,1,8,0:0:0:0:
365,238,56367,6,0,P|288:247|228:178,1,163.799995001221,0|0,1:0|1:0,0:0:0:0:
442,137,56857,1,8,0:0:0:0:
381,345,57020,2,0,L|435:337,1,40.9499987503052,8|8,0:0|0:0,0:0:0:0:
510,323,57183,1,8,0:0:0:0:
267,278,57346,6,0,L|212:270,1,40.9499987503052,8|8,0:0|0:0,0:0:0:0:
138,256,57509,1,8,0:0:0:0:
381,211,57672,6,0,L|436:203,1,40.9499987503052,8|8,0:0|0:0,0:0:0:0:
510,189,57835,1,8,0:0:0:0:
138,122,58161,1,8,0:0:0:0:
283,88,58324,1,8,0:0:0:0:
130,137,58487,1,2,0:0:0:0:
291,73,58650,1,2,0:0:0:0:
265,244,58813,1,8,0:0:0:0:
174,45,58976,6,0,P|105:38|32:112,1,163.799995001221,0|0,1:0|1:0,0:0:0:0:
116,215,59465,2,0,P|131:176|129:136,1,81.8999975006104,8|0,0:0|0:0,0:0:0:0:
207,308,59791,2,0,P|166:314|132:336,1,81.8999975006104,0|2,1:0|0:0,0:0:0:0:
242,183,60117,2,0,P|268:215|304:233,1,81.8999975006104,8|0,0:0|0:0,0:0:0:0:
466,98,60443,5,8,0:0:0:0:
427,334,60607,1,2,0:0:0:0:
242,183,60770,1,8,0:0:0:0:
393,173,60933,1,2,0:0:0:0:
229,324,61096,1,8,0:0:0:0:
180,106,61259,1,2,0:0:0:0:
331,270,61422,5,8,0:0:0:0:
312,14,61585,1,2,0:0:0:0:
175,222,61748,1,8,0:0:0:0:
305,25,61911,1,2,0:0:0:0:
229,324,62074,5,8,0:0:0:0:
180,106,62237,1,2,0:0:0:0:
331,270,62400,1,8,0:0:0:0:
78,160,62563,1,2,0:0:0:0:
353,126,62726,1,8,3:0:0:0:
400,115,62807,1,8,3:0:0:0:
446,130,62889,1,8,3:0:0:0:
479,166,62970,1,8,3:0:0:0:
490,213,63052,6,0,L|481:361,1,145.6,12|2,0:0|0:0,0:0:0:0:
402,206,63460,5,0,0:0:0:0:
402,206,63541,2,0,L|536:139,1,145.6,12|2,0:0|0:0,0:0:0:0:
440,286,63949,5,0,0:0:0:0:
440,286,64030,2,0,L|316:204,1,145.6,12|8,0:0|0:0,0:0:0:0:
94,279,64683,6,0,P|195:293|236:237,1,163.799995001221,12|0,0:0|0:0,0:0:0:0:
318,205,65009,2,0,B|339:122|288:122|321:30,1,163.799995001221,12|0,0:0|0:0,0:0:0:0:
409,8,65335,2,0,B|473:-19|524:25|524:25|506:86,1,163.799995001221,12|0,0:0|0:0,0:0:0:0:
444,163,65661,6,0,L|452:319,1,136.5,4|0,1:0|0:0,0:0:0:0:
467,321,65987,2,0,B|423:309|423:309|375:319,1,91,8|0,0:0|0:0,0:0:0:0:
230,253,66313,1,0,1:0:0:0:
286,365,66476,1,0,1:0:0:0:
360,156,66639,1,8,0:0:0:0:
143,197,66802,1,2,0:0:0:0:
378,318,66965,5,0,0:0:0:0:
318,235,67128,1,2,0:0:0:0:
161,357,67291,2,0,L|23:337,1,136.5,8|0,0:0|0:0,0:0:0:0:
8,316,67617,1,0,1:0:0:0:
143,197,67780,1,0,1:0:0:0:
178,373,67943,1,8,0:0:0:0:
285,296,68107,5,0,0:0:0:0:
52,203,68270,2,0,L|164:195,1,91,0|0,1:0|0:0,0:0:0:0:
265,163,68596,2,0,P|312:218|294:296,1,136.5,8|0,0:0|0:0,0:0:0:0:
285,296,68922,1,0,1:0:0:0:
372,139,69085,1,0,1:0:0:0:
408,373,69248,1,8,0:0:0:0:
472,280,69411,1,2,0:0:0:0:
230,240,69574,6,0,L|118:232,1,91,0|2,0:0|0:0,0:0:0:0:
317,191,69900,1,8,0:0:0:0:
174,351,70063,1,0,0:0:0:0:
107,147,70226,2,0,P|157:97|224:100,1,136.5,0|0,1:0|0:0,0:0:0:0:
231,122,70552,1,8,0:0:0:0:
262,317,70715,1,2,0:0:0:0:
469,214,70878,6,0,B|401:196|401:233|334:212,1,136.5,2|0,0:0|0:0,0:0:0:0:
317,191,71204,1,8,0:0:0:0:
425,384,71367,2,0,P|443:339|433:286,1,91,2|0,0:0|0:0,0:0:0:0:
262,317,71693,1,2,0:0:0:0:
372,132,71857,2,0,P|374:87|380:41,1,91,8|0,0:0|0:0,0:0:0:0:
469,214,72183,5,0,1:0:0:0:
255,79,72346,1,0,1:0:0:0:
175,327,72509,2,0,L|279:320,1,91,8|2,0:0|0:0,0:0:0:0:
76,61,72835,5,8,0:0:0:0:
175,327,72998,1,2,0:0:0:0:
372,132,73161,2,0,L|365:28,1,91,8|2,0:0|0:0,0:0:0:0:
450,185,73487,6,0,P|396:224|305:198,1,136.5,4|0,1:0|0:0,0:0:0:0:
307,199,73813,2,0,L|300:289,1,91,8|0,0:0|0:0,0:0:0:0:
372,132,74139,1,0,1:0:0:0:
200,243,74302,1,0,1:0:0:0:
383,337,74465,1,8,0:0:0:0:
200,243,74628,6,0,P|135:248|90:251,1,91,2|0,0:0|0:0,0:0:0:0:
15,81,74954,1,2,0:0:0:0:
153,135,75117,2,0,P|234:125|257:63,1,136.5,12|0,0:0|0:0,0:0:0:0:
199,10,75443,2,0,L|58:2,1,136.5,12|0,0:0|0:0,0:0:0:0:
15,81,75770,2,0,B|1:135|1:135|15:225,1,136.5,12|0,0:0|0:0,0:0:0:0:
127,278,76096,6,0,B|189:272|189:272|248:290|248:290|308:284,1,182,4|8,1:0|0:0,0:0:0:0:
170,366,76585,1,0,0:0:0:0:
262,196,76748,1,0,1:0:0:0:
363,360,76911,1,0,1:0:0:0:
127,278,77074,2,0,P|113:219|143:162,1,91,8|2,0:0|0:0,0:0:0:0:
354,113,77400,5,0,0:0:0:0:
262,196,77563,1,2,0:0:0:0:
135,42,77726,2,0,L|231:37,1,91,8|0,0:0|0:0,0:0:0:0:
334,253,78052,2,0,P|270:289|190:253,1,136.5,0|0,1:0|0:0,0:0:0:0:
197,250,78378,1,8,0:0:0:0:
105,352,78541,1,2,0:0:0:0:
46,152,78704,6,0,L|58:34,1,91,0|2,1:0|0:0,0:0:0:0:
0,232,79030,1,8,0:0:0:0:
139,136,79193,1,0,0:0:0:0:
105,352,79357,1,0,1:0:0:0:
46,152,79520,1,0,1:0:0:0:
248,200,79683,1,8,0:0:0:0:
31,307,79846,1,2,0:0:0:0:
139,136,80009,6,0,L|129:226,1,91,0|2,0:0|0:0,0:0:0:0:
378,220,80335,2,0,P|338:177|255:184,1,136.5,8|0,0:0|0:0,0:0:0:0:
248,200,80661,1,0,1:0:0:0:
407,345,80824,1,0,1:0:0:0:
452,135,80987,2,0,L|442:44,1,91,8|2,0:0|0:0,0:0:0:0:
223,92,81313,6,0,P|282:49|368:71,1,145.6,6|0,0:0|0:0,0:0:0:0:
248,200,81802,1,2,0:0:0:0:
141,167,81965,2,0,L|-8:178,1,145.6,8|2,0:0|0:0,0:0:0:0:
64,275,82454,2,0,L|55:373,1,72.8,8|2,0:0|0:0,0:0:0:0:
183,243,82780,5,8,0:0:0:0:
141,167,82943,2,0,L|147:94,1,72.8,2|0,0:0|0:0,0:0:0:0:
269,27,83270,2,0,P|350:15|407:76,1,145.6,8|2,0:0|0:0,0:0:0:0:
346,141,83759,2,0,L|352:213,1,72.8,8|2,0:0|0:0,0:0:0:0:
256,192,84003,12,0,88976,0:0:0:0:
217,276,89139,6,0,P|292:311|371:238,1,182,4|8,1:0|0:0,0:0:0:0:
459,195,89628,1,0,0:0:0:0:
459,195,89791,2,0,P|478:252|467:308,1,91,0|2,1:0|0:0,0:0:0:0:
286,224,90117,2,0,P|285:178|302:136,1,91,8|0,0:0|3:0,0:0:0:0:
412,108,90443,6,0,L|204:91,1,182,0|8,1:0|0:0,0:0:0:0:
139,16,90933,1,0,0:0:0:0:
58,102,91096,2,0,L|65:203,1,91,0|2,1:0|0:0,0:0:0:0:
286,224,91422,5,8,0:0:0:0:
168,266,91585,1,2,0:0:0:0:
335,313,91748,2,0,P|386:241|352:147,1,182,0|8,1:0|0:0,0:0:0:0:
240,354,92237,1,0,0:0:0:0:
190,142,92400,1,0,1:0:0:0:
286,224,92563,1,0,0:0:0:0:
158,270,92726,2,0,L|68:259,1,91,8|0,0:0|3:0,0:0:0:0:
2,149,93052,6,0,P|3:61|92:20,1,182,0|8,1:0|0:0,0:0:0:0:
190,142,93541,1,2,0:0:0:0:
77,105,93704,1,0,1:0:0:0:
268,44,93867,1,2,0:0:0:0:
225,239,94030,1,8,0:0:0:0:
260,62,94193,1,0,3:0:0:0:
300,296,94357,6,0,P|318:232|273:158,1,136.5,4|0,1:0|0:0,0:0:0:0:
261,155,94683,2,0,L|167:163,1,91,8|0,0:0|0:0,0:0:0:0:
354,72,95009,2,0,L|448:80,1,91,0|2,1:0|0:0,0:0:0:0:
444,272,95335,5,8,0:0:0:0:
390,176,95498,1,0,3:0:0:0:
300,296,95661,2,0,B|238:290|238:290|179:308|179:308|121:302,1,182,0|8,1:0|0:0,0:0:0:0:
249,377,96150,1,0,0:0:0:0:
172,221,96313,2,0,P|176:173|194:125,1,91,0|2,1:0|0:0,0:0:0:0:
16,75,96639,2,0,P|30:117|33:163,1,91,8|0,0:0|0:0,0:0:0:0:
141,52,96965,6,0,P|215:42|276:96,1,136.5,8|0,0:0|0:0,0:0:0:0:
259,106,97291,1,10,0:0:0:0:
382,0,97454,1,0,0:0:0:0:
365,229,97617,1,10,0:0:0:0:
488,123,97780,6,0,L|424:119,1,45.5,8|8,0:0|0:0,0:0:0:0:
259,106,97943,1,10,0:0:0:0:
136,246,98107,6,0,L|200:242,1,45.5,8|8,0:0|0:0,0:0:0:0:
365,229,98270,1,10,0:0:0:0:
89,339,98596,6,0,B|68:256|119:256|86:164,1,163.799995001221,12|0,0:0|0:0,0:0:0:0:
17,110,98922,2,0,P|78:146|182:100,1,163.799995001221,12|0,0:0|0:0,0:0:0:0:
223,44,99248,2,0,B|328:31|328:31|399:63,1,163.799995001221,12|0,0:0|0:0,0:0:0:0:
404,141,99574,6,0,L|397:196,3,45.5
408,201,100226,5,0,0:0:0:0:
308,170,100389,1,0,0:0:0:0:
248,256,100552,1,0,0:0:0:0:
311,340,100715,1,0,0:0:0:0:
409,305,100878,6,0,L|464:312,3,45.5
469,301,101530,5,0,0:0:0:0:
311,340,101693,1,0,0:0:0:0:
93,120,101857,5,12,0:0:0:0:
356,183,102020,1,12,0:0:0:0:
256,192,102101,12,0,108052,0:0:0:0:
