osu file format v14

[General]
AudioFilename: weeb.mp3
AudioLeadIn: 0
PreviewTime: 64601
Countdown: 0
SampleSet: Soft
StackLeniency: 0.5
Mode: 0
LetterboxInBreaks: 0
WidescreenStoryboard: 1

[Editor]
Bookmarks: 65635,81287,89113,99548
DistanceSpacing: 1.5
BeatDivisor: 4
GridSize: 4
TimelineZoom: 2.1

[Metadata]
Title:Yuki no Youni
TitleUnicode:雪のように
Artist:AKINO with bless4
ArtistUnicode:AKINO with bless4
Creator:Sotarks
Version:Linada's Extra
Source:
Tags:akitoshi corinn electoz pkhg janpai [_Sc4v4ng3r_] Sc4v4ng3r appleeaterx Doormat Deppyforce davided kibbleru pentori kalibe hb24 fcl linada christmas
BeatmapID:1127768
BeatmapSetID:532165

[Difficulty]
HPDrainRate:6.6
CircleSize:3.8
OverallDifficulty:8.5
ApproachRate:9.4
SliderMultiplier:2
SliderTickRate:1

[Events]
//Background and Video events
0,0,"linada.jpg",0,0
//Break Periods
//Storyboard Layer 0 (Background)
//Storyboard Layer 1 (Fail)
//Storyboard Layer 2 (Pass)
//Storyboard Layer 3 (Foreground)
//Storyboard Sound Samples

[TimingPoints]
444,326.086956521739,4,2,22,22,1,0
10878,-166.666666666667,4,2,22,42,0,0
15770,-125,4,2,22,42,0,0
16096,-166.666666666667,4,2,22,42,0,0
18704,-166.666666666666,4,2,22,52,0,0
19357,-142.857142857143,4,2,22,52,0,0
20824,-111.111111111111,4,2,22,52,0,0
21313,-100,4,2,22,62,0,0
30770,-83.3333333333333,4,2,22,72,0,0
31014,-70.4225352112676,4,2,22,5,0,0
31096,-100,4,2,22,62,0,0
31340,-98.0392156862745,4,2,22,5,0,0
31422,-71.4285714285714,4,2,22,52,0,0
31666,-121.951219512195,4,2,22,5,0,0
31748,-111.111111111111,4,2,22,42,0,0
36313,-83.3333333333333,4,2,22,42,0,0
36639,-100,4,2,22,42,0,0
36965,-111.111111111111,4,2,22,42,0,0
40552,-111.111111111111,4,2,22,42,0,0
40878,-111.111111111111,4,2,22,42,0,0
42183,-111.111111111111,4,2,22,42,0,0
46748,-100,4,2,22,42,0,0
47400,-100,4,2,22,42,0,0
48704,-90.9090909090909,4,2,22,42,0,0
49357,-100,4,2,22,42,0,0
50009,-100,4,2,22,52,0,0
50090,-100,4,2,22,42,0,0
52617,-90.9090909090909,4,2,22,52,0,0
52943,-76.9230769230769,4,2,22,52,0,0
53596,-100,4,2,22,52,0,0
55226,-90.9090909090908,4,2,22,52,0,0
55471,-90.9090909090908,4,2,22,5,0,0
55552,-76.9230769230769,4,2,22,52,0,0
55878,-100,4,2,22,52,0,0
57835,-90.9090909090908,4,2,22,52,0,0
58079,-90.9090909090908,4,2,22,5,0,0
58161,-76.9230769230769,4,2,22,52,0,0
58487,-100,4,2,22,52,0,0
60117,-133.333333333333,4,2,22,52,0,0
60362,-100,4,2,22,5,0,0
60443,-100,4,2,22,52,0,0
64683,-125,4,2,22,62,0,0
64927,-89.2857142857143,4,2,22,5,0,0
65009,-83.3333333333333,4,2,22,72,0,0
65253,-75.7575757575758,4,2,22,5,0,0
65335,-71.4285714285714,4,2,22,82,0,0
65579,-65.7894736842105,4,2,22,5,0,0
65661,-90.9090909090909,4,2,22,62,0,1
73487,-90.9090909090909,4,2,22,62,0,1
75117,-125,4,2,22,62,0,1
75362,-89.2857142857143,4,2,22,5,0,1
75443,-83.3333333333333,4,2,22,62,0,1
75688,-81.9672131147541,4,2,22,5,0,1
75770,-71.4285714285714,4,2,22,62,0,1
76014,-75.7575757575758,4,2,22,5,0,1
76096,-90.9090909090909,4,2,22,62,0,1
81313,-117.647058823529,4,2,22,52,0,0
83922,-200,4,2,22,42,0,0
84411,-192.307692307692,4,2,22,42,0,0
84900,-400,4,2,22,32,0,0
89058,-462,4,2,22,5,0,0
89139,-100,4,2,22,62,0,0
97617,-100,4,2,22,62,0,0
98270,-161.290322580645,4,2,22,62,0,0
98596,-83.3333333333333,4,2,22,62,0,0
98922,-100,4,2,22,62,0,0
99248,-125,4,2,22,62,0,0
99574,-142.857142857143,4,2,22,42,0,0
101857,-161.290322580645,4,2,22,72,0,0
108052,-161.290322580645,4,2,22,22,0,0

[Colours]
Combo1 : 179,217,255
Combo2 : 247,83,83
Combo3 : 255,179,217
Combo4 : 255,193,164

[HitObjects]
136,84,10063,6,0,L|138:133,1,50,0|0,1:0|1:0,0:0:0:0:
151,276,10226,1,8,0:0:0:0:
147,301,10878,5,6,0:0:0:0:
153,122,11530,1,0,3:0:0:0:
133,108,12183,5,4,3:0:0:0:
304,150,12346,1,4,3:0:0:0:
318,133,12672,1,8,3:0:0:0:
336,112,12998,5,4,3:0:0:0:
113,94,13161,1,4,3:0:0:0:
433,301,13487,5,6,0:0:0:0:
453,323,13976,1,8,0:0:0:0:
281,297,14139,1,8,0:0:0:0:
316,65,14791,5,6,0:0:0:0:
97,126,14954,1,8,0:0:0:0:
174,39,15280,6,0,L|177:68,1,29.9999990844727,0|0,0:0|1:0,0:0:0:0:
236,242,15443,1,0,1:0:0:0:
317,66,15607,1,8,0:0:0:0:
115,143,15770,1,4,3:0:0:0:
327,185,15933,1,8,3:0:0:0:
97,285,16096,5,6,0:0:0:0:
346,172,16748,1,0,3:0:0:0:
97,126,17074,1,8,3:0:0:0:
288,334,17400,5,4,3:0:0:0:
303,345,17889,1,4,3:0:0:0:
369,153,18052,1,0,0:0:0:0:
397,303,18215,1,8,3:0:0:0:
222,130,18378,1,8,3:0:0:0:
461,139,18704,6,0,L|345:171,1,119.999996337891,6|0,0:0|0:0,0:0:0:0:
88,101,19357,1,6,0:0:0:0:
288,334,19683,1,2,0:0:0:0:
262,101,20009,5,8,0:0:0:0:
168,268,20172,1,2,0:0:0:0:
345,171,20335,5,8,0:0:0:0:
121,195,20498,1,2,0:0:0:0:
279,85,20661,5,8,0:0:0:0:
98,211,20824,1,8,0:0:0:0:
55,217,20905,1,8,0:0:0:0:
16,195,20987,1,8,0:0:0:0:
0,154,21068,1,0,0:0:0:0:
13,111,21150,1,8,0:0:0:0:
49,85,21231,1,8,0:0:0:0:
92,86,21313,6,0,P|142:86|185:60,1,100,4|0,1:0|0:0,0:0:0:0:
403,215,21639,2,0,P|353:214|310:188,1,100,8|0,0:0|0:0,0:0:0:0:
410,36,21965,2,0,P|409:85|383:128,1,100,0|2,1:0|0:0,0:0:0:0:
237,270,22291,2,0,P|236:220|210:177,1,100,8|0,0:0|3:0,0:0:0:0:
152,333,22617,6,0,P|237:376|322:331,1,200,0|8,1:0|0:0,0:0:0:0:
190,166,23107,1,0,0:0:0:0:
383,128,23270,2,0,L|370:227,1,100,0|2,1:0|0:0,0:0:0:0:
188,140,23596,2,0,L|175:40,1,100,8|2,0:0|0:0,0:0:0:0:
0,246,23922,6,0,B|103:291|111:219|194:258,1,200,0|8,1:0|0:0,0:0:0:0:
194,258,24411,1,0,0:0:0:0:
382,127,24574,2,0,P|335:112|285:115,1,100,0|0,1:0|0:0,0:0:0:0:
373,261,24900,2,0,P|422:263|470:248,1,100,8|0,0:0|3:0,0:0:0:0:
381,100,25226,6,0,P|286:72|194:108,1,200,0|8,1:0|0:0,0:0:0:0:
73,224,25715,1,2,0:0:0:0:
214,257,25878,1,0,1:0:0:0:
73,113,26041,1,2,0:0:0:0:
72,324,26204,2,0,L|74:224,1,100,8|0,0:0|3:0,0:0:0:0:
281,21,26530,6,0,B|273:112|273:112|284:136|284:136|278:218,1,200,4|8,1:0|0:0,0:0:0:0:
278,218,27020,1,0,0:0:0:0:
471,88,27183,2,0,B|418:79|418:79|372:84,1,100,0|2,1:0|0:0,0:0:0:0:
174,252,27509,2,0,B|220:257|220:257|272:248,1,100,8|0,0:0|3:0,0:0:0:0:
501,71,27835,6,0,B|429:55|429:55|304:67,1,200,0|8,1:0|0:0,0:0:0:0:
149,93,28324,1,0,0:0:0:0:
272,248,28487,1,0,1:0:0:0:
284,75,28650,1,2,0:0:0:0:
166,234,28813,2,0,L|156:333,1,100,8|0,0:0|0:0,0:0:0:0:
291,236,29139,6,0,P|339:223|389:225,1,100,0|0,1:0|0:0,0:0:0:0:
163,105,29465,2,0,P|114:92|64:94,1,100,8|2,0:0|0:0,0:0:0:0:
308,69,29791,5,0,1:0:0:0:
420,238,29954,2,0,L|418:189,1,50,8|8,0:0|0:0,0:0:0:0:
285,91,30117,1,8,0:0:0:0:
138,255,30280,2,0,L|187:253,1,50,8|8,0:0|0:0,0:0:0:0:
284,119,30443,5,6,0:0:0:0:
284,119,30770,6,0,P|362:144|390:68,1,179.999994506836,12|0,0:0|0:0,0:0:0:0:
380,38,31096,6,0,B|416:126|371:101|387:184,1,150,12|0,0:0|0:0,0:0:0:0:
388,219,31422,6,0,P|408:303|473:245,1,209.999993591309,12|0,0:0|0:0,0:0:0:0:
472,148,31748,6,0,B|441:132|403:125|403:125|352:152|298:136,2,179.999994506836,0|0|0,1:0|1:0|1:0,0:0:0:0:
339,51,32563,1,2,0:0:0:0:
388,219,32726,1,8,0:0:0:0:
283,131,32889,1,0,0:0:0:0:
375,252,33052,6,0,B|397:306|379:384|379:384|352:346,1,179.999994506836,0|0,0:0|1:0,0:0:0:0:
235,280,33541,1,0,0:0:0:0:
388,219,33704,1,0,1:0:0:0:
223,266,33867,1,0,0:0:0:0:
364,361,34030,1,0,1:0:0:0:
404,196,34193,1,2,0:0:0:0:
204,103,34357,6,0,L|114:94,1,89.9999972534181,0|0,1:0|0:0,0:0:0:0:
206,248,34683,2,0,P|208:293|197:337,1,89.9999972534181,12|0,0:0|0:0,0:0:0:0:
112,280,35009,1,0,1:0:0:0:
301,276,35172,1,2,0:0:0:0:
151,171,35335,1,0,1:0:0:0:
206,248,35498,1,2,0:0:0:0:
296,136,35661,6,0,P|358:113|421:134,1,134.999995880127,0|0,1:0|0:0,0:0:0:0:
437,149,35987,1,0,1:0:0:0:
357,221,36150,1,0,0:0:0:0:
502,310,36313,6,0,L|324:329,1,179.999994506836,0|0,1:0|0:0,0:0:0:0:
207,235,36639,6,0,L|357:220,1,150,8|0,0:0|0:0,0:0:0:0:
440,112,36965,6,0,P|358:82|276:115,2,179.999994506836,4|0|0,1:0|1:0|1:0,0:0:0:0:
356,219,37780,1,2,0:0:0:0:
473,314,37943,1,0,1:0:0:0:
323,329,38107,1,2,0:0:0:0:
476,202,38270,6,0,L|386:213,1,89.9999972534181,0|0,1:0|0:0,0:0:0:0:
210,315,38596,2,0,L|299:326,1,89.9999972534181,12|0,0:0|0:0,0:0:0:0:
190,161,38922,1,0,1:0:0:0:
190,161,39085,1,2,0:0:0:0:
341,127,39248,1,0,1:0:0:0:
341,127,39411,1,2,0:0:0:0:
172,53,39574,6,0,P|161:96|170:140,1,89.9999972534181,0|0,1:0|0:0,0:0:0:0:
183,324,39900,2,0,P|139:313|95:322,1,89.9999972534181,0|0,1:0|0:0,0:0:0:0:
28,233,40226,1,0,1:0:0:0:
182,165,40389,1,2,0:0:0:0:
69,47,40552,2,0,L|75:136,1,89.9999972534181,8|0,0:0|0:0,0:0:0:0:
191,337,40878,5,0,1:0:0:0:
293,147,41041,2,0,L|204:156,1,89.9999972534181,8|0,0:0|0:0,0:0:0:0:
306,264,41367,1,0,0:0:0:0:
394,134,41530,1,8,3:0:0:0:
418,110,41611,1,0,0:0:0:0:
449,99,41693,1,8,3:0:0:0:
482,101,41774,1,8,3:0:0:0:
512,116,41857,1,12,0:0:0:0:
345,197,42020,1,0,0:0:0:0:
491,295,42183,6,0,L|397:287,1,89.9999972534181,4|0,1:0|0:0,0:0:0:0:
203,156,42509,2,0,L|297:148,1,89.9999972534181,8|0,0:0|0:0,0:0:0:0:
161,269,42835,1,0,1:0:0:0:
304,354,42998,1,2,0:0:0:0:
313,173,43161,1,8,0:0:0:0:
213,345,43324,1,2,0:0:0:0:
87,158,43487,6,0,L|177:166,1,89.9999972534181,0|0,1:0|0:0,0:0:0:0:
406,65,43813,2,0,L|317:73,1,89.9999972534181,8|0,0:0|0:0,0:0:0:0:
451,237,44139,1,0,1:0:0:0:
275,165,44302,1,2,0:0:0:0:
424,149,44465,1,8,0:0:0:0:
301,303,44628,1,2,0:0:0:0:
486,328,44791,6,0,L|396:316,1,89.9999972534181,0|0,1:0|0:0,0:0:0:0:
157,183,45117,2,0,L|246:171,1,89.9999972534181,8|0,0:0|0:0,0:0:0:0:
150,91,45443,1,0,1:0:0:0:
74,279,45607,1,2,0:0:0:0:
48,150,45770,1,8,0:0:0:0:
188,291,45933,1,2,0:0:0:0:
275,81,46096,5,0,1:0:0:0:
199,275,46259,1,0,0:0:0:0:
288,172,46422,2,0,P|329:157|374:162,1,89.9999972534181,8|0,0:0|0:0,0:0:0:0:
344,338,46748,6,0,P|349:288|338:239,1,100,0|0,1:0|0:0,0:0:0:0:
223,64,47074,1,8,0:0:0:0:
59,201,47237,1,0,0:0:0:0:
241,341,47400,6,0,B|202:248|268:248|226:145,1,200,0|8,1:0|0:0,0:0:0:0:
168,67,47889,1,2,0:0:0:0:
59,201,48052,2,0,L|159:210,1,100,0|0,0:0|1:0,0:0:0:0:
419,282,48378,2,0,L|320:291,1,100,8|0,0:0|0:0,0:0:0:0:
366,59,48704,6,0,P|378:111|361:163,1,110.000003356934,0|0,1:0|0:0,0:0:0:0:
241,341,49030,2,0,P|228:288|245:236,1,110.000003356934,8|2,0:0|0:0,0:0:0:0:
419,299,49357,6,0,L|319:290,1,100,0|0,0:0|1:0,0:0:0:0:
188,118,49683,2,0,L|287:109,1,100,8|0,0:0|0:0,0:0:0:0:
122,45,50009,6,0,P|84:108|106:178,1,150,4|0,1:0|0:0,0:0:0:0:
121,197,50335,1,8,0:0:0:0:
287,109,50498,2,0,L|188:118,1,100,4|0,1:0|0:0,0:0:0:0:
11,291,50824,2,0,L|110:299,1,100,8|8,3:0|0:0,0:0:0:0:
240,312,51150,1,2,0:0:0:0:
379,195,51313,5,4,1:0:0:0:
259,296,51476,1,0,0:0:0:0:
300,93,51639,1,2,0:0:0:0:
330,252,51802,1,2,0:0:0:0:
420,15,51965,5,8,0:0:0:0:
405,62,52046,1,8,0:0:0:0:
424,108,52128,1,8,0:0:0:0:
404,153,52209,1,8,0:0:0:0:
410,207,52291,5,8,0:0:0:0:
374,172,52372,1,8,0:0:0:0:
327,158,52454,1,8,0:0:0:0:
278,167,52535,1,8,0:0:0:0:
225,206,52617,6,0,B|180:227|159:224|159:224|126:198|66:194,1,165.000005035401,4|0,1:0|0:0,0:0:0:0:
99,287,52943,6,0,P|142:241|150:178,1,129.999994049073,8|8,0:0|0:0,0:0:0:0:
58,55,53270,5,2,0:0:0:0:
251,112,53433,1,2,0:0:0:0:
68,195,53596,1,8,0:0:0:0:
183,52,53759,6,0,P|272:22|337:90,1,200,0|0,1:0|1:0,0:0:0:0:
396,273,54248,1,8,0:0:0:0:
427,141,54411,1,0,0:0:0:0:
375,299,54574,2,0,P|328:315|279:306,1,100,0|2,1:0|0:0,0:0:0:0:
87,239,54900,2,0,P|135:230|182:246,1,100,8|0,0:0|0:0,0:0:0:0:
26,301,55226,6,0,P|0:225|43:158,1,165.000005035401,4|0,1:0|0:0,0:0:0:0:
130,114,55552,6,0,B|160:122|189:109|189:109|199:116|199:116|229:105|267:110,1,129.999994049073,8|8,0:0|0:0,0:0:0:0:
420,76,55878,5,2,0:0:0:0:
295,215,56041,1,2,0:0:0:0:
464,233,56204,1,8,0:0:0:0:
349,334,56367,6,0,B|245:371|247:301|149:341,1,200,0|0,1:0|1:0,0:0:0:0:
7,331,56857,1,8,0:0:0:0:
33,202,57020,1,0,1:0:0:0:
31,181,57101,1,0,1:0:0:0:
29,163,57183,6,0,L|79:163,1,50,8|0,0:0|0:0,0:0:0:0:
172,301,57346,2,0,L|122:301,1,50,0|0,1:0|1:0,0:0:0:0:
172,79,57509,6,0,P|185:100|188:124,1,50,8|0,0:0|0:0,0:0:0:0:
287,262,57672,2,0,P|289:234|300:205,1,50,0|0,1:0|1:0,0:0:0:0:
402,114,57835,6,0,P|471:93|474:165,1,165.000005035401,12|0,0:0|0:0,0:0:0:0:
412,286,58161,6,0,P|360:272|400:236,1,129.999994049073,8|8,0:0|0:0,0:0:0:0:
509,246,58487,5,2,0:0:0:0:
300,180,58650,1,2,0:0:0:0:
474,164,58813,1,8,0:0:0:0:
256,81,58976,6,0,P|197:158|220:252,1,200,0|0,1:0|1:0,0:0:0:0:
269,357,59465,2,0,P|221:342|173:355,1,100,8|0,0:0|0:0,0:0:0:0:
1,216,59791,2,0,P|48:230|96:217,1,100,0|2,1:0|0:0,0:0:0:0:
212,47,60117,2,0,L|199:158,1,112.500004291535,8|0,0:0|0:0,0:0:0:0:
189,241,60443,5,8,0:0:0:0:
305,162,60607,1,2,0:0:0:0:
240,324,60770,5,8,0:0:0:0:
314,161,60933,1,2,0:0:0:0:
357,350,61096,5,8,0:0:0:0:
325,159,61259,1,2,0:0:0:0:
464,309,61422,5,8,0:0:0:0:
336,157,61585,1,2,0:0:0:0:
511,217,61748,5,8,0:0:0:0:
345,153,61911,1,2,0:0:0:0:
421,13,62074,5,8,0:0:0:0:
182,168,62237,1,2,0:0:0:0:
337,298,62400,5,8,0:0:0:0:
264,30,62563,1,2,0:0:0:0:
386,217,62726,5,8,3:0:0:0:
374,264,62807,1,8,3:0:0:0:
337,298,62889,1,8,3:0:0:0:
289,305,62970,1,8,3:0:0:0:
244,284,63052,6,0,P|171:268|105:300,1,150,12|0,0:0|0:0,0:0:0:0:
84,321,63378,1,2,0:0:0:0:
244,259,63541,6,0,P|171:243|105:275,1,150,12|0,0:0|0:0,0:0:0:0:
86,297,63867,1,2,0:0:0:0:
245,231,64030,6,0,P|172:215|106:247,1,150,12|0,0:0|0:0,0:0:0:0:
90,266,64356,1,8,0:0:0:0:
90,266,64683,6,0,L|97:146,1,120,12|0,0:0|0:0,0:0:0:0:
134,58,65009,6,0,B|221:20|226:99|307:56,1,179.999994506836,12|0,0:0|0:0,0:0:0:0:
399,89,65335,6,0,P|464:94|400:170,1,209.999993591309,12|0,0:0|0:0,0:0:0:0:
303,204,65661,6,0,P|216:230|286:287,1,220.000006713867,4|8,1:0|0:0,0:0:0:0:
393,211,66150,1,0,0:0:0:0:
307,371,66313,2,0,P|252:376|199:364,1,110.000003356934,0|0,1:0|1:0,0:0:0:0:
56,192,66639,1,8,0:0:0:0:
87,340,66802,1,2,0:0:0:0:
191,176,66965,6,0,L|81:183,1,110.000003356934,0|0,0:0|0:0,0:0:0:0:
238,61,67291,2,0,L|347:68,1,110.000003356934,8|0,0:0|0:0,0:0:0:0:
396,307,67617,1,0,1:0:0:0:
444,133,67780,1,0,1:0:0:0:
302,181,67943,1,8,0:0:0:0:
512,203,68107,2,0,L|488:252,1,55.0000016784668,0|0,0:0|0:0,0:0:0:0:
383,339,68270,6,0,B|293:371|283:299|168:349,1,220.000006713867,0|8,1:0|0:0,0:0:0:0:
49,291,68759,1,0,0:0:0:0:
201,160,68922,1,0,1:0:0:0:
180,331,69085,1,0,1:0:0:0:
106,149,69248,2,0,P|52:137|0:150,1,110.000003356934,8|2,0:0|0:0,0:0:0:0:
273,80,69574,5,0,0:0:0:0:
200,254,69737,1,2,0:0:0:0:
77,51,69900,2,0,P|129:37|183:49,1,110.000003356934,8|0,0:0|0:0,0:0:0:0:
369,204,70226,6,0,L|373:94,1,110.000003356934,0|0,1:0|0:0,0:0:0:0:
473,289,70552,2,0,L|468:179,1,110.000003356934,8|2,0:0|0:0,0:0:0:0:
367,323,70878,6,0,B|291:307|268:326|268:326|242:315|242:315|210:340|150:325,1,220.000006713867,2|8,0:0|0:0,0:0:0:0:
5,352,71367,2,0,P|0:297|22:247,1,110.000003356934,2|0,0:0|0:0,0:0:0:0:
181,246,71693,1,2,0:0:0:0:
52,104,71857,1,8,0:0:0:0:
312,121,72020,1,0,0:0:0:0:
163,52,72183,5,0,1:0:0:0:
198,257,72346,1,0,1:0:0:0:
324,111,72509,5,8,0:0:0:0:
78,217,72672,1,2,0:0:0:0:
309,249,72835,5,8,0:0:0:0:
53,137,72998,1,2,0:0:0:0:
336,101,73161,5,8,0:0:0:0:
115,292,73324,1,2,0:0:0:0:
398,41,73487,6,0,P|346:22|292:27,1,110.000003356934,4|0,1:2|0:0,0:0:0:0:
78,217,73813,1,8,0:0:0:0:
280,245,73976,1,0,0:0:0:0:
165,49,74139,2,0,L|170:158,1,110.000003356934,0|0,1:0|1:0,0:0:0:0:
184,333,74465,5,8,0:0:0:0:
290,230,74628,1,2,0:0:0:0:
176,185,74791,1,0,0:0:0:0:
291,325,74954,1,2,0:0:0:0:
405,215,75117,6,0,B|400:155|437:163|425:96,1,120,12|0,0:0|0:0,0:0:0:0:
426,28,75443,6,0,P|342:0|266:43,1,179.999994506836,12|0,0:0|0:0,0:0:0:0:
240,113,75770,6,0,P|161:176|70:134,1,209.999993591309,12|0,0:0|0:0,0:0:0:0:
6,78,76096,6,0,B|-49:185|56:187|9:299,1,220.000006713867,4|8,1:0|0:0,0:0:0:0:
105,378,76585,1,0,0:0:0:0:
280,254,76748,2,0,P|225:261|171:253,1,110.000003356934,0|0,1:0|1:0,0:0:0:0:
275,363,77074,1,8,0:0:0:0:
233,162,77237,1,2,0:0:0:0:
410,267,77400,6,0,P|355:259|301:267,1,110.000003356934,0|0,0:0|0:0,0:0:0:0:
351,65,77726,2,0,B|360:115|360:115|350:173,1,110.000003356934,8|0,0:0|0:0,0:0:0:0:
145,245,78052,1,0,1:0:0:0:
301,266,78215,1,0,1:0:0:0:
151,139,78378,2,0,L|41:135,1,110.000003356934,8|2,0:0|0:0,0:0:0:0:
240,64,78704,5,0,1:0:0:0:
130,276,78867,1,2,0:0:0:0:
350,173,79030,5,8,0:0:0:0:
71,119,79193,1,0,0:0:0:0:
467,70,79357,5,0,1:0:0:0:
164,159,79520,1,0,1:0:0:0:
436,247,79683,1,8,0:0:0:0:
240,64,79846,6,0,B|345:108|336:27|459:69,1,220.000006713867,2|2,0:0|0:0,0:0:0:0:
246,180,80335,1,8,0:0:0:0:
449,235,80498,1,0,0:0:0:0:
246,315,80661,1,0,1:0:0:0:
408,322,80824,1,0,1:0:0:0:
231,173,80987,2,0,P|176:167|123:182,1,110.000003356934,8|2,0:0|0:0,0:0:0:0:
46,305,81313,6,0,B|81:218|6:234|55:123,2,170.000003242493,6|0|8,0:0|0:0|0:0,0:0:0:0:
123,181,82128,1,0,0:0:0:0:
238,304,82291,1,2,0:0:0:0:
290,142,82454,1,8,0:0:0:0:
182,236,82617,5,0,0:0:0:0:
331,284,82780,1,8,0:0:0:0:
456,191,82943,1,2,0:0:0:0:
469,205,83270,5,8,0:0:0:0:
338,263,83433,1,0,0:0:0:0:
483,302,83596,1,2,0:0:0:0:
382,159,83759,1,8,0:0:0:0:
314,340,83922,5,2,0:0:0:0:
304,362,84248,1,0,0:0:0:0:
236,173,84411,5,0,0:0:0:0:
229,159,84737,1,0,0:0:0:0:
161,348,84900,5,0,0:0:0:0:
256,192,84982,12,0,89058,0:0:0:0:
180,109,89139,6,0,L|80:100,1,100,4|0,1:0|0:0,0:0:0:0:
309,231,89465,2,0,L|409:222,1,100,8|0,0:0|0:0,0:0:0:0:
168,240,89791,2,0,P|155:288|158:338,1,100,0|2,1:0|0:0,0:0:0:0:
331,116,90117,2,0,P|343:67|340:17,1,100,8|0,0:0|3:0,0:0:0:0:
243,300,90443,5,0,1:0:0:0:
76,215,90607,1,0,0:0:0:0:
255,191,90770,1,8,0:0:0:0:
158,338,90933,1,0,0:0:0:0:
156,157,91096,5,0,1:0:0:0:
321,306,91259,1,2,0:0:0:0:
330,115,91422,2,0,P|286:94|236:90,1,100,8|2,0:0|0:0,0:0:0:0:
428,52,91748,6,0,L|422:151,1,100,0|0,1:0|0:0,0:0:0:0:
337,294,92074,2,0,L|436:288,1,100,8|0,0:0|0:0,0:0:0:0:
259,178,92400,2,0,L|159:172,1,100,0|0,1:0|0:0,0:0:0:0:
330,314,92726,2,0,L|429:308,1,100,8|0,0:0|3:0,0:0:0:0:
271,159,93052,6,0,B|171:131|176:180|71:147,1,200,0|8,1:0|0:0,0:0:0:0:
128,74,93541,1,2,0:0:0:0:
214,235,93704,2,0,P|214:284|196:330,1,100,0|2,1:0|0:0,0:0:0:0:
271,159,94030,1,8,0:0:0:0:
364,322,94193,1,0,3:0:0:0:
434,166,94357,6,0,L|444:66,1,100,4|0,1:0|0:0,0:0:0:0:
351,202,94683,2,0,L|361:301,1,100,8|0,0:0|0:0,0:0:0:0:
227,84,95009,2,0,L|127:73,1,100,0|2,1:0|0:0,0:0:0:0:
37,282,95335,2,0,L|136:271,1,100,8|0,0:0|3:0,0:0:0:0:
329,192,95661,5,0,1:0:0:0:
151,175,95824,1,0,0:0:0:0:
267,303,95987,1,8,0:0:0:0:
133,178,96150,5,0,0:0:0:0:
279,319,96313,1,0,1:0:0:0:
255,100,96476,1,2,0:0:0:0:
160,270,96639,2,0,L|60:280,1,100,8|0,0:0|0:0,0:0:0:0:
266,83,96965,5,8,0:0:0:0:
276,66,97291,6,0,B|355:41|354:90|425:61,1,150,12|0,0:0|0:0,0:0:0:0:
501,38,97617,2,0,L|493:87,1,50,12|0,0:0|0:0,0:0:0:0:
416,227,97780,1,8,0:0:0:0:
412,203,97861,1,8,0:0:0:0:
408,178,97943,1,8,0:0:0:0:
307,274,98106,1,8,0:0:0:0:
283,278,98187,1,8,0:0:0:0:
258,282,98270,6,0,P|212:274|171:293,1,92.999996310425,8|0,0:0|0:0,0:0:0:0:
156,377,98596,6,0,P|90:320|108:236,1,179.999994506836,12|0,0:0|0:0,0:0:0:0:
172,168,98922,6,0,P|191:98|149:38,1,150,12|0,0:0|0:0,0:0:0:0:
109,111,99248,6,0,P|50:116|8:76,1,120,12|0,0:0|0:0,0:0:0:0:
82,42,99574,6,0,P|114:31|148:38,1,69.9999978637696,2|0,0:0|0:0,0:0:0:0:
217,98,99900,2,0,P|249:108|283:101,1,69.9999978637696,2|2,0:0|0:0,0:0:0:0:
364,53,100226,2,0,P|397:44|431:50,1,69.9999978637696,2|0,0:0|0:0,0:0:0:0:
414,206,100552,1,0,0:0:0:0:
401,115,100715,1,2,0:0:0:0:
490,199,100878,6,0,L|485:268,1,69.9999978637696,2|0,0:0|0:0,0:0:0:0:
344,330,101204,1,0,0:0:0:0:
440,352,101367,1,2,0:0:0:0:
399,207,101530,1,2,0:0:0:0:
335,348,101693,1,0,0:0:0:0:
226,163,101857,5,4,1:0:0:0:
490,199,102020,1,4,1:0:0:0:
256,192,102101,12,0,108052,0:0:0:0:
