osu file format v14

[General]
AudioFilename: weeb.mp3
AudioLeadIn: 0
PreviewTime: 64601
Countdown: 0
SampleSet: Soft
StackLeniency: 0.7
Mode: 0
LetterboxInBreaks: 0
WidescreenStoryboard: 1

[Editor]
Bookmarks: 65635,81287,89113,99548
DistanceSpacing: 1.1
BeatDivisor: 4
GridSize: 4
TimelineZoom: 2.1

[Metadata]
Title:Yuki no Youni
TitleUnicode:雪のように
Artist:AKINO with bless4
ArtistUnicode:AKINO with bless4
Creator:Sotarks
Version:Kibb's Expert
Source:
Tags:akitoshi corinn electoz pkhg janpai [_Sc4v4ng3r_] Sc4v4ng3r appleeaterx Doormat Deppyforce davided kibbleru pentori kalibe hb24 fcl linada christmas
BeatmapID:1129784
BeatmapSetID:532165

[Difficulty]
HPDrainRate:6
CircleSize:4
OverallDifficulty:7.8
ApproachRate:9
SliderMultiplier:1.7
SliderTickRate:1

[Events]
//Background and Video events
0,0,"christmas.jpg",0,0
//Break Periods
//Storyboard Layer 0 (Background)
//Storyboard Layer 1 (Fail)
//Storyboard Layer 2 (Pass)
//Storyboard Layer 3 (Foreground)
//Storyboard Sound Samples

[TimingPoints]
444,326.086956521739,4,2,22,22,1,0
5661,-142.857142857143,4,2,22,22,0,0
6802,-142.857142857143,4,2,22,5,0,0
6965,-142.857142857143,4,2,22,32,0,0
7780,-142.857142857143,4,2,22,5,0,0
7943,-142.857142857143,4,2,22,22,0,0
8270,-142.857142857143,4,2,22,32,0,0
8922,-142.857142857143,4,2,22,10,0,0
9574,-142.857142857143,4,2,22,32,0,0
10878,-200,4,2,22,42,0,0
18704,-100,4,2,22,52,0,0
20824,-100,4,2,22,52,0,0
21313,-100,4,2,22,62,0,0
30770,-83.3333333333333,4,2,22,72,0,0
31014,-83.3333333333333,4,2,22,5,0,0
31096,-74.0740740740741,4,2,22,62,0,0
31340,-74.0740740740741,4,2,22,5,0,0
31422,-66.6666666666667,4,2,22,52,0,0
31666,-66.6666666666667,4,2,22,5,0,0
31748,-142.857142857143,4,2,22,42,0,0
34683,-142.857142857143,4,2,22,42,0,0
34846,-142.857142857143,4,2,22,42,0,0
38596,-142.857142857143,4,2,22,42,0,0
38759,-142.857142857143,4,2,22,42,0,0
42183,-111.111111111111,4,2,22,42,0,0
52617,-80,4,2,22,52,0,0
53270,-100,4,2,22,52,0,0
55226,-80,4,2,22,52,0,0
55878,-100,4,2,22,52,0,0
57020,-80,4,2,22,52,0,0
58487,-100,4,2,22,52,0,0
62726,-80,4,2,22,52,0,0
64030,-100,4,2,22,52,0,0
64357,-100,4,2,22,52,0,0
64683,-83.3333333333333,4,2,22,62,0,0
64927,-100,4,2,22,5,0,0
65009,-74.0740740740741,4,2,22,72,0,0
65253,-100,4,2,22,5,0,0
65335,-66.6666666666667,4,2,22,82,0,0
65579,-100,4,2,22,5,0,0
65661,-100,4,2,22,62,0,1
72509,-100,4,2,22,72,0,1
72835,-100,4,2,22,82,0,1
73161,-100,4,2,22,72,0,1
73487,-100,4,2,22,62,0,1
81313,-111.111111111111,4,2,22,52,0,0
83922,-181.818181818182,4,2,22,42,0,0
84411,-181.818181818182,4,2,22,42,0,0
84900,-166.666666666667,4,2,22,32,0,0
89058,-100,4,2,22,5,0,0
89139,-100,4,2,22,62,0,0
96965,-142.857142857143,4,2,22,62,0,0
97291,-100,4,2,22,62,0,0
97617,-80,4,2,22,62,0,0
98270,-200,4,2,22,62,0,0
98596,-80,4,2,22,62,0,0
98922,-80,4,2,22,62,0,0
99248,-80,4,2,22,62,0,0
99574,-133.333333333333,4,2,22,42,0,0
101857,-100,4,2,22,72,0,0
108052,-100,4,2,22,22,0,0

[Colours]
Combo1 : 38,187,230
Combo2 : 211,10,10
Combo3 : 0,221,38
Combo4 : 255,185,244
SliderBorder : 243,178,255
SliderTrackOverride : 50,33,29

[HitObjects]
256,192,444,12,2,5335,0:0:0:0:
349,222,5661,6,0,B|310:198|262:203|262:203|207:204|170:124|235:82|307:105|301:176|242:214|242:214|215:232|175:218,1,416.499987289429,2|0,0:0|0:0,0:0:0:0:
175,218,6965,2,0,B|130:216|108:276|108:276|135:171|78:179|81:120|103:81,1,297.499990921021,2|0,0:0|0:0,0:0:0:0:
118,63,7943,2,0,L|59:54,1,59.4999981842042,2|0,0:0|0:0,0:0:0:0:
43,36,8270,6,0,B|153:4|173:87|274:48,1,237.999992736817,2|0,0:0|0:0,0:0:0:0:
292,33,9574,2,0,L|274:180,1,148.74999546051,2|0,0:0|0:0,0:0:0:0:
222,249,10063,1,0,1:0:0:0:
250,265,10145,1,0,1:0:0:0:
282,266,10226,1,8,0:0:0:0:
468,242,10878,6,0,P|411:182|322:189,1,170,6|0,0:0|3:0,0:0:0:0:
376,273,12183,5,4,3:0:0:0:
302,121,12346,2,0,P|303:163|306:205,1,85,4|8,3:0|3:0,0:0:0:0:
388,153,12835,1,0,0:0:0:0:
116,178,12998,1,4,3:0:0:0:
201,210,13161,2,0,P|203:188|205:167,1,42.5,4|0,3:0|0:0,0:0:0:0:
165,293,13487,6,0,P|213:253|275:257,1,127.5,6|8,0:0|0:0,0:0:0:0:
116,178,14139,1,8,0:0:0:0:
242,337,14791,5,6,0:0:0:0:
388,279,14954,2,0,P|345:274|303:269,1,85,8|0,0:0|0:0,0:0:0:0:
303,269,15362,1,0,1:0:0:0:
303,269,15443,1,0,1:0:0:0:
202,215,15607,5,8,0:0:0:0:
338,182,15770,1,4,3:0:0:0:
196,122,15933,1,8,3:0:0:0:
347,158,16096,6,0,P|375:109|319:15,1,170,6|0,0:0|3:0,0:0:0:0:
285,96,17074,1,8,3:0:0:0:
412,196,17400,6,0,P|398:236|398:278,1,85,4|0,3:0|0:0,0:0:0:0:
335,139,17889,2,0,L|242:126,1,85,4|8,3:0|3:0,0:0:0:0:
182,188,18378,1,8,3:0:0:0:
311,43,18704,5,6,0:0:0:0:
174,75,19030,1,0,0:0:0:0:
319,229,19357,5,6,0:0:0:0:
171,194,19683,1,2,0:0:0:0:
263,140,20009,5,8,0:0:0:0:
325,339,20172,1,2,0:0:0:0:
465,208,20335,1,8,0:0:0:0:
465,208,20416,1,0,0:0:0:0:
465,208,20498,1,2,0:0:0:0:
228,290,20661,5,8,0:0:0:0:
365,133,20824,1,8,0:0:0:0:
365,133,20905,1,8,0:0:0:0:
365,133,20987,1,8,0:0:0:0:
425,364,21150,2,0,P|428:343|432:322,1,42.5,8|8,0:0|0:0,0:0:0:0:
478,226,21313,6,0,B|401:195|387:249|310:221,1,170,4|8,1:0|0:0,0:0:0:0:
222,145,21802,1,0,0:0:0:0:
156,249,21965,2,0,P|149:292|142:333,2,85,0|2|8,1:0|0:0|0:0,0:0:0:0:
35,281,22454,1,0,3:0:0:0:
266,304,22617,6,0,P|320:240|306:160,1,170,0|8,1:0|0:0,0:0:0:0:
184,145,23107,1,0,0:0:0:0:
244,29,23270,2,0,L|302:36,1,42.5,0|0,1:0|0:0,0:0:0:0:
386,45,23433,1,2,0:0:0:0:
184,145,23596,2,0,P|142:136|100:133,1,85,8|2,0:0|0:0,0:0:0:0:
22,333,23922,6,0,P|85:280|166:294,1,170,0|8,1:0|0:0,0:0:0:0:
276,234,24411,1,0,0:0:0:0:
360,344,24574,2,0,P|402:346|442:333,2,85,0|0|8,1:0|0:0|0:0,0:0:0:0:
460,143,25063,1,0,3:0:0:0:
216,208,25226,6,0,B|295:186|303:248|380:225,1,170,0|8,1:0|0:0,0:0:0:0:
352,131,25715,1,2,0:0:0:0:
241,302,25878,5,0,1:0:0:0:
356,106,26041,1,2,0:0:0:0:
390,273,26204,1,8,0:0:0:0:
261,80,26367,1,0,3:0:0:0:
49,205,26530,6,0,P|130:220|190:163,1,170,4|8,1:0|0:0,0:0:0:0:
98,114,27020,1,0,0:0:0:0:
262,266,27183,2,0,P|242:303|241:345,2,85,0|2|8,1:0|0:0|0:0,0:0:0:0:
140,316,27672,1,0,3:0:0:0:
355,330,27835,6,0,P|392:257|357:183,1,170,0|8,1:0|0:0,0:0:0:0:
228,105,28324,1,0,0:0:0:0:
332,44,28487,2,0,P|329:65|326:86,1,42.5,0|0,1:0|0:0,0:0:0:0:
262,190,28650,1,2,0:0:0:0:
47,66,28813,2,0,P|90:63|132:58,1,85,8|0,0:0|0:0,0:0:0:0:
179,261,29139,6,0,P|118:205|36:214,1,170,0|8,1:0|0:0,0:0:0:0:
186,379,29628,1,2,0:0:0:0:
297,327,29791,5,0,1:0:0:0:
281,160,29954,1,8,0:0:0:0:
278,185,30036,1,8,0:0:0:0:
275,210,30118,1,8,0:0:0:0:
91,350,30280,1,8,0:0:0:0:
89,325,30361,1,8,0:0:0:0:
86,300,30443,1,6,0:0:0:0:
60,275,30770,6,0,P|130:249|193:287,1,152.999995330811,12|0,0:0|0:0,0:0:0:0:
297,337,31096,6,0,B|295:279|339:243|339:243|329:206|296:193,1,172.125000656605,12|0,0:0|0:0,0:0:0:0:
195,148,31422,6,0,B|283:119|296:183|381:146,1,191.250007295609,12|0,0:0|0:0,0:0:0:0:
329,65,31748,6,0,P|300:57|270:54,1,59.4999981842042,0|0,1:0|0:0,0:0:0:0:
267,238,32074,2,0,P|295:245|325:248,1,59.4999981842042,0|0,1:0|0:0,0:0:0:0:
147,201,32400,2,0,P|136:228|133:258,1,59.4999981842042,0|2,1:0|0:0,0:0:0:0:
173,102,32726,1,8,0:0:0:0:
61,129,32889,6,0,P|32:170|35:249,1,118.999996368408,0|0,0:0|0:0,0:0:0:0:
119,334,33378,2,0,P|177:337|225:303,2,118.999996368408,0|0|0,1:0|1:0|1:0,0:0:0:0:
217,201,34193,1,2,0:0:0:0:
318,260,34357,6,0,L|396:269,1,59.4999981842042,0|0,1:0|0:0,0:0:0:0:
217,201,34683,2,0,L|139:210,1,59.4999981842042,12|0,0:0|0:0,0:0:0:0:
313,136,35009,2,0,P|318:107|323:78,1,59.4999981842042,0|2,1:0|0:0,0:0:0:0:
223,34,35335,2,0,P|218:63|213:92,1,59.4999981842042,0|2,1:0|0:0,0:0:0:0:
404,183,35661,6,0,P|428:128|426:69,1,118.999996368408,0|0,1:0|1:0,0:0:0:0:
316,243,36150,1,0,0:0:0:0:
213,195,36313,2,0,L|153:190,1,59.4999981842042,0|2,1:0|0:0,0:0:0:0:
259,96,36639,2,0,L|318:100,1,59.4999981842042,8|2,0:0|0:0,0:0:0:0:
149,35,36965,6,0,P|94:60|33:52,2,118.999996368408,4|0|0,1:0|1:0|1:0,0:0:0:0:
132,158,37780,1,2,0:0:0:0:
242,122,37943,2,0,P|246:151|243:180,1,59.4999981842042,0|2,1:0|0:0,0:0:0:0:
351,318,38270,6,0,P|347:259|366:203,1,118.999996368408,0|12,1:0|0:0,0:0:0:0:
464,149,38759,1,0,0:0:0:0:
246,278,38922,2,0,L|186:282,1,59.4999981842042,0|2,1:0|0:0,0:0:0:0:
212,135,39248,2,0,L|271:130,1,59.4999981842042,0|2,1:0|0:0,0:0:0:0:
123,197,39574,6,0,P|82:200|17:151,1,118.999996368408,0|0,1:0|1:0,0:0:0:0:
101,103,40063,1,0,0:0:0:0:
228,174,40226,2,0,P|227:203|222:233,1,59.4999981842042,0|2,1:0|0:0,0:0:0:0:
345,369,40552,2,0,P|340:339|339:309,1,59.4999981842042,8|0,0:0|0:0,0:0:0:0:
228,344,40878,5,0,1:0:0:0:
384,211,41041,1,8,0:0:0:0:
384,211,41204,1,0,0:0:0:0:
266,181,41367,5,0,0:0:0:0:
468,291,41530,1,8,3:0:0:0:
467,106,41693,1,8,3:0:0:0:
467,106,41775,1,8,3:0:0:0:
467,106,41857,2,0,L|371:115,1,89.2499972763062,12|0,0:0|0:0,0:0:0:0:
265,181,42183,6,0,P|191:182|132:136,1,152.999995330811,4|8,1:0|0:0,0:0:0:0:
224,79,42672,1,0,0:0:0:0:
142,270,42835,2,0,P|161:303|168:341,1,76.4999976654053,0|2,1:0|0:0,0:0:0:0:
318,299,43161,2,0,P|323:261|343:228,1,76.4999976654053,8|2,0:0|0:0,0:0:0:0:
401,123,43487,6,0,B|337:147|323:102|250:129,1,152.999995330811,0|8,1:0|0:0,0:0:0:0:
151,198,43976,2,0,P|113:191|75:183,2,76.4999976654053,0|0|2,0:0|1:0|0:0,0:0:0:0:
257,276,44465,2,0,P|263:313|269:351,1,76.4999976654053,8|2,0:0|0:0,0:0:0:0:
407,290,44791,6,0,P|450:230|441:156,1,152.999995330811,0|8,1:0|0:0,0:0:0:0:
342,203,45280,1,0,0:0:0:0:
321,87,45443,2,0,P|287:104|249:104,1,76.4999976654053,0|2,1:0|0:0,0:0:0:0:
165,320,45770,2,0,P|198:302|236:302,1,76.4999976654053,8|2,0:0|0:0,0:0:0:0:
342,203,46096,5,0,1:0:0:0:
197,198,46259,2,0,P|159:192|121:187,1,76.4999976654053,0|8,0:0|0:0,0:0:0:0:
265,109,46585,1,0,0:0:0:0:
374,370,46748,2,0,L|387:294,1,76.4999976654053,0|0,1:0|0:0,0:0:0:0:
370,80,47074,2,0,L|356:155,1,76.4999976654053,8|0,0:0|0:0,0:0:0:0:
124,272,47400,6,0,B|194:288|203:240|273:257,1,152.999995330811,0|8,1:0|0:0,0:0:0:0:
229,90,47889,2,0,B|159:72|149:120|79:104,1,152.999995330811,2|0,0:0|1:0,0:0:0:0:
331,158,48378,2,0,P|369:161|405:147,1,76.4999976654053,8|0,0:0|0:0,0:0:0:0:
229,90,48704,6,0,P|179:145|187:219,1,152.999995330811,0|8,1:0|0:0,0:0:0:0:
313,352,49193,2,0,P|306:314|299:276,1,76.4999976654053,2|0,0:0|0:0,0:0:0:0:
312,155,49520,1,0,1:0:0:0:
477,234,49683,2,0,P|439:227|401:220,1,76.4999976654053,8|0,0:0|0:0,0:0:0:0:
108,114,50009,6,0,P|163:123|212:88,1,114.749996498108,4|0,1:0|0:0,0:0:0:0:
147,42,50335,1,8,0:0:0:0:
211,245,50498,6,0,P|266:235|315:270,1,114.749996498108,4|0,1:0|0:0,0:0:0:0:
250,317,50824,1,8,3:0:0:0:
382,152,50987,1,8,0:0:0:0:
428,323,51150,6,0,P|432:285|437:247,1,76.4999976654053,2|4,0:0|1:0,0:0:0:0:
510,174,51476,1,0,0:0:0:0:
318,252,51639,1,2,0:0:0:0:
346,58,51802,1,2,0:0:0:0:
429,113,51965,5,8,0:0:0:0:
403,141,52046,1,8,0:0:0:0:
368,156,52128,1,8,0:0:0:0:
330,155,52210,1,8,0:0:0:0:
296,138,52291,1,8,0:0:0:0:
262,121,52373,1,8,0:0:0:0:
224,120,52454,1,8,0:0:0:0:
189,135,52536,1,8,0:0:0:0:
163,165,52617,6,0,B|191:227|134:248|164:320,1,159.375,4|0,1:0|0:0,0:0:0:0:
299,290,52943,2,0,P|273:283|247:276,1,53.125,8|0,0:0|0:0,0:0:0:0:
79,199,53107,1,8,0:0:0:0:
290,183,53270,5,2,0:0:0:0:
249,375,53433,1,2,0:0:0:0:
290,183,53596,1,8,0:0:0:0:
464,321,53759,6,0,P|400:269|319:285,1,170,0|0,1:0|1:0,0:0:0:0:
190,150,54248,2,0,L|272:168,1,85,8|0,0:0|0:0,0:0:0:0:
324,384,54574,2,0,L|241:365,1,85,0|2,1:0|0:0,0:0:0:0:
29,307,54900,2,0,P|70:297|112:287,1,85,8|0,0:0|0:0,0:0:0:0:
205,196,55226,6,0,B|151:179|151:179|103:194|103:194|52:179,1,159.375,4|0,1:0|0:0,0:0:0:0:
95,48,55552,2,0,P|98:74|101:100,1,53.125,8|0,0:0|0:0,0:0:0:0:
150,271,55715,1,8,0:0:0:0:
195,92,55878,5,2,0:0:0:0:
46,193,56041,1,2,0:0:0:0:
231,321,56204,1,8,0:0:0:0:
150,271,56367,6,0,B|230:242|240:304|315:279,1,170,0|0,1:0|1:0,0:0:0:0:
404,200,56857,1,8,0:0:0:0:
287,132,57020,5,0,1:0:0:0:
287,132,57101,1,0,1:0:0:0:
287,132,57183,2,0,P|283:158|280:184,1,53.125,8|0,0:0|0:0,0:0:0:0:
150,271,57346,1,0,1:0:0:0:
150,271,57427,1,0,1:0:0:0:
150,271,57509,2,0,P|153:244|156:218,1,53.125,8|0,0:0|0:0,0:0:0:0:
19,42,57672,1,0,1:0:0:0:
19,42,57753,1,0,1:0:0:0:
19,42,57835,6,0,B|2:152|2:152|25:138|46:134,1,159.375,12|0,0:0|0:0,0:0:0:0:
161,84,58161,2,0,P|137:72|110:71,1,53.125,8|0,0:0|0:0,0:0:0:0:
58,226,58324,1,8,0:0:0:0:
216,180,58487,5,2,0:0:0:0:
46,133,58650,1,2,0:0:0:0:
216,180,58813,1,8,0:0:0:0:
4,300,58976,6,0,P|75:252|158:277,1,170,0|0,1:0|1:0,0:0:0:0:
147,48,59465,2,0,P|130:86|132:128,1,85,8|0,0:0|0:0,0:0:0:0:
254,337,59791,2,0,P|271:298|269:256,1,85,0|2,1:0|0:0,0:0:0:0:
394,121,60117,2,0,P|331:133|268:145,1,127.5,8|0,0:0|0:0,0:0:0:0:
169,155,60443,5,8,0:0:0:0:
344,224,60607,1,2,0:0:0:0:
301,49,60770,1,8,0:0:0:0:
118,53,60933,5,2,0:0:0:0:
268,145,61096,1,8,0:0:0:0:
91,242,61259,1,2,0:0:0:0:
169,155,61422,5,8,0:0:0:0:
258,358,61585,1,2,0:0:0:0:
324,81,61748,5,8,0:0:0:0:
195,263,61911,2,0,P|236:254|278:246,1,85,2|8,0:0|0:0,0:0:0:0:
413,300,62237,5,2,0:0:0:0:
195,142,62400,2,0,P|153:135|111:128,1,85,8|2,0:0|0:0,0:0:0:0:
299,35,62726,2,0,L|304:87,1,53.125,8|8,3:0|3:0,0:0:0:0:
426,131,62889,2,0,L|431:183,1,53.125,8|8,3:0|3:0,0:0:0:0:
315,262,63052,5,12,0:0:0:0:
417,30,63215,1,0,0:0:0:0:
173,92,63378,2,0,L|178:144,1,53.125,2|0,0:0|0:0,0:0:0:0:
186,276,63541,5,12,0:0:0:0:
291,168,63704,1,0,0:0:0:0:
59,48,63867,1,2,0:0:0:0:
0,225,64030,6,0,P|41:215|83:209,1,85,12|0,0:0|0:0,0:0:0:0:
291,168,64357,2,0,P|248:162|207:152,1,85,8|0,0:0|0:0,0:0:0:0:
394,109,64683,6,0,P|426:175|395:243,1,152.999995330811,12|0,0:0|0:0,0:0:0:0:
199,306,65009,6,0,B|242:273|299:278|299:278|308:309|340:327,1,172.125000656605,12|0,0:0|0:0,0:0:0:0:
291,168,65335,6,0,B|205:143|187:202|103:179,1,191.250007295609,12|0,0:0|0:0,0:0:0:0:
58,168,65661,6,0,P|106:235|99:318,1,170,4|8,1:0|0:0,0:0:0:0:
143,78,66150,1,0,0:0:0:0:
238,251,66313,2,0,P|276:271|318:276,1,85,0|0,1:0|1:0,0:0:0:0:
435,87,66639,2,0,P|397:67|355:62,1,85,8|2,0:0|0:0,0:0:0:0:
204,151,66965,6,0,B|291:133|289:187|369:174,1,170,0|8,0:0|0:0,0:0:0:0:
228,40,67454,1,0,0:0:0:0:
120,239,67617,1,0,1:0:0:0:
51,50,67780,1,0,1:0:0:0:
214,339,67943,2,0,P|224:297|236:256,1,85,8|0,0:0|0:0,0:0:0:0:
11,144,68270,6,0,P|93:146|148:85,1,170,0|8,1:0|0:0,0:0:0:0:
274,50,68759,1,0,0:0:0:0:
202,216,68922,1,0,1:0:0:0:
51,50,69085,1,0,1:0:0:0:
325,133,69248,1,8,0:0:0:0:
162,312,69411,6,0,P|157:227|153:142,1,170,2|2,0:0|0:0,0:0:0:0:
181,39,69900,2,0,P|139:31|97:24,1,85,8|0,0:0|0:0,0:0:0:0:
280,212,70226,2,0,P|321:219|363:226,1,85,0|0,1:0|0:0,0:0:0:0:
162,312,70552,2,0,P|120:304|78:297,1,85,8|2,0:0|0:0,0:0:0:0:
218,90,70878,6,0,P|262:159|230:239,1,170,2|8,0:0|0:0,0:0:0:0:
141,168,71367,1,2,0:0:0:0:
336,64,71530,1,0,0:0:0:0:
381,180,71693,1,2,0:0:0:0:
188,74,71857,2,0,P|145:75|105:57,1,85,8|0,0:0|0:0,0:0:0:0:
268,198,72183,6,0,L|280:282,1,85,0|0,1:0|1:0,0:0:0:0:
361,154,72509,1,8,0:0:0:0:
179,250,72672,1,2,0:0:0:0:
418,264,72835,5,8,0:0:0:0:
121,115,72998,1,2,0:0:0:0:
430,74,73161,1,8,0:0:0:0:
76,224,73324,1,2,0:0:0:0:
252,335,73487,6,0,P|290:262|260:185,1,170,4|8,1:0|0:0,0:0:0:0:
144,374,73976,1,0,0:0:0:0:
76,224,74139,2,0,L|60:307,1,85,0|0,1:0|1:0,0:0:0:0:
176,158,74465,1,8,0:0:0:0:
97,74,74628,6,0,P|55:82|13:89,1,85,2|0,0:0|0:0,0:0:0:0:
224,35,74954,1,2,0:0:0:0:
176,158,75117,1,12,0:0:0:0:
312,111,75280,1,0,0:0:0:0:
328,225,75443,5,12,0:0:0:0:
224,35,75607,1,0,0:0:0:0:
224,35,75688,1,0,0:0:0:0:
224,35,75770,1,12,0:0:0:0:
417,80,75933,1,0,0:0:0:0:
201,180,76096,6,0,B|121:157|114:214|34:194,1,170,4|8,1:0|0:0,0:0:0:0:
66,90,76585,1,0,0:0:0:0:
300,233,76748,2,0,P|318:194|321:152,1,85,0|0,1:0|1:0,0:0:0:0:
166,285,77074,2,0,P|169:327|187:365,1,85,8|2,0:0|0:0,0:0:0:0:
193,163,77400,6,0,P|134:115|35:131,1,170,0|8,0:0|0:0,0:0:0:0:
257,54,77889,1,0,0:0:0:0:
322,136,78052,2,0,P|365:129|406:122,1,85,0|0,1:0|1:0,0:0:0:0:
232,269,78378,2,0,P|189:275|148:282,1,85,8|2,0:0|0:0,0:0:0:0:
361,340,78704,6,0,P|372:299|369:257,1,85,0|2,1:0|0:0,0:0:0:0:
212,69,79030,2,0,P|200:109|203:151,1,85,8|0,0:0|0:0,0:0:0:0:
240,294,79357,1,0,1:0:0:0:
348,111,79520,1,0,1:0:0:0:
95,120,79683,1,8,0:0:0:0:
301,210,79846,6,0,P|222:186|152:231,1,170,2|2,0:0|0:0,0:0:0:0:
85,35,80335,2,0,L|94:119,1,85,8|0,0:0|0:0,0:0:0:0:
240,294,80661,2,0,L|249:378,1,85,0|0,1:0|1:0,0:0:0:0:
415,220,80987,2,0,L|405:135,1,85,8|2,0:0|0:0,0:0:0:0:
294,57,81313,6,0,P|226:90|150:91,2,152.999995330811,6|0|8,0:0|0:0|0:0,0:0:0:0:
264,191,82128,2,0,P|247:226|244:264,1,76.4999976654053,0|2,0:0|0:0,0:0:0:0:
418,333,82454,6,0,P|457:269|445:195,1,152.999995330811,8|8,0:0|0:0,0:0:0:0:
332,95,82943,2,0,L|483:72,1,152.999995330811,2|8,0:0|0:0,0:0:0:0:
305,195,83433,1,0,0:0:0:0:
229,39,83596,2,0,P|225:77|220:115,1,76.4999976654053,2|8,0:0|0:0,0:0:0:0:
125,284,83922,6,0,B|72:281|77:345|118:354|162:341|162:341|145:189|145:189|171:218|215:221,1,374.000011413575,2|0,0:0|0:0,0:0:0:0:
256,192,85308,12,0,88976,0:0:0:0:
229,128,89139,6,0,P|163:179|82:166,1,170,4|8,1:0|0:0,0:0:0:0:
137,77,89628,1,0,0:0:0:0:
251,264,89791,2,0,P|233:302|233:352,2,85,0|2|8,1:0|0:0|0:0,0:0:0:0:
345,328,90280,1,0,3:0:0:0:
398,157,90443,6,0,B|322:128|310:179|230:150,1,170,0|8,1:0|0:0,0:0:0:0:
155,59,90933,1,0,0:0:0:0:
103,269,91096,2,0,P|123:264|144:260,1,42.5,0|0,1:0|0:0,0:0:0:0:
251,264,91259,1,2,0:0:0:0:
155,58,91422,2,0,P|113:67|71:73,1,85,8|2,0:0|0:0,0:0:0:0:
279,142,91748,6,0,P|341:153|419:79,1,170,0|8,1:0|0:0,0:0:0:0:
324,47,92237,1,0,0:0:0:0:
163,167,92400,2,0,P|156:125|166:83,2,85,0|0|8,1:0|0:0|0:0,0:0:0:0:
267,226,92889,1,0,3:0:0:0:
30,328,93052,6,0,P|98:281|181:303,1,170,0|8,1:0|0:0,0:0:0:0:
267,226,93541,1,2,0:0:0:0:
115,382,93704,5,0,1:0:0:0:
227,142,93867,1,2,0:0:0:0:
270,340,94030,1,8,0:0:0:0:
133,133,94193,1,0,3:0:0:0:
306,244,94357,6,0,B|228:220|218:276|140:256,1,170,4|8,1:0|0:0,0:0:0:0:
270,340,94846,1,0,0:0:0:0:
83,157,95009,2,0,P|125:153|167:148,2,85,0|2|8,1:0|0:0|0:0,0:0:0:0:
134,329,95498,1,0,3:0:0:0:
219,247,95661,6,0,P|302:239|363:294,1,170,0|8,1:0|0:0,0:0:0:0:
270,340,96150,1,0,0:0:0:0:
467,172,96313,2,0,P|462:192|458:213,1,42.5,0|0,1:0|0:0,0:0:0:0:
452,353,96476,1,2,0:0:0:0:
324,205,96639,2,0,P|282:196|241:183,1,85,8|0,0:0|0:0,0:0:0:0:
56,85,96965,6,0,P|99:73|143:67,1,89.2499972763062,8|0,0:0|0:0,0:0:0:0:
137,166,97291,6,0,L|123:292,1,127.5,12|0,0:0|0:0,0:0:0:0:
261,219,97617,6,0,L|268:293,1,53.125,12|0,0:0|0:0,0:0:0:0:
237,356,97780,1,8,0:0:0:0:
262,362,97862,1,8,0:0:0:0:
288,361,97943,1,8,0:0:0:0:
406,146,98107,1,8,0:0:0:0:
406,146,98188,1,8,0:0:0:0:
406,146,98270,6,0,L|324:135,1,63.75,8|0,0:0|0:0,0:0:0:0:
261,219,98596,6,0,B|205:216|162:241|162:241|136:228|120:203,1,159.375,12|0,0:0|0:0,0:0:0:0:
214,53,98922,2,0,B|158:56|115:31|115:31|89:44|73:68,1,159.375,12|0,0:0|0:0,0:0:0:0:
21,167,99248,2,0,L|184:141,1,159.375,12|0,0:0|0:0,0:0:0:0:
271,122,99574,5,2,0:0:0:0:
253,213,99737,1,0,0:0:0:0:
379,257,99900,1,2,0:0:0:0:
375,163,100063,1,2,0:0:0:0:
293,300,100226,5,2,0:0:0:0:
233,227,100389,1,0,0:0:0:0:
140,238,100552,1,0,0:0:0:0:
99,322,100715,1,2,0:0:0:0:
72,174,100878,5,2,0:0:0:0:
140,238,101041,1,0,0:0:0:0:
233,227,101204,1,0,0:0:0:0:
99,322,101367,5,2,0:0:0:0:
172,144,101530,2,0,P|176:112|179:80,1,63.7500024318696,2|0,0:0|0:0,0:0:0:0:
202,322,101857,5,4,1:0:0:0:
401,172,102020,1,4,1:0:0:0:
256,192,102101,12,0,108052,0:0:0:0:
