osu file format v14

[General]
AudioFilename: weeb.mp3
AudioLeadIn: 0
PreviewTime: 64601
Countdown: 0
SampleSet: Soft
StackLeniency: 0.4
Mode: 0
LetterboxInBreaks: 0
WidescreenStoryboard: 0

[Editor]
DistanceSpacing: 2.2
BeatDivisor: 4
GridSize: 8
TimelineZoom: 1.9

[Metadata]
Title:Yuki no Youni
TitleUnicode:雪のように
Artist:AKINO with bless4
ArtistUnicode:AKINO with bless4
Creator:Sotarks
Version:Kalibe's Extra
Source:
Tags:akitoshi corinn electoz pkhg janpai [_Sc4v4ng3r_] Sc4v4ng3r appleeaterx Doormat Deppyforce davided kibbleru pentori kalibe hb24 fcl linada christmas
BeatmapID:1127621
BeatmapSetID:532165

[Difficulty]
HPDrainRate:6
CircleSize:4.2
OverallDifficulty:8
ApproachRate:9.2
SliderMultiplier:1.8
SliderTickRate:1

[Events]
//Background and Video events
0,0,"kaleeb.jpg",0,0
//Break Periods
//Storyboard Layer 0 (Background)
//Storyboard Layer 1 (Fail)
//Storyboard Layer 2 (Pass)
//Storyboard Layer 3 (Foreground)
//Storyboard Sound Samples

[TimingPoints]
444,326.086956521739,4,2,22,22,1,0
5661,-192.307692307692,4,2,22,22,0,0
6884,-192.307692307692,4,2,22,5,0,0
6965,-161.290322580645,4,2,22,32,0,0
7862,-161.290322580645,4,2,22,5,0,0
7943,-192.307692307692,4,2,22,22,0,0
8270,-161.290322580645,4,2,22,32,0,0
9574,-138.888888888889,4,2,22,32,0,0
10878,-161.290322580645,4,2,22,42,0,0
18704,-108.695652173913,4,2,22,52,0,0
21313,-98.0392156862745,4,2,22,62,0,0
30688,-98.0392156862745,4,2,22,5,0,0
30770,-89.2857142857143,4,2,22,62,0,0
31014,-98.0392156862745,4,2,22,5,0,0
31096,-81.9672131147541,4,2,22,62,0,0
31340,-98.0392156862745,4,2,22,5,0,0
31422,-75.187969924812,4,2,22,62,0,0
31666,-98.0392156862745,4,2,22,5,0,0
31748,-121.951219512195,4,2,22,62,0,0
42183,-108.695652173913,4,2,22,62,0,0
52617,-98.0392156862744,4,2,22,62,0,0
63052,-121.951219512195,4,2,22,62,0,0
63541,-98.0392156862744,4,2,22,62,0,0
64275,-98.0392156862744,4,2,22,5,0,0
64357,-98.0392156862744,4,2,22,62,0,0
64683,-89.2857142857143,4,2,22,62,0,0
64927,-98.0392156862744,4,2,22,5,0,0
65009,-81.9672131147541,4,2,22,62,0,0
65253,-98.0392156862744,4,2,22,5,0,0
65335,-75.7575757575758,4,2,22,62,0,0
65579,-98.0392156862744,4,2,22,5,0,0
65661,-89.2857142857143,4,2,22,62,0,1
74628,-89.2857142857143,4,2,22,62,0,0
75117,-89.2857142857143,4,2,22,62,0,0
75443,-81.9672131147541,4,2,22,62,0,0
75770,-75.7575757575758,4,2,22,62,0,0
76096,-89.2857142857143,4,2,22,62,0,1
83922,-138.888888888889,4,2,22,62,0,0
84411,-161.290322580645,4,2,22,62,0,0
84900,-200,4,2,22,62,0,0
89139,-98.0392156862745,4,2,22,62,0,0
98514,-98.0392156862745,4,2,22,5,0,0
98596,-98.0392156862745,4,2,22,62,0,0
98840,-89.2857142857143,4,2,22,5,0,0
98922,-98.0392156862745,4,2,22,62,0,0
99166,-81.9672131147541,4,2,22,5,0,0
99248,-98.0392156862745,4,2,22,62,0,0
99492,-75.7575757575758,4,2,22,5,0,0
99574,-121.951219512195,4,2,22,62,0,0
108052,-121.951219512195,4,2,22,5,0,0

[Colours]
Combo1 : 252,215,3
Combo2 : 255,4,4
Combo3 : 0,159,236
Combo4 : 45,234,191

[HitObjects]
168,240,5335,5,0,0:0:0:0:
168,240,5661,2,0,P|80:232|188:120,1,350.999997857666,2|0,0:0|0:0,0:0:0:0:
176,136,6965,6,0,P|241:59|272:200,1,306.899987824402
286,193,7943,2,0,L|298:258,1,46.7999997143555
394,277,8270,6,0,B|335:280|293:239|293:239|210:314|210:314|156:206|95:188|31:201|-1:261|25:331|98:353|154:309|136:249,1,613.799975648805,2|0,0:0|0:0,0:0:0:0:
138,260,10145,1,8,0:0:0:0:
138,260,10226,1,8,0:0:0:0:
223,204,10878,6,0,B|255:52|255:52|192:107,1,223.19999114502,4|0,0:0|3:0,0:0:0:0:
203,96,12183,5,4,0:0:0:0:
312,160,12346,2,0,L|432:144,1,111.59999557251,2|0,0:0|3:0,0:0:0:0:
490,193,12835,1,2,0:0:0:0:
393,52,12998,1,0,0:0:0:0:
223,204,13161,1,0,3:0:0:0:
223,204,13487,5,4,0:0:0:0:
223,204,13976,1,8,0:0:0:0:
333,189,14139,2,0,L|303:299,1,111.59999557251,8|0,0:0|0:0,0:0:0:0:
303,296,14791,5,4,0:0:0:0:
223,204,14954,2,0,L|186:324,1,111.59999557251,8|0,0:0|0:0,0:0:0:0:
256,362,15443,1,8,0:0:0:0:
120,256,15607,1,8,0:0:0:0:
190,310,15770,1,0,3:0:0:0:
88,168,15933,1,0,3:0:0:0:
20,342,16096,5,4,0:0:0:0:
20,342,16748,2,0,P|75:335|142:326,1,111.59999557251,2|0,0:0|3:0,0:0:0:0:
176,248,17237,1,0,0:0:0:0:
291,339,17400,6,0,B|222:301|199:376|119:320,1,167.399993358765,4|0,0:0|3:0,0:0:0:0:
32,240,18052,2,0,B|25:213|25:213|37:169,1,55.799997786255,2|0,0:0|3:0,0:0:0:0:
175,194,18378,2,0,B|182:220|182:220|175:247,1,55.799997786255,0|0,3:0|3:0,0:0:0:0:
129,327,18704,5,4,0:0:0:0:
363,246,19030,1,2,0:0:0:0:
158,105,19357,1,6,0:0:0:0:
119,350,19683,1,2,0:0:0:0:
354,272,20009,5,4,0:0:0:0:
192,216,20172,1,8,0:0:0:0:
416,192,20335,5,10,0:0:0:0:
179,307,20498,1,0,0:0:0:0:
432,266,20661,5,10,0:0:0:0:
256,144,20824,1,8,0:0:0:0:
256,144,20905,1,8,0:0:0:0:
256,144,20987,1,0,0:0:0:0:
171,266,21150,2,0,L|181:323,1,41.3999986102295,8|8,0:0|0:0,0:0:0:0:
256,144,21313,6,0,B|174:106|152:184|77:136,1,183.600001120605,4|8,0:0|0:0,0:0:0:0:
62,44,21802,1,0,0:0:0:0:
212,209,21965,2,0,P|203:252|188:309,1,91.8000005603027,2|0,0:0|0:0,0:0:0:0:
125,77,22291,1,8,0:0:0:0:
275,162,22454,1,0,0:0:0:0:
120,240,22617,6,0,P|64:256|6:260,1,91.8000005603027,2|0,0:0|0:0,0:0:0:0:
125,77,22943,2,0,P|179:88|217:103,1,91.8000005603027,8|0,0:0|0:0,0:0:0:0:
384,168,23270,1,2,0:0:0:0:
304,66,23433,1,0,0:0:0:0:
204,209,23596,1,8,0:0:0:0:
304,35,23759,1,0,0:0:0:0:
451,128,23922,6,0,P|405:137|353:148,1,91.8000005603027,2|0,0:0|0:0,0:0:0:0:
214,44,24248,2,0,P|259:53|317:70,1,91.8000005603027,8|0,0:0|0:0,0:0:0:0:
456,224,24574,1,0,0:0:0:0:
256,160,24737,1,2,0:0:0:0:
304,344,24900,1,8,0:0:0:0:
361,146,25063,1,0,0:0:0:0:
212,237,25226,6,0,P|93:219|54:159,1,183.600001120605,2|8,0:0|0:0,0:0:0:0:
150,81,25715,1,0,0:0:0:0:
218,251,25878,1,2,0:0:0:0:
59,173,26041,1,0,0:0:0:0:
236,241,26204,1,8,0:0:0:0:
24,344,26367,1,0,0:0:0:0:
112,264,26530,6,0,P|224:288|304:320,1,183.600001120605,4|8,0:0|0:0,0:0:0:0:
404,180,27020,1,0,0:0:0:0:
466,263,27183,2,0,P|421:272|362:282,1,91.8000005603027,2|0,0:0|0:0,0:0:0:0:
182,121,27509,2,0,P|228:134|281:155,1,91.8000005603027,8|0,0:0|0:0,0:0:0:0:
400,204,27835,5,2,0:0:0:0:
320,80,27998,1,0,0:0:0:0:
180,195,28161,2,0,P|171:240|184:296,1,91.8000005603027,8|0,0:0|0:0,0:0:0:0:
303,227,28487,1,2,0:0:0:0:
152,104,28650,1,0,0:0:0:0:
80,328,28813,1,8,0:0:0:0:
180,195,28976,1,0,0:0:0:0:
360,274,29139,6,0,P|313:281|251:294,1,91.8000005603027,2|0,0:0|0:0,0:0:0:0:
80,232,29465,1,8,0:0:0:0:
269,149,29628,1,0,0:0:0:0:
240,384,29791,1,4,3:0:0:0:
192,248,29954,1,8,0:0:0:0:
192,248,30036,1,8,0:0:0:0:
192,248,30117,1,8,0:0:0:0:
408,216,30280,5,8,0:0:0:0:
408,216,30362,1,8,0:0:0:0:
408,216,30443,2,0,L|376:360,1,137.700000840454,4|0,0:3|0:0,0:0:0:0:
248,289,30770,6,0,B|232:214|232:214|273:140,1,151.200001845703,12|0,0:0|0:0,0:0:0:0:
313,229,31096,6,0,B|209:242|209:242|150:214,1,164.699993214569,12|0,0:0|0:0,0:0:0:0:
268,148,31422,6,0,B|293:202|293:202|276:323,1,179.549992602768,12|0,0:0|0:0,0:0:0:0:
268,364,31748,5,4,0:0:0:0:
268,364,32074,2,0,P|178:342|118:329,1,147.600002252197,2|0,0:0|0:0,0:0:0:0:
19,261,32563,2,0,P|54:251|99:238,1,73.8000011260987,0|8,0:0|0:0,0:0:0:0:
182,157,32889,6,0,L|207:323,1,147.600002252197,2|0,0:0|0:0,0:0:0:0:
274,199,33378,2,0,L|288:121,1,73.8000011260987,0|2,3:0|0:0,0:0:0:0:
90,242,33704,2,0,L|61:151,1,73.8000011260987,0|0,3:0|0:0,0:0:0:0:
203,302,34030,1,0,3:0:0:0:
203,302,34357,6,0,P|271:323|351:350,1,147.600002252197,2|8,0:0|0:0,0:0:0:0:
278,239,34846,1,0,0:0:0:0:
366,208,35009,1,2,0:0:0:0:
203,302,35172,1,2,0:0:0:0:
265,206,35335,1,0,3:0:0:0:
417,295,35498,6,0,P|350:300|267:329,1,147.600002252197,2|0,0:0|0:0,0:0:0:0:
193,229,35987,2,0,L|99:201,1,73.8000011260987,0|0,3:0|0:0,0:0:0:0:
200,336,36313,2,0,L|295:322,1,73.8000011260987,0|0,3:0|0:0,0:0:0:0:
178,141,36639,1,8,0:0:0:0:
178,141,36965,6,0,P|157:211|135:290,1,147.600002252197,4|0,0:0|0:0,0:0:0:0:
247,223,37454,1,0,0:0:0:0:
53,266,37617,2,0,L|68:346,1,73.8000011260987,2|0,0:0|0:0,0:0:0:0:
178,141,37943,1,2,0:0:0:0:
280,315,38107,6,0,P|211:299|134:281,1,147.600002252197
158,69,38596,2,0,P|167:102|180:148,1,73.8000011260987,8|0,0:0|0:0,0:0:0:0:
53,266,38922,2,0,P|60:231|70:194,1,73.8000011260987,2|0,0:0|0:0,0:0:0:0:
250,97,39248,1,0,3:0:0:0:
156,174,39411,1,0,0:0:0:0:
11,87,39574,6,0,P|78:78|165:68,1,147.600002252197,2|0,0:0|3:0,0:0:0:0:
352,112,40063,1,2,0:0:0:0:
352,112,40226,2,0,P|258:138|240:189,1,147.600002252197,0|8,0:0|0:0,0:0:0:0:
256,272,40715,1,0,0:0:0:0:
192,80,40878,5,2,0:0:0:0:
100,174,41041,2,0,B|188:198|188:198|256:170,1,147.600002252197,8|0,0:0|0:0,0:0:0:0:
387,120,41530,1,8,0:0:0:0:
387,120,41612,1,8,0:0:0:0:
387,120,41693,2,0,L|341:109,1,36.9000005630493,0|0,3:0|0:0,0:0:0:0:
270,95,41857,5,8,0:0:0:0:
256,272,42020,1,2,0:0:0:0:
435,222,42183,6,0,P|391:206|353:192,1,82.7999972204591,4|0,0:0|0:0,0:0:0:0:
227,351,42509,2,0,P|268:345|327:333,1,82.7999972204591,8|0,0:0|0:0,0:0:0:0:
240,176,42835,1,2,0:0:0:0:
88,256,42998,1,0,0:0:0:0:
308,337,43161,1,8,0:0:0:0:
164,200,43324,6,0,P|104:292|125:352,1,165.599994440918,2|0,0:0|0:0,0:0:0:0:
242,258,43813,2,0,P|253:217|265:162,1,82.7999972204591,8|0,0:0|0:0,0:0:0:0:
116,339,44139,2,0,P|150:363|197:388,1,82.7999972204591,0|0,3:0|0:0,0:0:0:0:
323,242,44465,2,0,P|278:248|236:260,1,82.7999972204591,8|0,0:0|0:0,0:0:0:0:
99,142,44791,6,0,P|175:159|260:176,1,165.599994440918,2|8,0:0|0:0,0:0:0:0:
240,87,45280,1,0,0:0:0:0:
241,257,45443,1,2,0:0:0:0:
325,59,45607,1,0,0:0:0:0:
99,142,45770,1,8,0:0:0:0:
323,242,45933,1,0,0:0:0:0:
218,66,46096,6,0,P|208:106|199:146,1,82.7999972204591,2|0,0:0|0:0,0:0:0:0:
128,328,46422,2,0,P|121:288|110:236,1,82.7999972204591,8|0,0:0|0:0,0:0:0:0:
17,127,46748,2,0,P|56:131|123:151,1,82.7999972204591,2|0,0:0|0:0,0:0:0:0:
320,208,47074,2,0,P|280:216|232:232,1,82.7999972204591,8|0,0:0|0:0,0:0:0:0:
8,336,47400,6,0,B|83:301|98:368|176:334,1,165.599994440918,4|8,0:0|0:0,0:0:0:0:
304,288,47889,2,0,L|400:304,1,82.7999972204591,0|0,3:0|0:0,0:0:0:0:
261,148,48215,1,0,3:0:0:0:
261,148,48378,2,0,L|237:236,1,82.7999972204591,8|0,0:0|0:0,0:0:0:0:
80,296,48704,6,0,P|158:276|223:341,1,165.599994440918,4|8,0:0|0:0,0:0:0:0:
338,165,49193,1,0,3:0:0:0:
347,271,49357,2,0,L|256:248,1,82.7999972204591,2|0,0:0|3:0,0:0:0:0:
263,72,49683,2,0,L|353:55,1,82.7999972204591,8|0,0:0|0:0,0:0:0:0:
503,150,50009,6,0,P|412:158|338:166,1,165.599994440918,4|8,0:0|0:0,0:0:0:0:
192,88,50498,2,0,P|168:53|136:16,1,82.7999972204591,2|0,0:0|0:0,0:0:0:0:
72,176,50824,2,0,P|38:205|9:238,1,82.7999972204591,2|8,0:0|0:0,0:0:0:0:
215,239,51150,6,0,P|287:263|391:303,1,165.599994440918,2|0,0:0|0:0,0:0:0:0:
288,70,51639,2,0,P|279:132|282:153,1,82.7999972204591,0|4,3:0|3:0,0:0:0:0:
371,295,51965,5,8,0:0:0:0:
332,279,52047,1,8,0:0:0:0:
291,282,52128,1,8,0:0:0:0:
252,298,52210,1,8,0:0:0:0:
215,317,52291,1,8,0:0:0:0:
173,322,52373,1,8,0:0:0:0:
133,310,52454,1,8,0:0:0:0:
102,281,52536,1,8,0:0:0:0:
86,238,52617,6,0,L|109:103,1,137.700000840454,4|0,0:0|0:0,0:0:0:0:
117,56,52943,1,8,0:0:0:0:
336,136,53107,1,8,0:0:0:0:
175,215,53270,2,0,P|129:226|74:240,1,91.8000005603027,2|0,0:0|0:0,0:0:0:0:
184,112,53596,1,8,0:0:0:0:
272,272,53759,6,0,P|334:311|452:282,1,183.600001120605,4|0,0:0|0:0,0:0:0:0:
385,146,54248,2,0,L|356:245,1,91.8000005603027,10|0,0:0|0:0,0:0:0:0:
140,330,54574,2,0,L|116:221,1,91.8000005603027,2|0,0:0|0:0,0:0:0:0:
300,65,54900,6,0,L|283:128,1,45.9000002801514,8|0,0:0|0:0,0:0:0:0:
195,149,55063,2,0,L|185:104,1,45.9000002801514,4|0,3:0|3:0,0:0:0:0:
398,102,55226,6,0,L|350:262,1,137.700000840454,4|0,0:0|0:0,0:0:0:0:
347,265,55552,1,8,0:0:0:0:
185,104,55715,1,8,0:0:0:0:
264,20,55878,2,0,P|276:63|292:131,1,91.8000005603027,2|0,0:0|0:0,0:0:0:0:
208,264,56204,1,8,0:0:0:0:
40,136,56367,6,0,P|143:106|216:160,1,183.600001120605,4|0,0:0|0:0,0:0:0:0:
174,332,56857,1,8,0:0:0:0:
129,193,57020,1,0,3:0:0:0:
129,193,57101,1,8,0:0:0:0:
129,193,57183,1,10,0:0:0:0:
345,248,57346,5,8,0:0:0:0:
345,248,57427,1,8,0:0:0:0:
345,248,57509,2,0,L|323:313,1,45.9000002801514,10|0,0:0|0:0,0:0:0:0:
232,172,57672,2,0,L|241:226,1,45.9000002801514,10|8,0:0|0:0,0:0:0:0:
174,332,57835,6,0,P|81:334|38:296,1,137.700000840454,4|0,0:0|0:0,0:0:0:0:
21,283,58161,1,8,0:0:0:0:
232,172,58324,1,8,0:0:0:0:
120,260,58487,2,0,P|104:211|87:153,1,91.8000005603027,2|0,0:0|0:0,0:0:0:0:
160,31,58813,1,12,0:0:0:0:
301,118,58976,6,0,L|269:313,1,183.600001120605,4|0,0:0|3:0,0:0:0:0:
386,363,59465,2,0,P|375:319|359:259,1,91.8000005603027,8|0,0:0|0:0,0:0:0:0:
147,172,59791,2,0,P|131:214|118:260,1,91.8000005603027,2|0,0:0|0:0,0:0:0:0:
248,331,60117,1,8,0:0:0:0:
248,331,60443,5,10,0:0:0:0:
205,239,60607,1,0,3:0:0:0:
363,274,60770,5,8,0:0:0:0:
224,168,60933,1,0,3:0:0:0:
118,259,61096,5,8,0:0:0:0:
238,94,61259,1,0,3:0:0:0:
205,239,61422,5,10,0:0:0:0:
255,17,61585,1,0,3:0:0:0:
147,172,61748,5,10,0:0:0:0:
330,44,61911,1,0,3:0:0:0:
363,274,62074,5,8,0:0:0:0:
168,40,62237,1,0,3:0:0:0:
210,328,62400,5,8,0:0:0:0:
387,93,62563,1,0,3:0:0:0:
147,172,62726,6,0,P|170:178|209:197,1,45.9000002801514,4|0,3:0|3:0,0:0:0:0:
368,256,62889,2,0,P|343:258|305:272,1,45.9000002801514,4|0,3:0|3:0,0:0:0:0:
218,346,63052,6,0,P|125:356|74:313,1,147.600002252197,4|8,0:0|0:0,0:0:0:0:
165,198,63541,6,0,P|221:240|213:351,1,183.600001120605,4|8,0:0|0:0,0:0:0:0:
18,302,64030,2,0,L|169:283,1,137.700000840454,2|0,0:0|0:0,0:0:0:0:
217,345,64357,1,8,0:0:0:0:
218,346,64683,6,0,P|291:358|343:287,1,151.200001845703,6|0,0:0|0:0,0:0:0:0:
428,268,65009,6,0,L|250:287,1,164.699993214569,6|0,0:0|0:0,0:0:0:0:
166,264,65335,6,0,L|360:311,1,178.199999456177,6|0,0:0|0:0,0:0:0:0:
421,346,65661,6,0,L|202:371,1,201.600002460938,4|8,0:0|0:0,0:0:0:0:
55,305,66150,1,0,0:0:0:0:
139,166,66313,2,0,L|166:266,1,100.800001230469,2|0,0:0|3:0,0:0:0:0:
216,96,66639,2,0,L|122:60,1,100.800001230469,8|0,0:0|0:0,0:0:0:0:
66,283,66965,6,0,L|177:260,1,100.800001230469,2|0,0:0|0:0,0:0:0:0:
417,352,67291,2,0,B|337:304|305:400|217:336,1,201.600002460938,8|2,0:0|0:0,0:0:0:0:
139,166,67780,1,0,0:0:0:0:
66,283,67943,1,8,0:0:0:0:
263,221,68107,1,0,0:0:0:0:
66,98,68270,6,0,P|49:145|42:210,1,100.800001230469,2|0,0:0|0:0,0:0:0:0:
224,341,68596,1,8,0:0:0:0:
153,234,68759,1,0,0:0:0:0:
54,316,68922,1,2,0:0:0:0:
163,123,69085,1,0,3:0:0:0:
224,341,69248,1,8,0:0:0:0:
368,200,69411,1,0,0:0:0:0:
447,351,69574,6,0,B|376:342|376:342|313:371|313:371|249:364,1,201.600002460938,2|8,0:0|0:0,0:0:0:0:
128,256,70063,1,0,0:0:0:0:
279,175,70226,2,0,L|296:280,1,100.800001230469,2|0,0:0|0:0,0:0:0:0:
447,351,70552,2,0,L|463:239,1,100.800001230469,8|0,0:0|3:0,0:0:0:0:
216,120,70878,6,0,B|328:160|304:80|416:120,1,201.600002460938,2|8,0:0|0:0,0:0:0:0:
312,328,71367,2,0,L|289:206,1,100.800001230469,2|0,0:0|3:0,0:0:0:0:
482,152,71693,1,0,0:0:0:0:
482,152,71857,2,0,L|458:264,1,100.800001230469,8|0,0:0|0:0,0:0:0:0:
280,64,72183,5,2,0:0:0:0:
124,231,72346,1,0,3:0:0:0:
354,162,72509,1,8,0:0:0:0:
176,40,72672,1,0,3:0:0:0:
83,320,72835,5,2,0:0:0:0:
312,240,72998,1,2,0:0:0:0:
32,144,73161,1,8,0:0:0:0:
160,256,73324,1,2,0:0:0:0:
366,157,73487,6,0,P|326:289|344:369,1,201.600002460938,4|8,0:0|0:0,0:0:0:0:
440,264,73976,1,0,0:0:0:0:
272,128,74139,2,0,P|247:173|234:222,1,100.800001230469,2|0,0:0|3:0,0:0:0:0:
336,349,74465,1,8,0:0:0:0:
427,235,74628,6,0,B|343:184|309:273|224:214,1,201.600002460938,2|0,0:0|0:0,0:0:0:0:
16,104,75117,6,0,P|65:154|144:136,1,151.200001845703,12|0,0:0|0:0,0:0:0:0:
277,61,75443,6,0,L|229:237,1,164.699993214569,6|0,0:0|0:0,0:0:0:0:
122,287,75770,6,0,P|90:199|154:135,1,178.199999456177,14|0,0:0|0:0,0:0:0:0:
314,322,76096,6,0,B|247:297|247:297|176:307|176:307|115:284,1,201.600002460938,4|8,0:0|0:0,0:0:0:0:
31,151,76585,1,0,0:0:0:0:
224,98,76748,2,0,L|248:210,1,100.800001230469,0|0,3:0|0:0,0:0:0:0:
12,250,77074,2,0,L|34:137,1,100.800001230469,8|0,0:0|0:0,0:0:0:0:
297,329,77400,6,0,P|173:354|119:301,1,201.600002460938,2|8,0:0|0:0,0:0:0:0:
144,128,77889,1,0,0:0:0:0:
326,217,78052,2,0,P|275:226|206:246,1,100.800001230469,2|0,0:0|0:0,0:0:0:0:
40,192,78378,1,8,0:0:0:0:
256,136,78541,1,0,0:0:0:0:
221,337,78704,6,0,L|121:309,1,100.800001230469,2|0,0:0|0:0,0:0:0:0:
41,159,79030,2,0,L|146:141,1,100.800001230469,8|0,0:0|0:0,0:0:0:0:
280,24,79357,1,2,0:0:0:0:
192,248,79520,1,2,0:0:0:0:
41,159,79683,1,8,0:0:0:0:
341,313,79846,6,0,B|238:268|239:360|133:305,1,201.600002460938,2|0,0:0|0:0,0:0:0:0:
256,112,80335,2,0,P|277:157|288:220,1,100.800001230469,8|0,0:0|0:0,0:0:0:0:
28,126,80661,2,0,P|38:76|59:31,1,100.800001230469,0|0,3:0|0:0,0:0:0:0:
244,89,80987,1,8,0:0:0:0:
24,154,81150,1,2,0:0:0:0:
64,300,81313,6,0,P|192:322|288:352,1,201.600002460938,4|0,0:0|3:0,0:0:0:0:
423,279,81802,2,0,L|387:377,1,100.800001230469,2|8,0:0|0:0,0:0:0:0:
237,244,82128,1,2,0:0:0:0:
237,244,82291,2,0,L|265:360,1,100.800001230469,0|8,0:0|0:0,0:0:0:0:
337,235,82617,5,2,0:0:0:0:
164,315,82780,2,0,P|114:307|43:297,1,100.800001230469,8|0,0:0|0:0,0:0:0:0:
237,244,83107,1,0,0:0:0:0:
87,115,83270,2,0,P|99:163|110:213,1,100.800001230469,8|0,0:0|0:0,0:0:0:0:
195,108,83596,1,2,0:0:0:0:
7,190,83759,1,8,0:0:0:0:
38,344,83922,6,0,P|109:321|173:314,1,129.600003164063,6|0,0:0|0:0,0:0:0:0:
489,263,84411,2,0,P|432:232|374:242,1,111.59999557251,2|0,0:0|0:0,0:0:0:0:
284,353,84900,6,0,B|263:263|388:235|388:235|236:164|348:46|348:46|267:131|183:213|63:103|79:-55|177:-96|251:-49|283:41|257:126|201:245|62:191,1,1125,2|0,0:0|0:0,0:0:0:0:
68,193,89139,6,0,B|56:257|56:257|78:316|78:316|65:374,1,183.600001120605,4|8,0:0|0:0,0:0:0:0:
176,264,89628,1,0,0:0:0:0:
284,353,89791,2,0,P|326:364|400:384,1,91.8000005603027,2|0,0:0|0:0,0:0:0:0:
252,213,90117,1,8,0:0:0:0:
184,336,90280,1,0,0:0:0:0:
352,232,90443,6,0,L|320:128,1,91.8000005603027,2|0,0:0|0:0,0:0:0:0:
96,272,90770,2,0,L|72:376,1,91.8000005603027,8|0,0:0|0:0,0:0:0:0:
280,320,91096,1,2,0:0:0:0:
80,240,91259,1,0,0:0:0:0:
248,136,91422,1,8,0:0:0:0:
200,264,91585,1,0,3:0:0:0:
80,48,91748,6,0,P|94:93|112:152,1,91.8000005603027,2|0,0:0|0:0,0:0:0:0:
172,351,92074,2,0,P|186:306|204:247,1,91.8000005603027,8|0,0:0|0:0,0:0:0:0:
357,194,92400,1,2,0:0:0:0:
270,302,92563,1,0,0:0:0:0:
120,212,92726,2,0,P|72:202|12:195,1,91.8000005603027,8|0,0:0|0:0,0:0:0:0:
241,140,93052,6,0,P|292:232|263:309,1,183.600001120605,2|8,0:0|0:0,0:0:0:0:
171,351,93541,1,0,0:0:0:0:
378,257,93704,1,2,0:0:0:0:
209,209,93867,1,2,0:0:0:0:
300,376,94030,1,8,0:0:0:0:
241,140,94193,1,0,3:0:0:0:
109,255,94357,6,0,P|151:266|197:280,1,91.8000005603027,6|0,0:0|0:0,0:0:0:0:
468,239,94683,2,0,P|425:246|374:257,1,91.8000005603027,8|0,0:0|0:0,0:0:0:0:
209,210,95009,1,2,0:0:0:0:
304,325,95172,1,0,0:0:0:0:
414,176,95335,2,0,P|426:131|439:75,1,91.8000005603027,8|0,0:0|3:0,0:0:0:0:
270,144,95661,6,0,P|292:239|305:344,1,183.600001120605,2|8,0:0|0:0,0:0:0:0:
389,194,96150,1,0,0:0:0:0:
198,78,96313,2,0,P|186:121|176:183,1,91.8000005603027,2|0,0:0|0:0,0:0:0:0:
303,324,96639,1,8,0:0:0:0:
264,184,96802,1,0,0:0:0:0:
80,240,96965,6,0,L|178:280,1,91.8000005603027,2|0,0:0|0:0,0:0:0:0:
375,233,97291,1,10,0:0:0:0:
177,167,97454,1,0,0:0:0:0:
192,360,97617,5,10,0:0:0:0:
336,160,97780,1,8,0:0:0:0:
336,160,97862,1,8,0:0:0:0:
336,160,97943,1,10,0:0:0:0:
444,285,98107,5,8,0:0:0:0:
444,285,98188,1,8,0:0:0:0:
444,285,98270,2,0,B|376:265|376:265|306:283,1,137.700000840454,10|0,0:0|0:0,0:0:0:0:
229,312,98596,6,0,B|157:325|157:325|82:296,1,137.700000840454,12|0,0:0|0:0,0:0:0:0:
192,179,98922,6,0,P|210:242|231:322,1,137.700000840454,12|0,0:0|0:0,0:0:0:0:
294,384,99248,6,0,P|303:318|328:232,1,137.700000840454,12|0,0:0|0:0,0:0:0:0:
420,215,99574,6,0,P|434:251|445:294,1,73.8000011260987,2|0,0:0|0:0,0:0:0:0:
361,353,99900,2,0,P|327:371|287:385,1,73.8000011260987,2|0,0:0|0:0,0:0:0:0:
199,279,100226,1,2,0:0:0:0:
293,178,100389,2,0,P|307:211|320:265,1,73.8000011260987
293,383,100715,1,2,0:0:0:0:
126,291,100878,6,0,L|211:276,1,73.8000011260987
293,178,101204,2,0,L|385:194,1,73.8000011260987
439,317,101530,2,0,L|528:307,1,73.8000011260987,2|0,0:0|0:0,0:0:0:0:
343,100,101857,5,6,0:0:0:0:
293,383,102020,1,12,0:0:0:0:
256,192,102101,12,0,108052,0:0:0:0:
