osu file format v14

[General]
AudioFilename: weeb.mp3
AudioLeadIn: 0
PreviewTime: 64601
Countdown: 0
SampleSet: Soft
StackLeniency: 0.7
Mode: 0
LetterboxInBreaks: 0
WidescreenStoryboard: 0

[Editor]
Bookmarks: 29765,108352
DistanceSpacing: 1.3
BeatDivisor: 4
GridSize: 4
TimelineZoom: 1.4

[Metadata]
Title:Yuki no Youni
TitleUnicode:雪のように
Artist:AKINO with bless4
ArtistUnicode:AKINO with bless4
Creator:Sotarks
Version:Janpai's Insane
Source:
Tags:akitoshi corinn electoz pkhg janpai [_Sc4v4ng3r_] Sc4v4ng3r appleeaterx Doormat Deppyforce davided kibbleru pentori kalibe hb24 fcl linada christmas
BeatmapID:1129139
BeatmapSetID:532165

[Difficulty]
HPDrainRate:6
CircleSize:4
OverallDifficulty:7
ApproachRate:9
SliderMultiplier:1.52
SliderTickRate:1

[Events]
//Background and Video events
0,0,"BG POI.jpg",0,0
//Break Periods
//Storyboard Layer 0 (Background)
//Storyboard Layer 1 (Fail)
//Storyboard Layer 2 (Pass)
//Storyboard Layer 3 (Foreground)
//Storyboard Sound Samples

[TimingPoints]
444,326.086956521739,4,2,22,30,1,0
5661,-200,4,2,22,30,0,0
10878,-125,4,2,22,60,0,0
20009,-100,4,2,22,60,0,0
30770,-76.9230769230769,4,2,22,60,0,0
31096,-83.3333333333333,4,2,22,60,0,0
31422,-90.9090909090909,4,2,22,60,0,0
31748,-125,4,2,22,60,0,0
42183,-100,4,2,22,60,0,0
52617,-83.3333333333333,4,2,22,65,0,0
53270,-100,4,2,22,65,0,0
55226,-83.3333333333333,4,2,22,65,0,0
55878,-100,4,2,22,65,0,0
57835,-83.3333333333333,4,2,22,65,0,0
58487,-100,4,2,22,65,0,0
64683,-83.3333333333333,4,2,22,65,0,0
65661,-100,4,2,22,80,0,1
81313,-125,4,2,22,65,0,0
83922,-166.666666666667,4,2,22,65,0,0
89139,-100,4,2,22,65,0,0
97291,-83.3333333333333,4,2,22,65,0,0
98270,-100,4,2,22,65,0,0
98596,-83.3333333333333,4,2,22,65,0,0
99574,-125,4,2,22,65,0,0

[Colours]
Combo1 : 138,137,254
Combo2 : 71,221,238
Combo3 : 243,93,105
Combo4 : 254,200,140

[HitObjects]
368,320,5335,5,0,0:0:0:0:
368,320,5661,6,0,B|285:310|285:310|191:341|191:341|97:328,1,266,2|0,0:0|0:0,0:0:0:0:
108,329,6965,2,0,B|86:360|86:360|106:271|106:271|74:251|73:213,1,190,2|0,0:0|0:0,0:0:0:0:
149,201,7943,2,0,P|149:182|145:164,1,38,2|0,0:0|0:0,0:0:0:0:
73,119,8270,6,0,B|103:82|141:65|228:77|227:176|227:176|238:132,1,266,2|0,0:0|0:0,0:0:0:0:
321,127,9574,2,0,L|292:247,1,114,2|2,0:0|0:0,0:0:0:0:
294,237,10145,1,2,0:0:0:0:
294,237,10226,1,8,0:0:0:0:
24,331,10878,6,0,P|58:276|222:310,1,243.2,4|2,0:0|0:3,0:0:0:0:
447,306,12183,5,2,0:0:0:0:
345,227,12346,2,0,L|358:360,1,121.6,4|8,0:3|0:3,0:0:0:0:
263,325,12835,1,0,0:3:0:0:
263,325,12998,2,0,L|256:256,1,60.8,4|4,0:3|0:3,0:0:0:0:
333,72,13487,6,0,P|304:96|204:91,1,121.6,4|0,0:0|0:0,0:0:0:0:
121,33,13976,1,8,0:0:0:0:
264,23,14139,1,8,0:0:0:0:
44,231,14791,5,2,0:0:0:0:
124,180,14954,2,0,P|138:213|137:252,1,60.8,8|0,0:0|0:0,0:0:0:0:
44,149,15280,2,0,L|41:112,2,30.4,2|2|2,0:3|0:3|0:3,0:0:0:0:
110,36,15607,1,8,0:0:0:0:
199,53,15770,1,4,0:3:0:0:
251,127,15933,1,4,0:3:0:0:
288,210,16096,6,0,P|336:224|444:90,1,243.2,4|2,0:0|0:3,0:0:0:0:
340,115,17074,1,4,0:3:0:0:
447,316,17400,6,0,P|402:319|310:330,1,121.6,2|0,0:0|0:0,0:0:0:0:
227,291,17889,2,0,L|214:225,1,60.8,4|0,0:3|0:0,0:0:0:0:
133,339,18215,1,4,0:3:0:0:
133,339,18378,1,4,0:3:0:0:
10,210,18704,6,0,P|57:196|124:242,1,121.6,4|0,0:0|0:0,0:0:0:0:
107,374,19357,2,0,P|66:346|58:266,1,121.6,4|4,0:0|0:3,0:0:0:0:
231,183,20009,5,2,0:0:0:0:
69,128,20172,1,4,0:3:0:0:
200,67,20335,1,4,0:3:0:0:
36,149,20498,1,4,0:3:0:0:
184,263,20661,1,8,0:0:0:0:
208,273,20742,1,8,0:0:0:0:
234,275,20824,1,8,0:0:0:0:
260,270,20905,1,8,0:0:0:0:
284,258,20987,2,0,L|330:248,3,38,8|8|8|8,0:0|0:0|0:0|0:0,0:0:0:0:
351,244,21313,6,0,P|399:205|480:221,1,114,6|0,0:0|0:0,0:0:0:0:
477,214,21639,2,0,L|480:117,1,76,8|0,0:0|0:0,0:0:0:0:
350,40,21965,2,0,L|353:137,1,76,2|0,0:0|0:0,0:0:0:0:
275,217,22291,2,0,P|234:222|189:214,1,76,8|0,0:0|0:0,0:0:0:0:
94,122,22617,6,0,P|101:180|106:284,1,152,2|8,0:0|0:0,0:0:0:0:
21,210,23107,1,0,0:0:0:0:
196,132,23270,1,2,0:0:0:0:
47,52,23433,1,0,0:0:0:0:
196,132,23596,2,0,L|291:118,1,76,8|0,0:0|0:0,0:0:0:0:
507,71,23922,6,0,L|386:66,1,114,2|0,0:0|0:0,0:0:0:0:
362,66,24248,2,0,P|350:108|371:164,1,76,8|0,0:0|0:0,0:0:0:0:
440,257,24574,2,0,P|396:253|346:252,1,76,2|0,0:0|0:0,0:0:0:0:
272,317,24900,2,0,P|228:321|178:322,1,76,8|0,0:0|0:0,0:0:0:0:
31,281,25226,6,0,P|66:223|157:219,1,152,2|8,0:0|0:0,0:0:0:0:
111,288,25715,1,0,0:0:0:0:
257,141,25878,1,2,0:0:0:0:
270,253,26041,1,0,0:0:0:0:
138,128,26204,1,8,0:0:0:0:
250,44,26367,1,0,0:0:0:0:
63,68,26530,6,0,B|43:103|43:103|53:189,1,114,2|0,0:0|0:0,0:0:0:0:
57,206,26857,2,0,L|168:217,1,76,8|0,0:0|0:0,0:0:0:0:
284,249,27183,2,0,P|280:186|271:151,1,76,2|0,0:0|0:0,0:0:0:0:
103,296,27509,2,0,P|107:359|116:394,1,76,8|0,0:0|0:0,0:0:0:0:
269,356,27835,6,0,P|328:366|396:284,1,152,2|8,0:0|0:0,0:0:0:0:
314,288,28324,1,0,0:0:0:0:
492,351,28487,1,2,0:0:0:0:
402,234,28650,1,0,0:0:0:0:
512,176,28813,2,0,L|508:86,1,76,8|0,0:0|0:0,0:0:0:0:
360,24,29139,6,0,P|330:55|234:49,1,114,2|0,0:0|0:0,0:0:0:0:
233,51,29465,2,0,L|140:59,1,76,8|0,0:0|0:0,0:0:0:0:
54,199,29791,5,2,0:0:0:0:
206,146,29954,1,8,0:0:0:0:
206,146,30036,1,8,0:0:0:0:
206,146,30117,1,8,0:0:0:0:
49,85,30280,1,8,0:0:0:0:
49,85,30362,1,8,0:0:0:0:
49,85,30443,6,0,L|54:211,1,114,8|0,0:0|0:0,0:0:0:0:
60,238,30770,6,0,P|133:199|212:246,1,148.199993215943,6|0,0:0|0:0,0:0:0:0:
221,238,31096,6,0,B|292:260|296:212|376:240,1,136.799995825195,6|0,0:0|0:0,0:0:0:0:
388,242,31422,6,0,P|417:201|400:127,1,125.400003826904,6|0,0:0|0:0,0:0:0:0:
383,115,31748,6,0,L|525:96,1,121.6,6|2,0:0|0:0,0:0:0:0:
446,243,32400,2,0,L|447:315,1,60.8,2|0,0:0|0:0,0:0:0:0:
369,357,32726,1,2,0:0:0:0:
290,305,32889,6,0,P|249:282|158:303,1,121.6
109,348,33378,1,2,0:0:0:0:
28,180,33704,2,0,P|18:131|10:49,1,121.6,2|2,0:0|0:0,0:0:0:0:
183,37,34357,6,0,P|193:86|201:168,1,121.6,2|8,0:0|0:0,0:0:0:0:
158,309,35009,2,0,P|125:304|87:316,2,60.8,2|0|2,0:0|0:0|0:0,0:0:0:0:
260,351,35498,6,0,P|247:308|289:228,1,121.6
353,201,35987,1,2,0:0:0:0:
497,314,36313,2,0,L|368:310,1,121.6,2|8,0:0|0:0,0:0:0:0:
244,174,36965,6,0,P|277:145|362:153,1,121.6,2|2,0:0|0:0,0:0:0:0:
481,49,37617,2,0,L|413:41,1,60.8,2|0,0:0|0:0,0:0:0:0:
332,60,37943,1,2,0:0:0:0:
239,27,38107,6,0,L|254:156,1,121.6
191,225,38596,1,8,0:0:0:0:
56,340,38922,2,0,B|101:346|101:346|133:330|133:330|200:336,1,121.6,2|2,0:0|0:0,0:0:0:0:
414,341,39574,6,0,P|396:296|272:281,1,182.4,2|0,0:0|0:0,0:0:0:0:
179,353,40226,2,0,L|171:222,1,121.6,2|8,0:0|0:0,0:0:0:0:
286,119,40715,1,0,0:0:0:0:
394,230,40878,5,2,0:0:0:0:
268,101,41041,1,8,0:0:0:0:
268,101,41204,2,0,L|350:89,1,60.8
172,49,41530,1,8,0:0:0:0:
76,139,41693,1,0,0:0:0:0:
76,139,41775,1,0,0:0:0:0:
76,139,41857,2,0,L|61:63,1,60.8,8|0,0:0|0:0,0:0:0:0:
16,283,42183,6,0,P|66:256|159:305,1,152,6|8,0:0|0:0,0:0:0:0:
230,353,42672,1,0,0:0:0:0:
303,283,42835,2,0,L|395:282,1,76,2|0,0:0|0:0,0:0:0:0:
491,330,43161,2,0,P|502:284|486:242,1,76,8|0,0:0|0:0,0:0:0:0:
440,140,43487,6,0,B|391:151|391:151|351:135|351:135|281:151,1,152,2|8,0:0|0:0,0:0:0:0:
201,194,43976,1,0,0:0:0:0:
322,296,44139,2,0,L|338:214,1,76,2|0,0:0|0:0,0:0:0:0:
186,119,44465,2,0,L|202:201,1,76,8|0,0:0|0:0,0:0:0:0:
178,334,44791,6,0,P|131:349|52:294,1,152,2|8,0:0|0:0,0:0:0:0:
128,268,45280,1,0,0:0:0:0:
269,351,45443,2,0,P|272:305|269:264,1,76,2|0,0:0|0:0,0:0:0:0:
201,203,45770,2,0,P|198:157|201:116,1,76,8|0,0:0|0:0,0:0:0:0:
271,45,46096,6,0,L|374:36,1,76,2|0,0:0|0:0,0:0:0:0:
441,85,46422,1,8,0:0:0:0:
441,85,46585,1,0,0:0:0:0:
354,274,46748,2,0,L|336:115,1,152,2|8,0:0|0:0,0:0:0:0:
434,205,47237,1,0,0:0:0:0:
265,181,47400,6,0,P|218:160|129:216,1,152,6|8,0:0|0:0,0:0:0:0:
201,316,47889,2,0,P|206:273|207:238,1,76,2|0,0:0|0:0,0:0:0:0:
69,149,48215,1,2,0:0:0:0:
21,281,48378,2,0,L|112:276,1,76,8|0,0:0|0:0,0:0:0:0:
235,151,48704,6,0,B|163:135|163:179|83:155,1,152,6|8,0:0|0:0,0:0:0:0:
205,229,49193,2,0,L|226:304,1,76,2|0,0:0|0:0,0:0:0:0:
385,308,49520,1,2,0:0:0:0:
335,171,49683,2,0,L|314:246,1,76,8|0,0:0|0:0,0:0:0:0:
438,83,50009,6,0,P|390:97|302:38,1,152,6|8,0:0|0:0,0:0:0:0:
183,184,50498,2,0,P|228:178|344:170,1,152,2|4,0:0|0:3,0:0:0:0:
420,225,50987,1,8,0:0:0:0:
367,346,51150,2,0,P|327:316|221:332,1,152
125,360,51639,2,0,L|116:272,1,76,8|4,0:0|0:3,0:0:0:0:
44,147,51965,5,8,0:0:0:0:
44,147,52047,1,8,0:0:0:0:
44,147,52128,1,8,0:0:0:0:
44,147,52210,1,8,0:0:0:0:
44,147,52291,1,8,0:0:0:0:
44,147,52373,1,8,0:0:0:0:
44,147,52454,1,8,0:0:0:0:
44,147,52536,1,8,0:0:0:0:
44,147,52617,6,0,P|89:116|189:143,1,136.799995825195,6|0,0:0|0:0,0:0:0:0:
194,150,52943,2,0,L|204:43,1,91.199997216797,10|0,0:0|0:0,0:0:0:0:
117,196,53270,2,0,L|129:279,2,76,2|2|8,0:0|0:0|0:0,0:0:0:0:
73,344,53759,6,0,B|135:323|135:323|248:346,1,152,6|2,0:0|0:0,0:0:0:0:
336,352,54248,2,0,L|321:269,1,76,8|0,0:0|0:0,0:0:0:0:
211,205,54574,1,2,0:0:0:0:
211,205,54737,1,2,0:0:0:0:
143,344,54900,2,0,L|228:339,1,76,8|0,0:0|0:0,0:0:0:0:
454,273,55226,6,0,B|402:257|402:257|302:281,1,136.799995825195,6|0,0:0|0:0,0:0:0:0:
285,283,55552,2,0,B|269:237|269:237|282:172,1,91.199997216797,10|0,0:0|0:0,0:0:0:0:
354,94,55878,2,0,L|371:179,2,76,2|2|8,0:0|0:0|0:0,0:0:0:0:
251,30,56367,6,0,P|229:64|118:72,1,152,6|2,0:0|0:0,0:0:0:0:
47,36,56857,1,8,0:0:0:0:
49,165,57020,1,8,0:0:0:0:
49,165,57101,1,8,0:0:0:0:
49,165,57183,2,0,L|62:226,3,38,8|8|8|8,0:0|0:0|0:0|0:0,0:0:0:0:
60,232,57509,2,0,L|47:293,3,38,8|8|8|8,0:0|0:0|0:0|0:0,0:0:0:0:
50,305,57835,6,0,P|102:336|196:294,1,136.799995825195,12|0,0:0|0:0,0:0:0:0:
204,299,58161,2,0,P|248:282|311:301,1,91.199997216797,10|0,0:0|0:0,0:0:0:0:
419,338,58487,2,0,P|422:296|416:242,2,76,2|2|8,0:0|0:0|0:0,0:0:0:0:
293,181,58976,6,0,P|360:192|427:130,1,152,2|2,0:0|0:0,0:0:0:0:
341,45,59465,2,0,L|259:47,1,76,8|0,0:0|0:0,0:0:0:0:
130,135,59791,1,2,0:0:0:0:
130,135,59954,1,2,0:0:0:0:
234,224,60117,2,0,P|242:180|241:127,1,76,8|0,0:0|0:0,0:0:0:0:
86,230,60443,6,0,L|96:335,1,76,8|2,0:0|0:0,0:0:0:0:
288,357,60770,2,0,L|298:252,1,76,8|2,0:0|0:0,0:0:0:0:
242,148,61096,2,0,B|201:140|201:140|139:153,1,76,8|2,0:0|0:0,0:0:0:0:
327,203,61422,1,8,0:0:0:0:
210,63,61585,1,2,0:0:0:0:
213,241,61748,5,8,0:0:0:0:
387,269,61911,1,2,0:0:0:0:
314,128,62074,2,0,L|332:234,1,76,8|2,0:0|0:0,0:0:0:0:
269,327,62400,2,0,P|227:315|168:335,1,76,8|2,0:0|0:0,0:0:0:0:
69,351,62726,1,8,0:0:0:0:
66,320,62807,1,8,0:0:0:0:
63,290,62889,1,8,0:3:0:0:
60,260,62971,1,4,0:3:0:0:
56,230,63052,6,0,P|109:234|184:144,1,152,6|2,0:0|0:0,0:0:0:0:
152,22,63541,2,0,P|108:53|109:170,1,152,6|2,0:0|0:0,0:0:0:0:
217,94,64030,2,0,L|296:88,1,76,8|0,0:0|0:0,0:0:0:0:
385,36,64357,5,6,0:0:0:0:
498,214,64683,6,0,P|475:174|367:179,1,136.799995825195,6|0,0:0|0:0,0:0:0:0:
369,191,65009,6,0,P|342:197|229:202,1,136.799995825195,6|0,0:0|0:0,0:0:0:0:
197,197,65335,6,0,L|189:344,1,136.799995825195,6|0,0:0|0:0,0:0:0:0:
190,364,65661,6,0,B|268:377|268:377|346:350,1,152,6|8,0:0|0:0,0:0:0:0:
421,285,66150,1,0,0:0:0:0:
270,285,66313,1,2,0:0:0:0:
270,285,66476,1,2,0:0:0:0:
426,361,66639,2,0,P|469:349|495:311,1,76,8|0,0:0|0:0,0:0:0:0:
512,206,66965,6,0,P|500:163|462:137,1,76,2|0,0:0|0:0,0:0:0:0:
348,224,67291,2,0,L|423:213,1,76,8|0,0:0|0:0,0:0:0:0:
303,319,67617,2,0,L|225:308,1,76,2|2,0:0|0:0,0:0:0:0:
105,247,67943,2,0,P|123:291|130:332,1,76,8|0,0:0|0:0,0:0:0:0:
18,209,68270,6,0,P|85:218|152:157,1,152,2|8,0:0|0:0,0:0:0:0:
186,87,68759,1,0,0:0:0:0:
233,258,68922,1,2,0:0:0:0:
233,258,69085,1,2,0:0:0:0:
348,142,69248,2,0,L|253:141,1,76,8|0,0:0|0:0,0:0:0:0:
113,61,69574,6,0,L|208:60,1,76,2|0,0:0|0:0,0:0:0:0:
40,122,69900,2,0,P|28:87|16:34,1,76,8|0,0:0|0:0,0:0:0:0:
126,181,70226,1,2,0:0:0:0:
126,181,70389,1,2,0:0:0:0:
35,281,70552,2,0,P|80:277|136:276,1,76,8|0,0:0|0:0,0:0:0:0:
241,310,70878,6,0,B|254:256|254:256|240:216|240:216|254:160,1,152,6|8,0:0|0:0,0:0:0:0:
323,325,71367,2,0,P|362:347|456:291,1,152,0|2,0:0|0:0,0:0:0:0:
380,193,71857,2,0,L|380:269,1,76,8|0,0:0|0:0,0:0:0:0:
470,111,72183,6,0,L|302:99,1,152,2|8,0:0|0:0,0:0:0:0:
256,38,72672,1,0,0:0:0:0:
156,204,72835,2,0,B|232:172|232:232|312:204,1,152,2|8,0:0|0:0,0:0:0:0:
272,130,73324,1,0,0:0:0:0:
207,284,73487,6,0,L|181:121,1,152,6|8,0:0|0:0,0:0:0:0:
116,259,73976,1,0,0:0:0:0:
296,281,74139,1,2,0:0:0:0:
296,281,74302,1,2,0:0:0:0:
186,174,74465,1,8,0:0:0:0:
238,353,74628,6,0,B|298:364|298:364|403:336,1,152,6|2,0:0|0:0,0:0:0:0:
286,205,75117,2,0,L|301:297,1,76,8|0,0:0|0:0,0:0:0:0:
398,109,75443,2,0,L|383:201,1,76,2|2,0:0|0:0,0:0:0:0:
276,32,75770,2,0,L|291:124,1,76,8|0,0:0|0:0,0:0:0:0:
281,260,76096,6,0,P|244:232|140:256,1,152,6|8,0:0|0:0,0:0:0:0:
97,332,76585,1,0,0:0:0:0:
120,172,76748,1,2,0:0:0:0:
120,172,76911,1,2,0:0:0:0:
207,304,77074,2,0,L|217:211,1,76,8|0,0:0|0:0,0:0:0:0:
300,152,77400,6,0,L|290:59,1,76,2|2,0:0|0:0,0:0:0:0:
391,202,77726,2,0,P|426:210|472:194,1,76,8|0,0:0|0:0,0:0:0:0:
302,246,78052,2,0,P|267:238|221:254,1,76,2|2,0:0|0:0,0:0:0:0:
121,325,78378,2,0,P|124:285|114:242,1,76,8|0,0:0|0:0,0:0:0:0:
10,137,78704,6,0,B|69:145|69:145|107:130|107:130|167:139,1,152,6|8,0:0|0:0,0:0:0:0:
252,190,79193,1,0,0:0:0:0:
147,49,79357,1,2,0:0:0:0:
167,216,79520,1,2,0:0:0:0:
270,59,79683,1,8,0:0:0:0:
340,212,79846,1,0,0:0:0:0:
429,87,80009,6,0,L|447:257,1,152,6|8,0:0|0:0,0:0:0:0:
330,290,80498,1,0,0:0:0:0:
471,342,80661,1,2,0:0:0:0:
471,342,80824,1,2,0:0:0:0:
340,212,80987,2,0,P|301:216|266:242,1,76,8|0,0:0|0:0,0:0:0:0:
169,345,81313,6,0,P|177:292|176:217,1,121.6,6|2,0:0|0:0,0:0:0:0:
90,174,81802,1,0,0:0:0:0:
29,309,81965,2,0,L|110:299,1,60.8,8|0,0:0|0:0,0:0:0:0:
237,231,82291,2,0,L|156:221,1,60.8,2|0,0:0|0:0,0:0:0:0:
168,134,82617,5,2,0:0:0:0:
199,309,82780,1,8,0:0:0:0:
317,188,82943,2,0,P|324:152|309:112,1,60.8,2|0,0:0|0:0,0:0:0:0:
199,59,83270,2,0,P|163:52|123:67,1,60.8,8|0,0:0|0:0,0:0:0:0:
62,163,83596,2,0,L|51:83,1,60.8,2|0,0:0|0:0,0:0:0:0:
15,306,83922,6,0,P|58:280|109:283,1,91.199997216797
270,282,84411,2,0,P|227:308|176:305,1,91.199997216797
176,193,84900,1,0,0:0:0:0:
256,192,85063,12,0,88813,0:0:0:0:
49,92,89139,6,0,L|65:207,1,114,6|0,0:0|0:0,0:0:0:0:
71,234,89465,2,0,L|165:220,1,76,8|0,0:0|0:0,0:0:0:0:
225,146,89791,2,0,L|319:160,1,76,2|0,0:0|0:0,0:0:0:0:
416,212,90117,2,0,L|402:118,1,76,8|0,0:0|0:0,0:0:0:0:
340,297,90443,6,0,P|380:260|500:288,1,152,2|8,0:0|0:0,0:0:0:0:
422,344,90933,1,0,0:0:0:0:
227,241,91096,1,2,0:0:0:0:
256,357,91259,1,0,0:0:0:0:
304,165,91422,2,0,L|326:267,1,76,8|0,0:0|0:0,0:0:0:0:
168,334,91748,6,0,L|42:332,1,114,2|0,0:0|0:0,0:0:0:0:
23,327,92074,2,0,B|12:287|12:287|28:233,1,76,8|0,0:0|0:0,0:0:0:0:
131,136,92400,2,0,L|37:130,1,76,2|0,0:0|0:0,0:0:0:0:
151,245,92726,2,0,L|245:239,1,76,8|0,0:0|0:0,0:0:0:0:
421,190,93052,6,0,P|386:159|284:172,1,152,2|8,0:0|0:0,0:0:0:0:
344,241,93541,1,0,0:0:0:0:
499,150,93704,1,2,0:0:0:0:
353,113,93867,1,0,0:0:0:0:
481,31,94030,1,8,0:0:0:0:
424,204,94193,1,0,0:0:0:0:
346,34,94357,6,0,B|292:23|292:23|210:39,1,114,6|0,0:0|0:0,0:0:0:0:
212,56,94683,2,0,L|218:144,1,76,8|0,0:0|0:0,0:0:0:0:
88,273,95009,2,0,L|94:185,1,76,2|0,0:0|0:0,0:0:0:0:
200,258,95335,2,0,P|238:254|280:246,1,76,8|0,0:0|0:0,0:0:0:0:
470,173,95661,6,0,B|396:193|396:141|308:173,1,152,2|8,0:0|0:0,0:0:0:0:
357,244,96150,1,0,0:0:0:0:
429,94,96313,1,2,0:0:0:0:
485,216,96476,1,0,0:0:0:0:
337,87,96639,2,0,L|258:78,1,76,8|0,0:0|0:0,0:0:0:0:
131,180,96965,6,0,P|120:119|111:54,1,114,2|0,0:0|0:0,0:0:0:0:
103,32,97291,6,0,P|53:24|2:121,1,136.799995825195,14|0,0:0|0:0,0:0:0:0:
5,117,97617,1,6,0:0:0:0:
102,213,97780,5,8,0:0:0:0:
102,213,97862,1,8,0:0:0:0:
102,213,97943,1,14,0:0:0:0:
18,334,98107,1,8,0:0:0:0:
18,334,98188,1,8,0:0:0:0:
18,334,98270,6,0,L|151:322,1,114,6|0,0:0|0:0,0:0:0:0:
163,341,98596,6,0,L|331:356,1,136.799995825195,6|0,0:0|0:0,0:0:0:0:
335,357,98922,6,0,P|364:295|309:221,1,136.799995825195,6|0,0:0|0:0,0:0:0:0:
308,213,99248,6,0,P|279:151|334:77,1,136.799995825195,6|0,0:0|0:0,0:0:0:0:
326,79,99574,6,0,L|401:73,1,60.8
461,48,99900,1,0,0:0:0:0:
461,48,100063,1,0,0:0:0:0:
490,121,100226,2,0,P|504:160|511:198,2,60.8
411,180,100715,1,0,0:0:0:0:
451,270,100878,6,0,L|518:268,2,60.8
395,326,101367,1,0,0:0:0:0:
332,277,101530,2,0,P|290:270|258:278,1,60.8
131,345,101857,5,10,0:0:0:0:
256,192,102020,1,10,0:0:0:0:
256,192,102183,12,0,108052,0:0:0:0:
