osu file format v14

[General]
AudioFilename: weeb.mp3
AudioLeadIn: 0
PreviewTime: 64601
Countdown: 0
SampleSet: Soft
StackLeniency: 0.7
Mode: 0
LetterboxInBreaks: 0
WidescreenStoryboard: 0

[Editor]
Bookmarks: 52428
DistanceSpacing: 1
BeatDivisor: 4
GridSize: 32
TimelineZoom: 2.4

[Metadata]
Title:Yuki no Youni
TitleUnicode:雪のように
Artist:AKINO with bless4
ArtistUnicode:AKINO with bless4
Creator:Sotarks
Version:HB's Extra
Source:
Tags:akitoshi corinn electoz pkhg janpai [_Sc4v4ng3r_] Sc4v4ng3r appleeaterx Doormat Deppyforce davided kibbleru pentori kalibe hb24 fcl linada christmas
BeatmapID:1129148
BeatmapSetID:532165

[Difficulty]
HPDrainRate:6
CircleSize:4.2
OverallDifficulty:8.2
ApproachRate:9.2
SliderMultiplier:1.7
SliderTickRate:1

[Events]
//Background and Video events
0,0,"HBBG.jpg",0,0
//Break Periods
//Storyboard Layer 0 (Background)
//Storyboard Layer 1 (Fail)
//Storyboard Layer 2 (Pass)
//Storyboard Layer 3 (Foreground)
//Storyboard Sound Samples

[TimingPoints]
444,326.086956521739,4,2,22,52,1,0
10226,-166.666666666667,4,2,22,52,0,0
10797,-166.666666666667,4,2,22,5,0,0
10878,-142.857142857143,4,2,22,65,0,0
12183,-117.647058823529,4,2,22,65,0,0
16096,-142.857142857143,4,2,22,65,0,0
18949,-142.857142857143,4,2,22,5,0,0
19030,-95.2380952380951,4,2,22,65,0,0
19357,-105.263157894737,4,2,22,65,0,0
19683,-117.647058823529,4,2,22,65,0,0
20824,-100,4,2,22,65,0,0
30770,-66.6666666666667,4,2,22,65,0,0
31096,-71.4285714285714,4,2,22,65,0,0
31422,-83.3333333333333,4,2,22,65,0,0
31748,-100,4,2,22,45,0,0
36313,-83.3333333333333,4,2,22,45,0,0
36965,-100,4,2,22,45,0,0
42183,-100,4,2,22,55,0,0
52617,-76.9230769230769,4,2,22,65,0,0
53270,-100,4,2,22,65,0,0
55226,-76.9230769230769,4,2,22,65,0,0
55878,-100,4,2,22,65,0,0
57835,-76.9230769230769,4,2,22,65,0,0
58487,-100,4,2,22,65,0,0
63052,-76.9230769230769,4,2,22,65,0,0
64683,-71.4285714285714,4,2,22,65,0,0
65661,-90.9090909090909,4,2,22,62,0,1
75117,-76.9230769230769,4,2,22,62,0,1
76096,-90.9090909090909,4,2,22,62,0,1
81313,-111.111111111111,4,2,22,52,0,0
85226,-111.111111111111,4,2,22,5,0,0
85308,-111.111111111111,4,2,22,55,0,0
88813,-111.111111111111,4,2,22,5,0,0
89139,-100,4,2,22,55,0,0
98596,-76.9230769230769,4,2,22,55,0,0
101530,-100,4,2,22,55,0,0

[Colours]
Combo1 : 192,192,192
Combo2 : 128,128,192
Combo3 : 207,48,64
Combo4 : 0,128,128

[HitObjects]
339,309,10063,6,0,L|335:255,1,42.5,0|0,1:0|1:0,0:0:0:0:
358,145,10226,2,0,B|271:186|253:116|166:165,1,178.499994552612,8|0,0:0|0:0,0:0:0:0:
116,198,10878,6,0,B|70:141|76:27|76:27|124:72,1,237.999992736817,6|0,0:0|3:0,0:0:0:0:
352,273,12183,1,4,3:0:0:0:
199,343,12346,1,4,3:0:0:0:
348,137,12672,1,8,3:0:0:0:
464,349,12998,2,0,P|466:302|480:257,1,72.2500013780594,4|4,3:0|3:0,0:0:0:0:
220,90,13487,6,0,P|236:157|234:240,1,144.500002756119,6|0,0:0|0:0,0:0:0:0:
199,343,13976,1,8,0:0:0:0:
68,176,14139,1,8,0:0:0:0:
404,72,14791,5,6,0:0:0:0:
293,197,14954,1,8,0:0:0:0:
77,73,15280,2,0,L|26:81,2,36.1250006890297,0|0|0,0:0|1:0|1:0,0:0:0:0:
223,88,15607,1,8,0:0:0:0:
160,241,15770,1,4,3:0:0:0:
131,145,15933,1,8,3:0:0:0:
293,197,16096,6,0,B|312:257|302:363|302:363|327:335|363:311,1,237.999992736817,6|0,0:0|3:0,0:0:0:0:
465,264,17074,1,8,3:0:0:0:
320,89,17400,6,0,B|266:84|266:84|195:113|195:113|129:107,1,178.499994552612,4|4,3:0|3:0,0:0:0:0:
191,320,18215,1,8,3:0:0:0:
293,197,18378,1,8,3:0:0:0:
20,253,18704,6,0,L|132:245,1,89.2499972763062,6|0,0:0|0:0,0:0:0:0:
168,193,19030,6,0,P|139:162|124:118,1,89.2499972763062,0|0,0:0|0:0,0:0:0:0:
232,103,19357,6,0,P|244:62|275:30,1,80.7499978437424,6|0,0:0|0:0,0:0:0:0:
342,127,19683,6,0,P|383:117|422:125,1,72.2500013780594,2|0,0:0|0:0,0:0:0:0:
324,309,20009,6,0,L|312:223,1,72.2500013780594,8|2,0:0|0:0,0:0:0:0:
232,103,20335,2,0,L|222:174,1,72.2500013780594,8|2,0:0|0:0,0:0:0:0:
137,302,20661,1,8,0:0:0:0:
66,134,20824,1,8,0:0:0:0:
107,126,20905,1,8,0:0:0:0:
149,118,20987,1,8,0:0:0:0:
190,110,21068,1,8,0:0:0:0:
232,103,21150,1,8,0:0:0:0:
273,94,21232,1,8,0:0:0:0:
314,86,21313,6,0,L|422:92,1,85,4|0,1:0|0:0,0:0:0:0:
196,214,21639,2,0,L|88:220,1,85,8|0,0:0|0:0,0:0:0:0:
371,344,21965,2,0,B|383:307|383:307|373:241,1,85,0|2,1:0|0:0,0:0:0:0:
216,369,22291,1,8,0:0:0:0:
279,207,22454,1,0,3:0:0:0:
83,138,22617,6,0,P|102:200|121:237,1,85,0|0,1:0|0:0,0:0:0:0:
216,369,22943,2,0,P|225:327|240:288,1,85,8|0,0:0|0:0,0:0:0:0:
360,167,23270,1,0,1:0:0:0:
486,299,23433,1,2,0:0:0:0:
342,175,23596,1,8,0:0:0:0:
461,127,23759,1,2,0:0:0:0:
313,277,23922,6,0,L|162:269,1,127.5,0|0,1:0|0:0,0:0:0:0:
113,265,24248,2,0,B|95:234|95:234|87:173,1,85,8|0,0:0|0:0,0:0:0:0:
208,75,24574,2,0,L|292:70,1,85,0|0,1:0|0:0,0:0:0:0:
460,216,24900,1,8,0:0:0:0:
309,190,25063,1,0,3:0:0:0:
441,27,25226,6,0,P|457:95|458:137,1,85,0|0,1:0|0:0,0:0:0:0:
291,272,25552,2,0,P|296:229|308:189,1,85,8|2,0:0|0:0,0:0:0:0:
435,360,25878,1,0,1:0:0:0:
222,332,26041,1,2,0:0:0:0:
415,186,26204,1,8,0:0:0:0:
369,298,26367,1,0,3:0:0:0:
204,132,26530,6,0,L|219:284,1,127.5,4|0,1:0|0:0,0:0:0:0:
222,332,26857,2,0,B|184:324|184:324|112:332,1,85,8|0,0:0|0:0,0:0:0:0:
331,188,27183,2,0,B|369:180|369:180|441:188,1,85,0|2,1:0|0:0,0:0:0:0:
204,132,27509,1,8,0:0:0:0:
274,254,27672,1,0,3:0:0:0:
455,109,27835,6,0,L|342:97,1,85,0|0,1:0|0:0,0:0:0:0:
119,140,28161,2,0,L|232:128,1,85,8|0,0:0|0:0,0:0:0:0:
368,274,28487,1,0,1:0:0:0:
195,217,28650,1,2,0:0:0:0:
442,182,28813,1,8,0:0:0:0:
274,254,28976,1,0,0:0:0:0:
452,382,29139,6,0,L|446:247,1,127.5,0|0,1:0|0:0,0:0:0:0:
442,182,29465,1,8,0:0:0:0:
305,333,29628,1,2,0:0:0:0:
230,113,29791,1,0,1:0:0:0:
335,201,29954,1,8,0:0:0:0:
335,201,30036,1,8,0:0:0:0:
335,201,30117,1,8,0:0:0:0:
115,168,30280,1,8,0:0:0:0:
115,168,30362,1,8,0:0:0:0:
115,168,30443,5,6,0:0:0:0:
384,79,30770,6,0,P|403:178|293:169,1,191.250007295609,12|0,0:0|0:0,0:0:0:0:
233,216,31096,2,0,P|214:315|305:346,1,178.499994552612,12|0,0:0|0:0,0:0:0:0:
430,296,31422,2,0,B|270:273,1,152.999995330811,12|0,0:0|0:0,0:0:0:0:
233,216,31748,6,0,L|220:122,1,85,0|0,1:0|0:0,0:0:0:0:
74,42,32074,2,0,L|62:126,1,85,0|0,1:0|0:0,0:0:0:0:
74,316,32400,1,0,1:0:0:0:
143,214,32563,1,2,0:0:0:0:
275,368,32726,1,8,0:0:0:0:
173,317,32889,1,0,0:0:0:0:
370,203,33052,6,0,P|341:245|305:280,1,85,0|0,1:0|0:0,0:0:0:0:
400,94,33378,2,0,P|450:83|500:83,1,85,0|2,1:0|0:0,0:0:0:0:
285,129,33704,2,0,P|238:107|197:78,1,85,0|2,1:0|0:0,0:0:0:0:
75,139,34030,1,0,1:0:0:0:
75,139,34193,1,2,0:0:0:0:
142,294,34357,6,0,B|186:274|186:274|288:283,1,127.5,0|0,1:0|0:0,0:0:0:0:
325,320,34683,2,0,L|422:313,1,85,12|0,0:0|0:0,0:0:0:0:
494,176,35009,1,0,1:0:0:0:
368,227,35172,1,2,0:0:0:0:
511,189,35335,1,0,1:0:0:0:
487,303,35498,1,2,0:0:0:0:
386,134,35661,6,0,P|393:77|404:42,1,85,0|0,1:0|0:0,0:0:0:0:
245,170,35987,2,0,P|255:211|259:253,1,85,0|0,1:0|0:0,0:0:0:0:
75,147,36313,2,0,P|129:161|170:255,1,152.999995330811,0|0,1:0|0:0,0:0:0:0:
86,332,36639,2,0,B|129:324|129:324|195:338|195:338|242:329,1,152.999995330811,8|0,0:0|0:0,0:0:0:0:
307,317,36965,6,0,L|322:218,1,85,4|0,1:0|0:0,0:0:0:0:
417,91,37291,2,0,L|429:175,1,85,0|0,1:0|0:0,0:0:0:0:
231,82,37617,1,0,1:0:0:0:
327,51,37780,1,2,0:0:0:0:
192,181,37943,1,0,1:0:0:0:
161,28,38107,1,2,0:0:0:0:
306,174,38270,6,0,P|292:237|261:312,1,127.5,0|0,1:0|0:0,0:0:0:0:
213,342,38596,2,0,P|161:325|96:335,1,85,12|0,0:0|0:0,0:0:0:0:
0,194,38922,2,0,P|42:192|81:177,1,85,0|2,1:0|0:0,0:0:0:0:
236,35,39248,2,0,L|243:147,1,85,0|2,1:0|0:0,0:0:0:0:
381,263,39574,6,0,L|386:178,1,85,0|0,1:0|0:0,0:0:0:0:
207,257,39900,2,0,L|212:341,1,85,0|0,1:0|0:0,0:0:0:0:
458,294,40226,2,0,P|404:267|365:262,1,85,0|2,1:0|0:0,0:0:0:0:
164,171,40552,2,0,P|205:160|241:139,1,85,8|0,0:0|0:0,0:0:0:0:
289,9,40878,5,0,1:0:0:0:
332,198,41041,2,0,P|345:157|346:115,1,85,8|0,0:0|0:0,0:0:0:0:
289,9,41367,1,0,0:0:0:0:
468,78,41530,2,0,P|438:47|401:26,1,85,8|8,3:0|3:0,0:0:0:0:
241,138,41857,2,0,P|242:180|255:220,1,85,12|0,0:0|0:0,0:0:0:0:
406,371,42183,6,0,P|346:336|262:355,1,127.5,4|0,1:0|0:0,0:0:0:0:
227,376,42509,2,0,L|128:374,1,85,8|0,0:0|0:0,0:0:0:0:
33,223,42835,1,0,1:0:0:0:
166,250,42998,1,2,0:0:0:0:
90,54,43161,1,8,0:0:0:0:
96,163,43324,1,2,0:0:0:0:
169,14,43487,5,0,1:0:0:0:
25,112,43650,1,0,0:0:0:0:
226,180,43813,2,0,L|321:172,1,85,8|0,0:0|0:0,0:0:0:0:
465,247,44139,1,0,1:0:0:0:
418,100,44302,1,2,0:0:0:0:
320,288,44465,2,0,P|333:341|355:391,1,85,8|2,0:0|0:0,0:0:0:0:
312,95,44791,6,0,P|262:82|159:81,1,127.5,0|0,1:0|0:0,0:0:0:0:
117,101,45117,2,0,L|124:201,1,85,8|0,0:0|0:0,0:0:0:0:
44,308,45443,1,0,1:0:0:0:
196,245,45607,1,2,0:0:0:0:
11,227,45770,1,8,0:0:0:0:
209,329,45933,1,2,0:0:0:0:
117,101,46096,5,0,1:0:0:0:
127,347,46259,2,0,L|122:251,1,85,0|8,0:0|0:0,0:0:0:0:
231,126,46585,1,0,0:0:0:0:
422,323,46748,2,0,P|365:317|320:291,1,85,0|0,1:0|0:0,0:0:0:0:
231,126,47074,2,0,P|276:161|300:207,1,85,8|0,0:0|0:0,0:0:0:0:
127,347,47400,6,0,P|157:289|211:258,1,127.5,0|0,1:0|0:0,0:0:0:0:
282,258,47726,1,8,0:0:0:0:
476,161,47889,2,0,L|383:148,1,85,2|0,0:0|0:0,0:0:0:0:
231,126,48215,1,0,1:0:0:0:
481,253,48378,2,0,L|388:240,1,85,8|0,0:0|0:0,0:0:0:0:
127,347,48704,6,0,B|117:310|117:310|134:252|134:252|125:208,1,127.5,0|0,1:0|0:0,0:0:0:0:
113,152,49030,1,8,0:0:0:0:
237,326,49193,2,0,P|280:300|304:270,1,85,2|0,0:0|0:0,0:0:0:0:
320,147,49520,1,0,1:0:0:0:
371,346,49683,2,0,P|391:300|393:261,1,85,8|0,0:0|0:0,0:0:0:0:
303,71,50009,6,0,P|248:119|262:200,1,127.5,4|0,1:0|0:0,0:0:0:0:
320,147,50335,1,8,0:0:0:0:
112,34,50498,2,0,L|121:140,1,85,4|0,1:0|0:0,0:0:0:0:
177,312,50824,2,0,L|184:227,1,85,8|8,3:0|0:0,0:0:0:0:
303,71,51150,1,2,0:0:0:0:
477,234,51313,6,0,B|425:226|425:226|355:250|355:250|304:242,1,170,4|2,1:0|0:0,0:0:0:0:
183,227,51802,1,2,0:0:0:0:
303,71,51965,2,0,L|312:122,1,42.5,8|8,0:0|0:0,0:0:0:0:
153,63,52128,2,0,L|160:21,1,42.5,8|8,0:0|0:0,0:0:0:0:
23,144,52291,2,0,P|69:152|87:151,1,42.5,8|8,0:0|0:0,0:0:0:0:
224,219,52454,2,0,P|202:221|182:226,1,42.5,8|8,0:0|0:0,0:0:0:0:
53,354,52617,6,0,P|106:371|220:362,1,165.749992412568,4|0,1:0|0:0,0:0:0:0:
287,303,52943,2,0,P|326:241|427:276,1,165.749992412568,8|0,0:0|0:0,0:0:0:0:
360,306,53270,1,2,0:0:0:0:
302,145,53433,1,2,0:0:0:0:
489,233,53596,1,8,0:0:0:0:
231,196,53759,6,0,B|205:149|227:101|227:101|209:66|209:66|219:25,1,170,0|0,1:0|1:0,0:0:0:0:
474,118,54248,2,0,P|422:157|373:172,1,85,8|0,0:0|0:0,0:0:0:0:
231,196,54574,2,0,P|268:214|301:242,1,85,0|2,1:0|0:0,0:0:0:0:
98,326,54900,2,0,P|102:283|117:244,1,85,8|2,0:0|0:0,0:0:0:0:
212,50,55226,6,0,B|93:79|93:79|135:107,1,165.749992412568,4|0,1:0|0:0,0:0:0:0:
206,158,55552,2,0,B|369:120,1,165.749992412568,8|0,0:0|0:0,0:0:0:0:
438,103,55878,1,2,0:0:0:0:
307,232,56041,1,2,0:0:0:0:
335,15,56204,1,8,0:0:0:0:
413,230,56367,2,0,L|406:327,1,85,0|0,1:0|0:0,0:0:0:0:
206,158,56693,5,0,1:0:0:0:
346,117,56857,1,8,0:0:0:0:
156,267,57020,2,0,L|99:260,1,42.5,0|0,1:0|1:0,0:0:0:0:
32,250,57183,1,8,0:0:0:0:
156,85,57346,2,0,L|211:72,1,42.5,0|0,1:0|1:0,0:0:0:0:
277,55,57509,1,8,0:0:0:0:
281,288,57672,1,0,1:0:0:0:
281,288,57753,1,0,1:0:0:0:
281,288,57835,6,0,P|230:237|274:129,1,165.749992412568,12|0,0:0|0:0,0:0:0:0:
430,194,58161,2,0,B|301:208|301:208|340:234,1,165.749992412568,8|0,0:0|0:0,0:0:0:0:
389,273,58487,1,2,0:0:0:0:
402,98,58650,1,2,0:0:0:0:
281,288,58813,1,8,0:0:0:0:
178,81,58976,6,0,P|158:132|131:171,1,85,0|0,1:0|0:0,0:0:0:0:
34,219,59302,1,0,1:0:0:0:
178,81,59465,2,0,P|226:106|262:137,1,85,8|0,0:0|0:0,0:0:0:0:
281,288,59791,2,0,P|307:239|338:204,1,85,0|2,1:0|0:0,0:0:0:0:
448,69,60117,2,0,P|400:96|354:109,1,85,8|0,0:0|0:0,0:0:0:0:
178,81,60443,5,8,0:0:0:0:
281,288,60607,1,2,0:0:0:0:
268,34,60770,5,8,0:0:0:0:
118,190,60933,1,2,0:0:0:0:
396,174,61096,5,8,0:0:0:0:
88,105,61259,1,2,0:0:0:0:
215,340,61422,5,8,0:0:0:0:
178,81,61585,1,2,0:0:0:0:
61,304,61748,5,8,0:0:0:0:
276,217,61911,1,2,0:0:0:0:
34,176,62074,6,0,L|130:192,1,85,8|2,0:0|0:0,0:0:0:0:
395,295,62400,2,0,L|310:307,1,85,8|2,0:0|0:0,0:0:0:0:
253,108,62726,1,8,3:0:0:0:
295,101,62807,1,8,3:0:0:0:
337,95,62889,1,8,3:0:0:0:
379,89,62970,1,8,3:0:0:0:
425,80,63052,6,0,P|416:141|393:195,1,110.499994941712,12|0,0:0|0:0,0:0:0:0:
310,306,63378,1,2,0:0:0:0:
177,28,63541,6,0,P|223:67|257:116,1,110.499994941712,12|0,0:0|0:0,0:0:0:0:
315,322,63867,1,2,0:0:0:0:
20,183,64030,6,0,P|81:182|138:196,1,110.499994941712,12|0,0:0|0:0,0:0:0:0:
319,341,64357,1,8,0:0:0:0:
467,114,64683,6,0,P|376:123|347:208,1,178.499994552612,12|0,0:0|0:0,0:0:0:0:
207,356,65009,2,0,P|272:291|241:207,1,178.499994552612,12|0,0:0|0:0,0:0:0:0:
176,34,65335,2,0,P|200:122|289:135,1,178.499994552612,12|0,0:0|0:0,0:0:0:0:
406,66,65661,6,0,L|257:48,1,140.25000428009,4|0,1:0|0:0,0:0:0:0:
176,34,65987,1,8,0:0:0:0:
345,195,66150,1,0,0:0:0:0:
138,237,66313,1,0,1:0:0:0:
198,117,66476,1,0,1:0:0:0:
321,324,66639,2,0,L|214:331,1,93.5000028533936,8|2,0:0|0:0,0:0:0:0:
426,146,66965,6,0,P|482:170|518:208,1,93.5000028533936,0|2,0:0|0:0,0:0:0:0:
252,192,67291,1,8,0:0:0:0:
333,30,67454,1,0,0:0:0:0:
408,269,67617,1,0,1:0:0:0:
330,140,67780,1,0,1:0:0:0:
171,254,67943,1,8,0:0:0:0:
332,230,68107,1,0,0:0:0:0:
97,96,68270,6,0,L|106:202,1,93.5000028533936,0|0,1:0|0:0,0:0:0:0:
324,323,68596,2,0,L|331:229,1,93.5000028533936,8|0,0:0|0:0,0:0:0:0:
237,75,68922,1,0,1:0:0:0:
171,254,69085,1,0,1:0:0:0:
399,178,69248,1,8,0:0:0:0:
266,166,69411,1,2,0:0:0:0:
423,317,69574,6,0,P|475:289|506:253,1,93.5000028533936,0|2,0:0|0:0,0:0:0:0:
367,37,69900,2,0,P|341:90|337:137,1,93.5000028533936,8|0,0:0|0:0,0:0:0:0:
212,335,70226,2,0,P|191:279|160:243,1,93.5000028533936,0|0,1:0|0:0,0:0:0:0:
0,155,70552,1,8,0:0:0:0:
157,108,70715,1,2,0:0:0:0:
19,374,70878,6,0,L|7:209,1,140.25000428009,2|0,0:0|0:0,0:0:0:0:
0,155,71204,1,8,0:0:0:0:
212,335,71367,2,0,L|315:319,1,93.5000028533936,2|0,0:0|0:0,0:0:0:0:
432,298,71693,1,2,0:0:0:0:
217,122,71857,2,0,L|114:106,1,93.5000028533936,8|0,0:0|0:0,0:0:0:0:
347,229,72183,6,0,L|450:213,1,93.5000028533936,0|0,1:0|1:0,0:0:0:0:
156,264,72509,1,8,0:0:0:0:
318,104,72672,1,2,0:0:0:0:
378,366,72835,5,8,0:0:0:0:
243,244,72998,1,2,0:0:0:0:
488,93,73161,5,8,0:0:0:0:
429,242,73324,1,2,0:0:0:0:
121,117,73487,6,0,P|196:71|287:87,1,140.25000428009,4|0,1:0|0:0,0:0:0:0:
318,104,73813,1,8,0:0:0:0:
243,244,73976,1,0,0:0:0:0:
507,236,74139,1,0,1:0:0:0:
374,186,74302,1,0,1:0:0:0:
199,342,74465,1,8,0:0:0:0:
342,289,74628,1,2,0:0:0:0:
120,211,74791,2,0,L|13:221,1,93.5000028533936,0|2,0:0|0:0,0:0:0:0:
224,81,75117,6,0,B|227:137|263:205|263:205|299:179,1,165.749992412568,12|0,0:0|0:0,0:0:0:0:
375,117,75443,2,0,B|372:61|336:-7|336:-7|307:13,1,165.749992412568,12|0,0:0|0:0,0:0:0:0:
366,198,75770,2,0,B|430:202|489:184|489:184|469:234,1,165.749992412568,12|0,0:0|0:0,0:0:0:0:
435,292,76096,6,0,P|327:298|258:290,1,140.25000428009,4|0,1:0|0:0,0:0:0:0:
216,279,76422,1,8,0:0:0:0:
375,117,76585,1,0,0:0:0:0:
204,47,76748,1,0,1:0:0:0:
248,171,76911,1,0,1:0:0:0:
408,1,77074,1,8,0:0:0:0:
296,71,77237,1,2,0:0:0:0:
473,222,77400,6,0,L|466:120,1,93.5000028533936,0|2,0:0|0:0,0:0:0:0:
260,253,77726,2,0,L|266:346,1,93.5000028533936,8|0,0:0|0:0,0:0:0:0:
375,117,78052,1,0,1:0:0:0:
186,174,78215,1,0,1:0:0:0:
403,316,78378,1,8,0:0:0:0:
322,190,78541,1,2,0:0:0:0:
174,362,78704,6,0,P|245:353|274:342,1,93.5000028533936,0|2,1:0|0:0,0:0:0:0:
505,237,79030,2,0,P|434:228|405:217,1,93.5000028533936,8|0,0:0|0:0,0:0:0:0:
248,89,79357,1,0,1:0:0:0:
406,41,79520,1,0,1:0:0:0:
294,266,79683,1,8,0:0:0:0:
151,22,79846,6,0,L|157:131,1,93.5000028533936,2|0,0:0|0:0,0:0:0:0:
165,234,80172,1,2,0:0:0:0:
375,117,80335,1,8,0:0:0:0:
358,331,80498,2,0,P|320:303|293:265,1,93.5000028533936,0|0,0:0|1:0,0:0:0:0:
375,117,80824,1,0,1:0:0:0:
192,309,80987,2,0,P|188:248|206:200,1,93.5000028533936,8|2,0:0|0:0,0:0:0:0:
457,157,81313,6,0,L|447:318,1,152.999995330811,6|0,0:0|0:0,0:0:0:0:
447,309,81802,1,2,0:0:0:0:
329,183,81965,1,8,0:0:0:0:
192,309,82128,1,0,0:0:0:0:
311,288,82291,1,2,0:0:0:0:
168,152,82454,6,0,L|67:159,1,76.4999976654053,8|2,0:0|0:0,0:0:0:0:
6,346,82780,2,0,L|82:340,1,76.4999976654053,8|2,0:0|0:0,0:0:0:0:
192,309,83107,1,0,0:0:0:0:
315,364,83270,2,0,L|309:261,1,76.4999976654053,8|0,0:0|0:0,0:0:0:0:
416,160,83596,2,0,L|411:236,1,76.4999976654053,2|8,0:0|0:0,0:0:0:0:
256,192,83922,5,2,0:0:0:0:
256,192,84003,12,0,85226,0:0:0:0:
256,192,85308,12,0,88813,0:0:0:0:
126,124,89139,6,0,P|177:135|214:162,1,85,4|0,1:0|0:0,0:0:0:0:
234,340,89465,1,8,0:0:0:0:
130,235,89628,1,0,0:0:0:0:
338,167,89791,2,0,L|334:265,1,85,0|2,1:0|0:0,0:0:0:0:
133,319,90117,2,0,L|129:234,1,85,8|0,0:0|3:0,0:0:0:0:
312,368,90443,6,0,P|261:357|224:330,1,85,0|0,1:0|0:0,0:0:0:0:
338,167,90770,2,0,P|389:178|426:205,1,85,8|0,0:0|0:0,0:0:0:0:
222,208,91096,1,0,1:0:0:0:
284,61,91259,1,2,0:0:0:0:
308,273,91422,1,8,0:0:0:0:
158,165,91585,1,2,0:0:0:0:
48,327,91748,6,0,L|153:316,1,85,0|0,1:0|0:0,0:0:0:0:
338,167,92074,2,0,L|233:156,1,85,8|0,0:0|0:0,0:0:0:0:
443,322,92400,2,0,P|465:267|475:208,1,85,0|0,1:0|0:0,0:0:0:0:
400,85,92726,1,8,0:0:0:0:
284,240,92889,1,0,3:0:0:0:
120,88,93052,2,0,P|130:129|147:167,1,85,0|0,1:0|0:0,0:0:0:0:
246,315,93378,2,0,L|146:325,1,85,8|2,0:0|0:0,0:0:0:0:
314,132,93704,5,0,1:0:0:0:
384,304,93867,1,2,0:0:0:0:
231,165,94030,5,8,0:0:0:0:
440,227,94193,1,0,3:0:0:0:
161,323,94357,6,0,B|148:175,1,127.5,4|0,1:0|0:0,0:0:0:0:
140,123,94683,2,0,P|72:145|26:143,1,85,8|0,0:0|0:0,0:0:0:0:
235,16,95009,2,0,P|276:22|315:38,1,85,0|2,1:0|0:0,0:0:0:0:
409,184,95335,1,8,0:0:0:0:
465,71,95498,1,0,3:0:0:0:
298,168,95661,6,0,L|293:259,1,85,0|0,1:0|0:0,0:0:0:0:
464,374,95987,2,0,L|459:289,1,85,8|0,0:0|0:0,0:0:0:0:
421,123,96313,1,0,1:0:0:0:
293,252,96476,1,2,0:0:0:0:
495,178,96639,1,8,0:0:0:0:
355,77,96802,1,0,0:0:0:0:
285,328,96965,6,0,P|332:319|364:280,1,85,8|0,0:0|0:0,0:0:0:0:
136,214,97291,2,0,L|146:311,1,85,12|0,0:0|0:0,0:0:0:0:
240,46,97617,2,0,L|231:142,1,85,12|8,0:0|0:0,0:0:0:0:
232,130,97862,1,8,0:0:0:0:
232,130,97943,1,8,0:0:0:0:
398,221,98107,1,8,0:0:0:0:
398,221,98188,1,8,0:0:0:0:
398,221,98270,1,8,0:0:0:0:
182,209,98596,6,0,P|121:163|152:66,1,165.749992412568,12|0,0:0|0:0,0:0:0:0:
275,208,98922,2,0,P|292:282|206:336,1,165.749992412568,12|0,0:0|0:0,0:0:0:0:
232,130,99248,2,0,P|285:75|377:117,1,165.749992412568,12|0,0:0|0:0,0:0:0:0:
399,184,99574,5,2,0:0:0:0:
507,164,99737,1,0,0:0:0:0:
452,297,99900,1,2,0:0:0:0:
344,277,100063,1,2,0:0:0:0:
222,368,100226,5,2,0:0:0:0:
199,259,100389,1,0,0:0:0:0:
243,158,100552,1,0,0:0:0:0:
222,368,100715,5,2,0:0:0:0:
135,320,100878,1,2,0:0:0:0:
105,215,101041,1,0,0:0:0:0:
199,259,101204,1,0,0:0:0:0:
40,292,101367,1,2,0:0:0:0:
181,176,101530,1,2,0:0:0:0:
52,147,101693,1,0,0:0:0:0:
222,368,101857,5,4,1:0:0:0:
316,109,102020,1,4,1:0:0:0:
256,192,102101,12,0,108052,0:0:0:0:
