osu file format v14

[General]
AudioFilename: weeb.mp3
AudioLeadIn: 0
PreviewTime: 64601
Countdown: 0
SampleSet: Soft
StackLeniency: 0.7
Mode: 0
LetterboxInBreaks: 0
WidescreenStoryboard: 0

[Editor]
Bookmarks: 65635,81287,89113,99548
DistanceSpacing: 1.1
BeatDivisor: 4
GridSize: 16
TimelineZoom: 1

[Metadata]
Title:Yuki no Youni
TitleUnicode:雪のように
Artist:AKINO with bless4
ArtistUnicode:AKINO with bless4
Creator:Sotarks
Version:Gift
Source:
Tags:akitoshi corinn electoz pkhg janpai [_Sc4v4ng3r_] Sc4v4ng3r appleeaterx Doormat Deppyforce davided kibbleru pentori kalibe hb24 fcl linada christmas
BeatmapID:1127620
BeatmapSetID:532165

[Difficulty]
HPDrainRate:6.6
CircleSize:4.2
OverallDifficulty:9
ApproachRate:9.4
SliderMultiplier:1.92
SliderTickRate:1

[Events]
//Background and Video events
0,0,"BGSoterks.jpg",0,0
//Break Periods
//Storyboard Layer 0 (Background)
//Storyboard Layer 1 (Fail)
//Storyboard Layer 2 (Pass)
//Storyboard Layer 3 (Foreground)
//Storyboard Sound Samples

[TimingPoints]
444,326.086956521739,4,2,22,32,1,0
10878,-161.290322580645,4,2,22,42,0,0
18704,-138.888888888889,4,2,22,52,0,0
20824,-108.695652173913,4,2,22,52,0,0
21313,-98.0392156862745,4,2,22,62,0,0
30770,-70.4225352112676,4,2,22,72,0,0
31014,-70.4225352112676,4,2,22,5,0,0
31096,-98.0392156862745,4,2,22,62,0,0
31340,-98.0392156862745,4,2,22,5,0,0
31422,-121.951219512195,4,2,22,52,0,0
31666,-121.951219512195,4,2,22,5,0,0
31748,-138.888888888889,4,2,22,42,0,0
34683,-108.695652173913,4,2,22,42,0,0
34846,-138.888888888889,4,2,22,42,0,0
38596,-108.695652173913,4,2,22,42,0,0
38759,-138.888888888889,4,2,22,42,0,0
52617,-108.695652173913,4,2,22,52,0,0
64683,-89.2857142857143,4,2,22,62,0,0
64927,-89.2857142857143,4,2,22,5,0,0
65009,-75.7575757575758,4,2,22,72,0,0
65253,-75.7575757575758,4,2,22,5,0,0
65335,-65.7894736842105,4,2,22,82,0,0
65579,-65.7894736842105,4,2,22,5,0,0
65661,-89.2857142857143,4,2,22,62,0,1
72509,-89.2857142857143,4,2,22,72,0,1
72835,-89.2857142857143,4,2,22,82,0,1
73161,-89.2857142857143,4,2,22,72,0,1
73487,-89.2857142857143,4,2,22,62,0,1
75362,-89.2857142857143,4,2,22,5,0,1
75443,-81.9672131147541,4,2,22,62,0,1
75688,-81.9672131147541,4,2,22,5,0,1
75770,-75.7575757575758,4,2,22,62,0,1
76014,-75.7575757575758,4,2,22,5,0,1
76096,-89.2857142857143,4,2,22,62,0,1
81313,-98.0392156862745,4,2,22,52,0,0
83922,-138.888888888889,4,2,22,42,0,0
84411,-192.307692307692,4,2,22,42,0,0
84900,-462,4,2,22,32,0,0
89058,-462,4,2,22,5,0,0
89139,-98.0392156862745,4,2,22,62,0,0
97617,-108.695652173913,4,2,22,62,0,0
98270,-161.290322580645,4,2,22,62,0,0
98596,-70.4225352112676,4,2,22,62,0,0
98922,-81.9672131147541,4,2,22,62,0,0
99248,-98.0392156862745,4,2,22,62,0,0
99574,-161.290322580645,4,2,22,42,0,0
101857,-161.290322580645,4,2,22,72,0,0
108052,-161.290322580645,4,2,22,22,0,0

[Colours]
Combo1 : 38,187,230
Combo2 : 211,10,10
Combo3 : 0,221,38
Combo4 : 255,185,244
SliderBorder : 243,178,255
SliderTrackOverride : 50,33,29

[HitObjects]
187,102,10063,6,0,L|194:172,1,48,0|0,1:0|1:0,1:0:0:0:
241,326,10226,1,8,0:0:0:0:
220,27,10878,6,0,L|234:212,1,178.559992916016,6|2,0:0|0:0,0:0:0:0:
239,289,11530,1,0,3:0:0:0:
350,62,12183,5,4,3:0:0:0:
132,92,12346,1,4,3:0:0:0:
389,178,12672,6,0,L|323:180,1,59.519997638672,8|0,3:0|0:0,0:0:0:0:
466,177,12998,1,4,3:0:0:0:
247,181,13161,1,4,3:0:0:0:
369,60,13487,6,0,P|379:106|390:189,1,119.039995277344,6|0,0:0|0:0,0:0:0:0:
270,31,13976,1,8,0:0:0:0:
230,261,14139,1,8,0:0:0:0:
69,134,14791,5,6,0:0:0:0:
267,128,14954,2,0,B|216:109|212:161|135:127,1,119.039995277344,8|0,0:0|0:0,0:0:0:0:
151,133,15362,1,0,1:0:0:0:
151,133,15443,1,0,1:0:0:0:
346,127,15607,1,8,0:0:0:0:
185,55,15770,1,4,3:0:0:0:
243,219,15933,1,8,3:0:0:0:
370,29,16096,6,0,B|310:34|310:34|220:141,1,178.559992916016,6|0,0:0|0:0,0:0:0:0:
170,198,16748,1,0,3:0:0:0:
443,125,17074,1,8,3:0:0:0:
303,370,17400,5,4,3:0:0:0:
343,61,17889,1,4,3:0:0:0:
388,278,18215,5,8,3:0:0:0:
343,61,18378,1,8,3:0:0:0:
269,238,18704,6,0,P|219:247|186:246,1,69.1200016875,6|0,0:0|0:0,0:0:0:0:
66,177,19030,2,0,P|116:186|149:185,1,69.1200016875
237,103,19357,2,0,P|251:184|279:261,1,138.240003375,6|2,0:0|0:0,0:0:0:0:
321,149,19846,1,0,0:0:0:0:
123,191,20009,5,8,0:0:0:0:
231,22,20172,1,2,0:0:0:0:
275,250,20335,5,8,0:0:0:0:
147,53,20498,1,2,0:0:0:0:
157,317,20661,5,8,0:0:0:0:
296,81,20824,2,8,P|307:137|307:147,1,44.1599985175782
120,204,20987,2,8,P|123:182|130:161,1,44.1599985175782
289,258,21150,2,8,P|300:314|300:324,1,44.1599985175782
41,263,21313,6,0,P|47:165|84:75,2,195.840001195313,4|8|0,1:0|0:0|1:0,0:0:0:0:
134,161,22128,1,2,0:0:0:0:
109,309,22291,1,8,0:0:0:0:
84,75,22454,1,0,3:0:0:0:
331,174,22617,6,0,B|277:166|277:166|208:179|208:179|135:167,1,195.840001195313,0|8,1:0|0:0,0:0:0:0:
236,90,23107,1,0,0:0:0:0:
277,244,23270,2,0,P|282:317|267:362,1,97.9200005976563,0|2,1:0|0:0,0:0:0:0:
72,215,23596,2,0,P|63:166|71:118,1,97.9200005976563,8|2,0:0|0:0,0:0:0:0:
169,297,23922,5,0,1:0:0:0:
129,70,24085,1,0,0:0:0:0:
247,229,24248,2,0,L|129:216,1,97.9200005976563,8|0,0:0|0:0,0:0:0:0:
318,119,24574,2,0,L|436:106,1,97.9200005976563,0|0,1:0|0:0,0:0:0:0:
207,145,24900,1,8,0:0:0:0:
401,201,25063,1,0,3:0:0:0:
252,38,25226,6,0,L|270:264,1,195.840001195313,0|8,1:0|0:0,0:0:0:0:
332,101,25715,1,2,0:0:0:0:
142,158,25878,1,0,1:0:0:0:
403,216,26041,1,2,0:0:0:0:
110,152,26204,1,8,0:0:0:0:
424,137,26367,1,0,3:0:0:0:
85,237,26530,6,0,P|45:201|95:61,2,195.840001195313,4|8|0,1:0|0:0|1:0,0:0:0:0:
301,114,27346,1,2,0:0:0:0:
104,148,27509,1,8,0:0:0:0:
211,333,27672,1,0,3:0:0:0:
278,261,27835,6,0,P|181:242|84:236,1,195.840001195313,0|8,1:0|0:0,0:0:0:0:
215,344,28324,1,2,0:0:0:0:
122,157,28487,1,0,1:0:0:0:
291,266,28650,1,2,0:0:0:0:
194,114,28813,2,0,P|209:180|228:220,1,97.9200005976563,8|0,0:0|0:0,0:0:0:0:
460,179,29139,6,0,B|393:140|393:140|259:138,1,195.840001195313,0|8,1:0|0:0,0:0:0:0:
374,226,29628,1,2,0:0:0:0:
349,55,29791,1,0,1:0:0:0:
288,273,29954,2,8,L|281:217,1,48.9600002988281
270,111,30117,1,8,0:0:0:0:
204,325,30280,2,8,L|197:269,1,48.9600002988281
186,163,30443,1,6,0:0:0:0:
186,163,30770,6,0,B|351:147|351:147|314:120,1,204.479989703614,12|0,0:0|0:0,0:0:0:0:
225,84,31096,6,0,B|116:55|116:55|91:118,1,146.880000896484,12|0,0:0|0:0,0:0:0:0:
106,182,31422,6,0,P|117:227|79:301,1,118.080001801758,12|0,0:0|0:0,0:0:0:0:
190,258,31748,6,0,P|229:251|329:271,2,138.240003375,0|0|0,1:0|1:0|1:0,0:0:0:0:
254,326,32563,1,2,0:0:0:0:
322,193,32726,2,0,P|266:181|243:181,1,69.1200016875,8|0,0:0|0:0,0:0:0:0:
410,240,33052,6,0,L|422:91,1,138.240003375,0|0,1:0|1:0,0:0:0:0:
315,47,33541,1,2,0:0:0:0:
336,175,33704,1,0,1:0:0:0:
389,26,33867,1,2,0:0:0:0:
340,200,34030,1,0,1:0:0:0:
317,63,34193,1,2,0:0:0:0:
422,251,34357,6,0,P|384:274|306:270,1,103.68000253125,0|0,1:0|0:0,0:0:0:0:
258,234,34683,2,0,P|202:221|157:227,1,88.3199970351563,12|0,0:0|0:0,0:0:0:0:
46,304,35009,1,0,1:0:0:0:
81,205,35172,1,2,0:0:0:0:
125,333,35335,1,0,1:0:0:0:
77,192,35498,1,2,0:0:0:0:
239,251,35661,6,0,L|147:255,1,69.1200016875,0|0,1:0|0:0,0:0:0:0:
321,171,35987,2,0,L|251:167,1,69.1200016875,0|0,1:0|0:0,0:0:0:0:
415,316,36313,1,0,1:0:0:0:
401,221,36476,1,2,0:0:0:0:
221,354,36639,1,8,0:0:0:0:
235,259,36802,1,2,0:0:0:0:
435,331,36965,6,0,L|415:166,2,138.240003375,4|0|0,1:0|1:0|1:0,0:0:0:0:
491,178,37780,1,2,0:0:0:0:
347,274,37943,1,0,1:0:0:0:
402,95,38107,1,2,0:0:0:0:
196,184,38270,6,0,P|259:174|323:181,1,103.68000253125,0|0,1:0|0:0,0:0:0:0:
250,252,38596,2,0,B|190:267|190:267|133:250,1,88.3199970351563,12|0,0:0|0:0,0:0:0:0:
77,138,38922,1,0,1:0:0:0:
183,181,39085,1,2,0:0:0:0:
304,47,39248,1,0,1:0:0:0:
199,94,39411,1,2,0:0:0:0:
423,184,39574,6,0,P|368:153|270:149,2,138.240003375,0|0|0,1:0|1:0|1:0,0:0:0:0:
256,273,40389,1,2,0:0:0:0:
320,219,40552,2,0,P|340:260|342:298,1,69.1200016875,8|0,0:0|0:0,0:0:0:0:
172,312,40878,5,0,1:0:0:0:
221,129,41041,2,0,L|248:288,1,138.240003375,8|0,0:0|0:0,0:0:0:0:
141,136,41530,2,8,L|151:188,1,34.56000084375,8|8,3:0|3:0,3:0:0:0:
302,155,41693,2,8,L|312:207,1,34.56000084375,8|8,3:0|3:0,3:0:0:0:
148,241,41857,2,0,P|194:239|258:282,1,103.68000253125,12|0,0:0|0:0,0:0:0:0:
298,328,42183,6,0,P|340:324|401:232,2,138.240003375,4|8|0,1:0|0:0|1:0,0:0:0:0:
310,197,42998,1,2,0:0:0:0:
192,324,43161,1,8,0:0:0:0:
125,212,43324,1,2,0:0:0:0:
290,287,43487,5,0,1:0:0:0:
91,333,43650,1,0,0:0:0:0:
195,155,43813,2,0,P|212:222|195:310,1,138.240003375,8|0,0:0|1:0,0:0:0:0:
291,192,44302,1,2,0:0:0:0:
133,222,44465,1,8,0:0:0:0:
216,300,44628,1,2,0:0:0:0:
197,121,44791,6,0,L|213:206,1,69.1200016875,0|0,1:0|0:0,0:0:0:0:
328,48,45117,2,0,L|315:115,1,69.1200016875,8|0,0:0|0:0,0:0:0:0:
111,85,45443,1,0,1:0:0:0:
134,195,45607,1,2,0:0:0:0:
256,20,45770,1,8,0:0:0:0:
229,129,45934,1,2,0:0:0:0:
31,33,46096,6,0,P|31:93|39:130,1,69.1200016875,0|0,1:0|0:0,0:0:0:0:
317,87,46422,2,0,P|317:147|309:184,1,69.1200016875,8|0,0:0|0:0,0:0:0:0:
15,187,46748,2,0,L|91:184,1,69.1200016875,0|0,1:0|0:0,0:0:0:0:
233,109,47074,2,0,L|157:106,1,69.1200016875,8|0,0:0|0:0,0:0:0:0:
241,255,47400,5,0,1:0:0:0:
310,159,47563,1,2,0:0:0:0:
331,326,47726,1,8,0:0:0:0:
331,326,47889,2,0,L|335:235,1,69.1200016875,2|0,0:0|0:0,0:0:0:0:
230,113,48215,1,0,1:0:0:0:
230,113,48378,2,0,L|233:182,1,69.1200016875,8|0,0:0|0:0,0:0:0:0:
327,43,48704,5,0,1:0:0:0:
312,164,48867,1,2,0:0:0:0:
178,47,49030,1,8,0:0:0:0:
178,47,49193,2,0,P|221:36|249:35,1,69.1200016875,2|0,0:0|0:0,0:0:0:0:
385,97,49520,1,0,1:0:0:0:
385,97,49683,2,0,P|342:86|314:85,1,69.1200016875,8|0,0:0|0:0,0:0:0:0:
88,173,50009,6,0,L|183:158,1,69.1200016875,4|0,1:0|0:0,0:0:0:0:
374,235,50335,1,8,0:0:0:0:
69,262,50498,2,0,L|164:247,1,69.1200016875,4|0,1:0|0:0,0:0:0:0:
355,324,50824,1,8,3:0:0:0:
242,149,50987,1,8,0:0:0:0:
203,303,51150,1,2,0:0:0:0:
429,223,51313,6,0,B|365:198|351:255|277:213,1,138.240003375,4|2,1:0|0:0,0:0:0:0:
327,146,51802,1,2,0:0:0:0:
221,304,51965,5,8,0:0:0:0:
219,269,52046,1,8,0:0:0:0:
217,234,52128,1,8,0:0:0:0:
215,200,52209,1,8,0:0:0:0:
213,165,52291,2,8,L|206:117,3,34.56000084375
303,218,52617,5,4,1:0:0:0:
26,140,52943,1,8,0:0:0:0:
162,61,53107,1,8,0:0:0:0:
121,185,53270,1,2,0:0:0:0:
72,61,53433,1,2,0:0:0:0:
52,228,53596,1,8,0:0:0:0:
362,154,53759,6,0,B|312:143|312:143|271:153|271:153|228:142|172:148,1,176.639994070313,0|0,1:0|1:0,0:0:0:0:
319,224,54248,2,0,L|332:323,1,88.3199970351563,8|0,0:0|0:0,0:0:0:0:
269,57,54574,1,0,1:0:0:0:
240,304,54737,1,2,0:0:0:0:
377,136,54900,1,8,0:0:0:0:
410,356,55063,1,2,0:0:0:0:
271,44,55226,5,4,1:0:0:0:
223,375,55552,1,8,0:0:0:0:
185,205,55715,1,8,0:0:0:0:
292,281,55878,1,2,0:0:0:0:
161,302,56041,1,2,0:0:0:0:
208,111,56204,1,8,0:0:0:0:
351,211,56367,6,0,P|295:186|178:208,1,176.639994070313,0|0,1:0|1:0,0:0:0:0:
361,114,56857,1,8,0:0:0:0:
96,167,57020,2,0,P|142:141|149:137,1,44.1599985175782,0|0,1:0|1:0,1:0:0:0:
224,108,57183,1,8,0:0:0:0:
327,255,57346,2,0,P|281:229|274:225,1,44.1599985175782,0|0,1:0|1:0,1:0:0:0:
199,196,57509,1,8,0:0:0:0:
39,338,57672,2,0,P|85:312|92:308,1,44.1599985175782,0|0,1:0|1:0,1:0:0:0:
167,279,57835,5,12,0:0:0:0:
250,28,58161,1,8,0:0:0:0:
286,194,58324,1,8,0:0:0:0:
176,120,58487,1,2,0:0:0:0:
320,55,58650,1,2,0:0:0:0:
250,321,58813,1,8,0:0:0:0:
466,138,58976,6,0,B|417:118|376:140|376:140|332:162|282:143,1,176.639994070313,0|0,1:0|1:0,0:0:0:0:
424,217,59465,2,0,P|437:280|434:320,1,88.3199970351563,8|0,0:0|0:0,0:0:0:0:
215,174,59791,2,0,P|216:129|227:87,1,88.3199970351563,0|2,1:0|0:0,0:0:0:0:
351,267,60117,2,0,P|258:286|250:284,1,88.3199970351563,8|0,0:0|0:0,0:0:0:0:
133,156,60443,5,8,0:0:0:0:
324,195,60607,1,2,0:0:0:0:
70,208,60770,5,8,0:0:0:0:
387,144,60933,1,2,0:0:0:0:
67,109,61096,5,8,0:0:0:0:
388,252,61259,1,2,0:0:0:0:
128,267,61422,5,8,0:0:0:0:
323,90,61585,1,2,0:0:0:0:
340,316,61748,5,8,0:0:0:0:
172,94,61911,1,2,0:0:0:0:
127,349,62074,5,8,0:0:0:0:
255,127,62237,1,2,0:0:0:0:
282,378,62400,5,8,0:0:0:0:
124,162,62563,1,2,0:0:0:0:
20,344,62726,5,8,3:0:0:0:
22,299,62808,1,8,3:0:0:0:
26,255,62889,1,8,3:0:0:0:
31,212,62971,1,8,3:0:0:0:
38,168,63052,6,0,P|69:138|122:111,1,88.3199970351563,12|0,0:0|0:0,0:0:0:0:
362,80,63378,1,2,0:0:0:0:
116,196,63541,6,0,P|153:175|211:162,1,88.3199970351563,12|0,0:0|0:0,0:0:0:0:
459,204,63867,1,2,0:0:0:0:
189,248,64030,6,0,P|230:237|290:240,1,88.3199970351563,12|0,0:0|0:0,0:0:0:0:
508,346,64357,1,8,0:0:0:0:
492,321,64683,6,0,B|443:334|443:334|379:319|379:319|303:334,1,161.28000196875,12|0,0:0|0:0,0:0:0:0:
173,355,65009,6,0,B|112:326|112:326|284:295,1,190.079999419922,12|0,0:0|0:0,0:0:0:0:
438,256,65335,6,0,P|386:182|282:277,1,218.879997328125,12|0,0:0|0:0,0:0:0:0:
232,304,65661,6,0,B|208:256|208:256|208:184,1,107.5200013125,4|0,1:0|0:0,0:0:0:0:
305,70,65987,1,8,0:0:0:0:
287,211,66150,1,0,0:0:0:0:
127,185,66313,1,0,1:0:0:0:
351,142,66476,1,0,1:0:0:0:
181,81,66639,1,8,0:0:0:0:
232,304,66802,1,2,0:0:0:0:
251,135,66965,5,0,0:0:0:0:
136,287,67128,1,2,0:0:0:0:
149,49,67291,2,0,L|166:155,1,107.5200013125,8|0,0:0|0:0,0:0:0:0:
50,312,67617,2,0,L|68:206,1,107.5200013125,0|0,1:0|1:0,0:0:0:0:
149,49,67943,1,8,0:0:0:0:
211,224,68107,1,0,0:0:0:0:
441,102,68270,6,0,B|390:80|338:103|338:103|297:124|228:97,1,215.040002625,0|8,1:0|0:0,0:0:0:0:
394,170,68759,1,0,0:0:0:0:
289,38,68922,1,0,1:0:0:0:
204,168,69085,1,0,1:0:0:0:
429,91,69248,1,8,0:0:0:0:
320,115,69411,6,0,P|300:181|299:239,1,107.5200013125,2|0,0:0|0:0,0:0:0:0:
386,329,69737,1,2,0:0:0:0:
231,287,69900,2,0,B|171:269|171:269|133:237,1,107.5200013125,8|0,0:0|0:0,0:0:0:0:
201,55,70226,2,0,L|213:202,1,107.5200013125,0|0,1:0|0:0,0:0:0:0:
75,305,70552,2,0,P|57:236|71:172,1,107.5200013125,8|2,0:0|0:0,0:0:0:0:
277,27,70878,6,0,B|287:196|287:196|259:260,1,215.040002625,2|8,0:0|0:0,0:0:0:0:
48,92,71367,2,0,P|145:77|205:202,1,215.040002625,2|2,0:0|0:0,0:0:0:0:
383,84,71857,2,0,P|310:93|268:124,1,107.5200013125,8|0,0:0|0:0,0:0:0:0:
202,279,72183,5,0,1:0:0:0:
211,149,72346,1,0,1:0:0:0:
240,354,72509,5,8,0:0:0:0:
177,74,72672,1,2,0:0:0:0:
159,379,72835,5,8,0:0:0:0:
240,14,72998,1,2,0:0:0:0:
316,329,73161,5,8,0:0:0:0:
115,130,73324,1,2,0:0:0:0:
365,250,73487,6,0,B|312:244|312:244|252:262|252:262|199:248|129:260,1,215.040002625,4|8,1:0|0:0,0:0:0:0:
322,335,73976,1,0,0:0:0:0:
241,178,74139,1,0,1:0:0:0:
203,331,74302,1,0,1:0:0:0:
260,98,74465,1,8,0:0:0:0:
392,297,74628,6,0,L|263:309,1,107.5200013125,2|0,0:0|0:0,0:0:0:0:
106,197,74954,1,2,0:0:0:0:
174,55,75117,6,0,B|185:178|185:178|205:218,1,161.28000196875,12|0,0:0|0:0,0:0:0:0:
337,119,75443,6,0,P|266:110|308:187,1,175.679992762207,12|0,0:0|0:0,0:0:0:0:
405,171,75770,6,0,B|421:34|421:34|455:132,1,190.079999419922,12|0,0:0|0:0,0:0:0:0:
451,254,76096,6,0,P|373:272|282:159,1,215.040002625,4|8,1:0|0:0,0:0:0:0:
397,178,76585,1,0,0:0:0:0:
314,329,76748,2,0,P|254:291|230:240,1,107.5200013125,0|0,1:0|1:0,0:0:0:0:
287,50,77074,1,8,0:0:0:0:
297,197,77237,1,2,0:0:0:0:
96,151,77400,5,0,0:0:0:0:
228,114,77563,1,2,0:0:0:0:
180,321,77726,2,0,P|160:244|165:202,1,107.5200013125,8|0,0:0|0:0,0:0:0:0:
312,73,78052,2,0,B|309:138|309:138|293:177,1,107.5200013125,0|0,1:0|1:0,0:0:0:0:
81,156,78378,1,8,0:0:0:0:
237,111,78541,1,2,0:0:0:0:
62,230,78704,6,0,L|48:91,1,107.5200013125,0|2,1:0|0:0,0:0:0:0:
274,56,79030,2,0,L|263:162,1,107.5200013125,8|0,0:0|0:0,0:0:0:0:
46,48,79357,1,0,1:0:0:0:
261,238,79520,1,0,1:0:0:0:
157,5,79683,1,8,0:0:0:0:
181,281,79846,6,0,B|172:207|172:207|183:158,1,107.5200013125,2|0,0:0|0:0,0:0:0:0:
277,31,80172,1,2,0:0:0:0:
372,220,80335,2,0,L|245:235,1,107.5200013125,8|0,0:0|0:0,0:0:0:0:
97,124,80661,1,0,1:0:0:0:
313,154,80824,1,0,1:0:0:0:
41,262,80987,1,8,0:0:0:0:
257,232,81150,1,2,0:0:0:0:
48,44,81313,6,0,B|113:41|113:41|172:69|214:142,1,195.840001195313,6|0,0:0|0:0,0:0:0:0:
220,21,81802,1,2,0:0:0:0:
70,217,81965,2,0,P|73:168|87:122,1,97.9200005976563,8|0,0:0|0:0,0:0:0:0:
161,304,82291,1,2,0:0:0:0:
145,183,82454,1,8,0:0:0:0:
49,347,82617,5,2,0:0:0:0:
65,226,82780,1,8,0:0:0:0:
203,352,82943,2,0,L|181:243,1,97.9200005976563,2|0,0:0|0:0,0:0:0:0:
48,144,83270,2,0,L|27:343,1,195.840001195313,8|2,0:0|0:0,0:0:0:0:
139,120,83759,1,8,0:0:0:0:
168,219,83922,6,0,P|226:211|315:157,1,138.240003375,2|0,0:0|0:0,0:0:0:0:
387,291,84411,2,0,P|329:283|277:261,1,99.839999390625,2|0,0:0|0:0,0:0:0:0:
399,187,84900,6,0,B|423:161|426:117|388:81|345:71|294:90|282:144|296:173|296:173|195:90|154:208|113:187|50:173|32:138,1,529.87012987013,2|0,0:0|0:0,0:0:0:0:
105,99,89139,6,0,B|129:168|129:168|115:292,2,195.840001195313,4|8|0,1:0|0:0|1:0,0:0:0:0:
50,206,89954,1,2,0:0:0:0:
196,108,90117,1,8,0:0:0:0:
174,350,90280,1,0,3:0:0:0:
333,166,90443,6,0,B|247:138|235:220|136:185,1,195.840001195313,0|8,1:0|0:0,0:0:0:0:
200,98,90933,1,0,0:0:0:0:
291,235,91096,2,0,B|309:305|309:305|303:352,1,97.9200005976563,0|2,1:0|0:0,0:0:0:0:
84,245,91422,2,0,B|65:190|65:190|64:149,1,97.9200005976563,8|2,0:0|0:0,0:0:0:0:
266,103,91748,5,0,1:0:0:0:
306,330,91911,1,0,0:0:0:0:
188,171,92074,2,0,L|306:184,1,97.9200005976563,8|0,0:0|0:0,0:0:0:0:
117,281,92400,2,0,L|-1:294,1,97.9200005976563,0|0,1:0|0:0,0:0:0:0:
228,255,92726,1,8,0:0:0:0:
34,199,92889,1,0,3:0:0:0:
329,188,93052,6,0,L|104:158,1,195.840001195313,0|8,1:0|0:0,0:0:0:0:
236,265,93541,1,2,0:0:0:0:
167,51,93704,1,0,1:0:0:0:
123,298,93867,1,2,0:0:0:0:
265,43,94030,1,8,0:0:0:0:
327,337,94193,1,0,3:0:0:0:
86,144,94357,6,0,B|147:130|147:130|224:139|224:139|290:121,2,195.840001195313,4|8|0,1:0|0:0|1:0,0:0:0:0:
220,58,95173,1,2,0:0:0:0:
141,208,95336,1,8,0:0:0:0:
95,52,95499,1,0,3:0:0:0:
52,259,95662,5,0,1:0:0:0:
169,125,95825,1,0,0:0:0:0:
208,296,95987,2,0,P|224:212|267:95,1,195.840001195313,8|0,0:0|1:0,0:0:0:0:
292,273,96476,1,2,0:0:0:0:
168,133,96639,2,0,P|149:197|146:242,1,97.9200005976563,8|0,0:0|0:0,0:0:0:0:
321,43,96965,6,0,P|339:107|342:152,1,97.9200005976563,8|0,0:0|0:0,0:0:0:0:
122,35,97291,2,0,P|87:123|76:206,1,146.880000896484,12|0,0:0|0:0,0:0:0:0:
146,264,97617,2,0,P|171:201|172:166,1,88.3199970351563,12|8,0:0|0:0,0:0:0:0:
171,153,97862,1,8,0:0:0:0:
165,125,97943,1,8,0:0:0:0:
68,292,98107,1,8,0:0:0:0:
81,317,98188,1,8,0:0:0:0:
102,340,98270,2,0,B|146:357|146:357|202:342,1,89.279996458008,8|0,0:0|0:0,0:0:0:0:
326,236,98596,6,0,P|262:210|132:289,1,204.479989703614,12|0,0:0|0:0,0:0:0:0:
311,323,98922,6,0,B|371:320|371:320|412:266|418:170,1,175.679992762207,12|0,0:0|0:0,0:0:0:0:
293,95,99248,6,0,B|296:145|296:145|322:197|322:197|327:259,1,146.880000896484,12|0,0:0|0:0,0:0:0:0:
325,235,99574,5,2,0:0:0:0:
241,209,99737,1,0,0:0:0:0:
374,139,99900,1,2,0:0:0:0:
290,312,100063,1,2,0:0:0:0:
293,95,100226,6,0,L|300:172,1,59.519997638672,2|0,0:0|0:0,0:0:0:0:
286,16,100552,1,0,0:0:0:0:
236,217,100715,1,2,0:0:0:0:
368,79,100878,6,0,L|375:156,1,59.519997638672,2|0,0:0|0:0,0:0:0:0:
216,115,101204,1,0,0:0:0:0:
445,114,101367,1,2,0:0:0:0:
306,278,101530,5,2,0:0:0:0:
293,95,101693,1,0,0:0:0:0:
489,223,101857,5,12,0:0:0:0:
126,69,102020,1,12,0:0:0:0:
256,192,102101,12,0,108052,0:0:0:0:
