osu file format v14

[General]
AudioFilename: weeb.mp3
AudioLeadIn: 0
PreviewTime: 64601
Countdown: 0
SampleSet: Soft
StackLeniency: 0.5
Mode: 0
LetterboxInBreaks: 0
WidescreenStoryboard: 0

[Editor]
Bookmarks: 65635,81287,89113,99548
DistanceSpacing: 1.4
BeatDivisor: 4
GridSize: 4
TimelineZoom: 2.1

[Metadata]
Title:Yuki no Youni
TitleUnicode:雪のように
Artist:AKINO with bless4
ArtistUnicode:AKINO with bless4
Creator:Sotarks
Version:FCL's Extra
Source:
Tags:akitoshi corinn electoz pkhg janpai [_Sc4v4ng3r_] Sc4v4ng3r appleeaterx Doormat Deppyforce davided kibbleru pentori kalibe hb24 fcl linada christmas
BeatmapID:1128219
BeatmapSetID:532165

[Difficulty]
HPDrainRate:6.6
CircleSize:4
OverallDifficulty:8.8
ApproachRate:9.3
SliderMultiplier:2
SliderTickRate:1

[Events]
//Background and Video events
0,0,"bgflc.jpg",0,0
//Break Periods
//Storyboard Layer 0 (Background)
//Storyboard Layer 1 (Fail)
//Storyboard Layer 2 (Pass)
//Storyboard Layer 3 (Foreground)
//Storyboard Sound Samples

[TimingPoints]
444,326.086956521739,4,2,22,22,1,0
5661,-192.307692307692,4,2,22,22,0,0
6884,-192.307692307692,4,2,22,5,0,0
6965,-161.290322580645,4,2,22,32,0,0
7862,-161.290322580645,4,2,22,5,0,0
7943,-192.307692307692,4,2,22,22,0,0
8270,-161.290322580645,4,2,22,32,0,0
9492,-161.290322580645,4,2,22,5,0,0
9574,-142.857142857143,4,2,22,32,0,0
10878,-166.666666666667,4,2,22,42,0,0
15770,-125,4,2,22,42,0,0
16096,-166.666666666667,4,2,22,42,0,0
18704,-166.666666666666,4,2,22,52,0,0
19357,-142.857142857143,4,2,22,52,0,0
20824,-111.111111111111,4,2,22,52,0,0
21313,-100,4,2,22,62,0,0
30770,-83.3333333333333,4,2,22,72,0,0
31014,-70.4225352112676,4,2,22,5,0,0
31096,-100,4,2,22,62,0,0
31340,-98.0392156862745,4,2,22,5,0,0
31422,-71.4285714285714,4,2,22,52,0,0
31666,-121.951219512195,4,2,22,5,0,0
31748,-142.857142857143,4,2,22,42,0,0
34683,-108.695652173913,4,2,22,42,0,0
34846,-142.857142857143,4,2,22,42,0,0
35987,-333.333333333333,4,2,22,42,0,0
36313,-100,4,2,22,42,0,0
36639,-83.3333333333333,4,2,22,42,0,0
36965,-142.857142857143,4,2,22,42,0,0
38596,-108.695652173913,4,2,22,42,0,0
38759,-142.857142857143,4,2,22,42,0,0
40552,-111.111111111111,4,2,22,42,0,0
40878,-142.857142857143,4,2,22,42,0,0
41857,-111.111111111111,4,2,22,42,0,0
42183,-111.111111111111,4,2,22,42,0,0
52617,-90.9090909090909,4,2,22,52,0,0
53596,-111.111111111111,4,2,22,52,0,0
55226,-90.9090909090908,4,2,22,52,0,0
55878,-111.111111111111,4,2,22,52,0,0
57835,-90.9090909090908,4,2,22,52,0,0
58487,-111.111111111111,4,2,22,52,0,0
64683,-125,4,2,22,62,0,0
64927,-89.2857142857143,4,2,22,5,0,0
65009,-83.3333333333333,4,2,22,72,0,0
65253,-75.7575757575758,4,2,22,5,0,0
65335,-71.4285714285714,4,2,22,82,0,0
65579,-65.7894736842105,4,2,22,5,0,0
65661,-90.9090909090909,4,2,22,62,0,1
72509,-89.2857142857143,4,2,22,72,0,1
72835,-89.2857142857143,4,2,22,82,0,1
73161,-89.2857142857143,4,2,22,72,0,1
73487,-90.9090909090909,4,2,22,62,0,1
75117,-125,4,2,22,62,0,1
75362,-89.2857142857143,4,2,22,5,0,1
75443,-83.3333333333333,4,2,22,62,0,1
75688,-81.9672131147541,4,2,22,5,0,1
75770,-71.4285714285714,4,2,22,62,0,1
76014,-75.7575757575758,4,2,22,5,0,1
76096,-90.9090909090909,4,2,22,62,0,1
81313,-142.857142857143,4,2,22,52,0,0
83922,-200,4,2,22,42,0,0
84411,-192.307692307692,4,2,22,42,0,0
84900,-400,4,2,22,32,0,0
89058,-462,4,2,22,5,0,0
89139,-100,4,2,22,62,0,0
97617,-100,4,2,22,62,0,0
98270,-161.290322580645,4,2,22,62,0,0
98596,-83.3333333333333,4,2,22,62,0,0
98922,-100,4,2,22,62,0,0
99248,-125,4,2,22,62,0,0
99574,-142.857142857143,4,2,22,42,0,0
101857,-161.290322580645,4,2,22,72,0,0
108052,-161.290322580645,4,2,22,22,0,0

[Colours]
Combo1 : 132,100,240
Combo2 : 211,24,10
Combo3 : 35,168,28
Combo4 : 192,107,103

[HitObjects]
114,100,10063,5,0,1:0:0:0:
111,82,10145,1,0,1:0:0:0:
108,64,10226,1,8,0:0:0:0:
108,64,10878,6,0,L|249:57,1,119.999996337891,6|0,0:0|0:0,0:0:0:0:
227,58,11530,1,0,3:0:0:0:
228,59,12183,5,4,3:0:0:0:
185,280,12346,1,4,3:0:0:0:
195,272,12672,1,8,3:0:0:0:
205,264,12998,1,4,3:0:0:0:
29,322,13161,1,4,3:0:0:0:
29,322,13487,6,0,L|159:320,1,119.999996337891,6|0,0:0|0:0,0:0:0:0:
290,377,13976,1,8,0:0:0:0:
334,159,14139,1,8,0:0:0:0:
334,159,14791,5,6,0:0:0:0:
221,234,14954,1,8,0:0:0:0:
199,222,15280,1,0,0:0:0:0:
193,207,15362,1,0,0:0:0:0:
188,192,15443,1,0,1:0:0:0:
278,288,15607,1,8,0:0:0:0:
107,269,15770,5,8,3:0:0:0:
87,189,15933,1,8,3:0:0:0:
183,90,16096,6,0,B|112:81|112:81|67:98,1,119.999996337891,6|0,0:0|0:0,0:0:0:0:
67,98,16748,1,0,3:0:0:0:
391,53,17074,1,8,3:0:0:0:
391,53,17400,6,0,L|397:198,1,119.999996337891,4|0,3:0|0:0,0:0:0:0:
355,241,17889,1,4,3:0:0:0:
497,141,18052,1,0,0:0:0:0:
298,95,18215,1,8,3:0:0:0:
321,168,18378,1,8,3:0:0:0:
321,168,18704,6,0,P|338:228|313:296,1,119.999996337891,6|0,0:0|0:0,0:0:0:0:
322,282,19193,1,0,0:0:0:0:
113,359,19357,6,0,P|156:314|235:299,1,139.999995727539,6|2,0:0|0:0,0:0:0:0:
229,298,19846,1,0,0:0:0:0:
358,376,20009,5,12,0:0:0:0:
410,240,20172,1,0,1:0:0:0:
279,302,20335,1,12,0:0:0:0:
457,367,20498,1,0,1:0:0:0:
236,235,20661,1,12,0:0:0:0:
429,216,20824,5,0,1:0:0:0:
471,202,20905,1,0,1:0:0:0:
498,168,20987,1,8,0:0:0:0:
501,123,21068,1,0,1:0:0:0:
478,85,21150,1,8,0:0:0:0:
437,68,21232,1,0,1:0:0:0:
394,76,21313,6,0,L|399:186,1,100,4|0,1:0|0:0,0:0:0:0:
230,345,21639,2,0,L|234:245,1,100,8|0,0:0|0:0,0:0:0:0:
495,324,21965,2,0,L|395:319,1,100,0|2,1:0|0:0,0:0:0:0:
145,119,22291,2,0,L|244:123,1,100,8|0,0:0|0:0,0:0:0:0:
395,319,22617,6,0,P|367:260|385:192,1,100,0|0,1:0|0:0,0:0:0:0:
445,73,22943,1,8,0:0:0:0:
266,159,23107,1,0,0:0:0:0:
478,216,23270,1,0,1:0:0:0:
346,209,23433,1,2,0:0:0:0:
459,40,23596,1,8,0:0:0:0:
277,110,23759,1,2,0:0:0:0:
478,216,23922,6,0,B|430:230|430:230|354:211,1,100,0|0,1:0|0:0,0:0:0:0:
358,29,24248,1,8,0:0:0:0:
418,141,24411,1,0,0:0:0:0:
278,31,24574,2,0,P|220:57|195:123,1,100,0|0,1:0|0:0,0:0:0:0:
206,241,24900,1,8,0:0:0:0:
277,110,25063,1,2,0:0:0:0:
120,221,25226,6,0,L|126:353,1,100,0|0,1:0|0:0,0:0:0:0:
239,377,25552,1,8,0:0:0:0:
39,301,25715,1,2,0:0:0:0:
302,296,25878,5,0,1:0:0:0:
42,382,26041,1,2,0:0:0:0:
283,316,26204,1,8,0:0:0:0:
120,221,26367,1,0,3:0:0:0:
212,24,26530,6,0,L|217:148,1,100,4|0,1:0|0:0,0:0:0:0:
387,329,26857,2,0,L|391:229,1,100,8|0,0:0|0:0,0:0:0:0:
221,351,27183,2,0,P|181:357|88:324,1,100,0|2,1:0|0:0,0:0:0:0:
324,135,27509,2,0,P|364:129|457:162,1,100,8|2,0:0|0:0,0:0:0:0:
221,351,27835,6,0,B|206:300|206:300|224:231,1,100,0|0,1:0|0:0,0:0:0:0:
288,49,28161,1,8,0:0:0:0:
148,162,28324,1,0,0:0:0:0:
376,237,28487,1,0,1:0:0:0:
248,176,28650,1,2,0:0:0:0:
380,340,28813,1,8,0:0:0:0:
421,163,28976,1,0,0:0:0:0:
197,254,29139,6,0,L|329:251,1,100,0|2,1:0|0:0,0:0:0:0:
497,358,29465,2,0,P|506:305|495:245,1,100,8|2,0:0|0:0,0:0:0:0:
409,86,29791,5,0,1:0:0:0:
230,194,29954,1,8,0:0:0:0:
221,159,30036,1,8,0:0:0:0:
213,125,30117,1,8,0:0:0:0:
97,252,30280,1,8,0:0:0:0:
106,217,30362,1,8,0:0:0:0:
114,183,30443,1,6,0:0:0:0:
114,183,30770,6,0,P|179:203|251:86,1,179.999994506836,12|0,0:0|0:0,0:0:0:0:
142,101,31096,6,0,L|149:258,1,150,12|0,0:0|0:0,0:0:0:0:
244,335,31422,6,0,B|392:349|392:349|307:296,1,209.999993591309,12|0,0:0|0:0,0:0:0:0:
150,320,31748,6,0,L|147:229,1,69.9999978637696,0|0,1:0|0:0,0:0:0:0:
202,196,32074,2,0,L|205:105,1,69.9999978637696,0|0,1:0|0:0,0:0:0:0:
320,41,32400,2,0,P|302:77|250:98,1,69.9999978637696,0|2,1:0|0:0,0:0:0:0:
264,172,32726,2,0,P|229:194|174:186,1,69.9999978637696,8|0,0:0|0:0,0:0:0:0:
39,110,33052,6,0,L|42:188,1,69.9999978637696,0|0,1:0|0:0,0:0:0:0:
97,232,33378,2,0,L|100:310,1,69.9999978637696,0|2,1:0|0:0,0:0:0:0:
230,354,33704,1,0,1:0:0:0:
217,343,33867,1,2,0:0:0:0:
309,231,34030,1,0,1:0:0:0:
328,340,34193,1,2,0:0:0:0:
200,234,34357,6,0,L|194:148,1,69.9999978637696,0|0,1:0|0:0,0:0:0:0:
278,35,34683,6,0,L|274:131,1,91.9999969116212,12|0,0:0|0:0,0:0:0:0:
412,151,35009,6,0,P|356:143|328:155,1,69.9999978637696,0|2,1:0|0:0,0:0:0:0:
286,200,35335,2,0,P|237:229|223:257,1,69.9999978637696,0|2,1:0|0:0,0:0:0:0:
165,346,35661,6,0,L|163:254,1,69.9999978637696,0|0,1:0|0:0,0:0:0:0:
98,138,35987,6,0,L|103:82,1,44.999998626709,0|0,1:0|0:0,0:0:0:0:
55,41,36313,6,0,P|91:93|197:91,1,150,0|0,1:0|0:0,0:0:0:0:
295,114,36639,6,0,B|173:106|173:106|227:143,1,179.999994506836,8|0,0:0|0:0,0:0:0:0:
377,233,36965,6,0,P|392:200|385:146,1,69.9999978637696,4|0,1:0|0:0,0:0:0:0:
446,112,37291,2,0,P|433:78|390:44,1,69.9999978637696,0|0,1:0|0:0,0:0:0:0:
280,108,37617,2,0,L|378:100,1,69.9999978637696,0|2,1:0|0:0,0:0:0:0:
392,166,37943,2,0,L|461:171,1,69.9999978637696,0|2,1:0|0:0,0:0:0:0:
501,314,38270,6,0,P|477:276|472:229,1,69.9999978637696,0|0,1:0|0:0,0:0:0:0:
387,120,38596,6,0,L|392:230,1,91.9999969116212,12|0,0:0|0:0,0:0:0:0:
264,319,38922,6,0,L|336:320,1,69.9999978637696,0|0,1:0|0:0,0:0:0:0:
231,246,39248,1,0,1:0:0:0:
264,319,39411,1,2,0:0:0:0:
302,158,39574,6,0,P|263:152|217:166,1,69.9999978637696,0|0,1:0|0:0,0:0:0:0:
97,194,39900,2,0,P|136:191|180:209,1,69.9999978637696,0|0,1:0|0:0,0:0:0:0:
299,235,40226,2,0,P|259:235|214:256,1,69.9999978637696,0|2,1:0|0:0,0:0:0:0:
89,299,40552,6,0,P|118:293|186:313,1,89.9999972534181,8|0,0:0|0:0,0:0:0:0:
276,355,40878,5,0,1:0:0:0:
212,164,41041,1,8,0:0:0:0:
212,164,41204,2,0,L|216:244,1,69.9999978637696,0|0,0:0|0:0,0:0:0:0:
355,320,41530,5,8,3:0:0:0:
371,297,41612,1,8,3:0:0:0:
377,270,41693,1,8,3:0:0:0:
372,243,41775,1,8,3:0:0:0:
360,217,41857,2,0,L|365:111,1,89.9999972534181
210,270,42183,6,0,L|312:264,1,89.9999972534181,4|0,1:0|0:0,0:0:0:0:
112,376,42509,2,0,P|98:335|118:261,1,89.9999972534181,8|0,0:0|0:0,0:0:0:0:
240,96,42835,1,0,1:0:0:0:
270,222,42998,1,2,0:0:0:0:
131,135,43161,2,0,L|128:71,1,44.999998626709,8|0,0:0|0:0,0:0:0:0:
74,184,43324,6,0,P|148:165|231:243,1,179.999994506836,2|0,0:0|0:0,0:0:0:0:
320,373,43813,2,0,P|309:335|327:263,1,89.9999972534181,8|0,0:0|0:0,0:0:0:0:
433,204,44139,1,0,1:0:0:0:
433,204,44302,1,2,0:0:0:0:
279,136,44465,1,8,0:0:0:0:
314,286,44628,1,2,0:0:0:0:
487,313,44791,6,0,L|372:318,1,89.9999972534181,0|0,1:0|0:0,0:0:0:0:
476,137,45117,2,0,L|386:133,1,89.9999972534181,8|0,0:0|0:0,0:0:0:0:
314,286,45443,1,0,1:0:0:0:
378,150,45607,1,2,0:0:0:0:
215,113,45770,1,8,0:0:0:0:
434,67,45933,1,2,0:0:0:0:
255,226,46096,5,0,1:0:0:0:
255,226,46259,2,0,P|249:168|270:114,1,89.9999972534181,0|8,0:0|0:0,0:0:0:0:
462,64,46585,1,0,0:0:0:0:
413,269,46748,2,0,L|307:264,1,89.9999972534181,0|0,1:0|0:0,0:0:0:0:
171,361,47074,2,0,L|81:365,1,89.9999972534181,8|0,0:0|0:0,0:0:0:0:
13,338,47318,1,0,0:0:0:0:
13,338,47400,6,0,P|-6:296|87:177,1,179.999994506836,0|8,1:0|0:0,0:0:0:0:
139,205,47889,1,2,0:0:0:0:
139,205,48052,1,0,0:0:0:0:
33,46,48215,1,0,1:0:0:0:
211,14,48378,2,0,P|225:53|219:117,1,89.9999972534181,8|0,0:0|0:0,0:0:0:0:
135,310,48704,6,0,L|331:303,1,179.999994506836,0|8,1:0|0:0,0:0:0:0:
391,254,49193,1,2,0:0:0:0:
391,254,49357,1,0,0:0:0:0:
217,151,49520,1,0,1:0:0:0:
307,347,49683,2,0,P|316:298|297:244,1,89.9999972534181,8|0,0:0|0:0,0:0:0:0:
322,182,49927,1,0,0:0:0:0:
322,182,50009,6,0,L|317:79,1,89.9999972534181,4|0,1:0|0:0,0:0:0:0:
182,16,50335,2,0,L|186:81,1,44.999998626709,8|0,0:0|0:0,0:0:0:0:
212,240,50498,2,0,L|217:137,1,89.9999972534181,4|0,1:0|0:0,0:0:0:0:
340,243,50824,1,8,3:0:0:0:
132,313,50987,1,8,0:0:0:0:
295,156,51150,1,2,0:0:0:0:
118,204,51313,5,4,1:0:0:0:
83,120,51476,1,0,0:0:0:0:
122,39,51639,1,2,0:0:0:0:
111,213,51802,1,2,0:0:0:0:
291,82,51965,5,8,0:0:0:0:
309,122,52047,1,8,0:0:0:0:
304,166,52128,1,8,0:0:0:0:
277,201,52210,1,8,0:0:0:0:
235,217,52291,1,8,0:0:0:0:
193,229,52373,1,8,0:0:0:0:
163,262,52454,1,8,0:0:0:0:
155,306,52536,1,8,0:0:0:0:
171,347,52617,6,0,L|302:345,1,110.000003356934,4|0,1:0|0:0,0:0:0:0:
229,130,52943,2,0,L|120:129,1,110.000003356934,8|8,0:0|0:0,0:0:0:0:
163,262,53270,5,2,0:0:0:0:
99,45,53433,1,2,0:0:0:0:
306,93,53596,2,0,P|313:133|302:171,1,44.999998626709,8|0,0:0|0:0,0:0:0:0:
230,305,53759,6,0,P|284:281|374:306,1,134.999995880127,0|0,1:0|0:0,0:0:0:0:
385,322,54085,1,0,1:0:0:0:
437,139,54248,1,8,0:0:0:0:
270,248,54411,2,0,P|253:196|271:141,1,89.9999972534181,0|0,0:0|1:0,0:0:0:0:
443,32,54737,5,2,0:0:0:0:
437,139,54900,1,8,0:0:0:0:
343,84,55063,1,2,0:0:0:0:
463,250,55226,6,0,P|397:264|326:224,1,110.000003356934,4|0,1:0|0:0,0:0:0:0:
130,316,55552,2,0,P|150:251|221:210,1,110.000003356934,8|8,0:0|0:0,0:0:0:0:
347,206,55878,5,2,0:0:0:0:
137,157,56041,1,2,0:0:0:0:
341,39,56204,2,0,L|343:105,1,44.999998626709,8|0,0:0|0:0,0:0:0:0:
266,274,56367,6,0,L|272:116,1,134.999995880127,0|0,1:0|0:0,0:0:0:0:
250,96,56693,1,0,1:0:0:0:
186,278,56857,1,8,0:0:0:0:
327,350,57020,5,0,1:0:0:0:
341,334,57101,1,0,1:0:0:0:
357,317,57183,2,0,L|357:240,1,44.999998626709,8|0,0:0|0:0,0:0:0:0:
231,202,57346,5,0,1:0:0:0:
217,185,57427,1,0,1:0:0:0:
201,168,57509,2,0,L|202:92,1,44.999998626709,8|0,0:0|0:0,0:0:0:0:
351,104,57672,1,0,1:0:0:0:
372,110,57753,1,0,1:0:0:0:
406,94,57835,6,0,P|410:142|354:214,1,110.000003356934,12|0,0:0|0:0,0:0:0:0:
475,336,58161,2,0,P|429:352|345:316,1,110.000003356934,8|8,0:0|0:0,0:0:0:0:
303,303,58405,1,0,0:0:0:0:
303,303,58487,6,0,L|305:199,1,89.9999972534181,2|2,0:0|0:0,0:0:0:0:
166,259,58813,1,8,0:0:0:0:
370,338,58976,6,0,B|495:346|495:346|417:297,1,179.999994506836,0|0,1:0|1:0,0:0:0:0:
257,241,59465,2,0,P|248:204|269:134,1,89.9999972534181,8|0,0:0|0:0,0:0:0:0:
388,88,59791,1,0,1:0:0:0:
388,88,59954,1,2,0:0:0:0:
346,264,60117,2,0,L|248:269,1,89.9999972534181,8|0,0:0|0:0,0:0:0:0:
99,341,60443,5,8,0:0:0:0:
74,140,60607,1,2,0:0:0:0:
192,366,60770,5,8,0:0:0:0:
217,165,60933,1,2,0:0:0:0:
377,341,61096,5,8,0:0:0:0:
352,140,61259,1,2,0:0:0:0:
473,358,61422,5,8,0:0:0:0:
487,264,61585,1,2,0:0:0:0:
332,224,61748,5,8,0:0:0:0:
345,316,61911,1,2,0:0:0:0:
487,264,62074,5,8,0:0:0:0:
190,224,62237,1,2,0:0:0:0:
327,77,62400,5,8,0:0:0:0:
277,363,62563,1,2,0:0:0:0:
342,264,62726,5,8,3:0:0:0:
321,254,62808,1,8,3:0:0:0:
299,249,62889,1,8,3:0:0:0:
277,249,62971,1,8,3:0:0:0:
237,271,63052,5,12,0:0:0:0:
157,150,63215,1,0,0:0:0:0:
224,22,63378,1,2,0:0:0:0:
222,286,63541,5,12,0:0:0:0:
159,161,63704,1,0,0:0:0:0:
238,47,63867,1,2,0:0:0:0:
210,299,64030,5,12,0:0:0:0:
248,68,64193,1,0,0:0:0:0:
203,335,64357,1,8,0:0:0:0:
203,335,64683,6,0,L|196:211,1,120,12|0,0:0|0:0,0:0:0:0:
306,163,65009,6,0,P|252:191|105:152,1,179.999994506836,12|0,0:0|0:0,0:0:0:0:
65,13,65335,6,0,B|43:61|40:120|60:168|60:168|70:125|113:96,1,209.999993591309,12|0,0:0|0:0,0:0:0:0:
306,49,65661,6,0,P|325:104|196:186,1,220.000006713867,4|8,1:0|0:0,0:0:0:0:
137,176,66150,1,0,0:0:0:0:
256,318,66313,2,0,L|385:312,1,110.000003356934,0|0,1:0|1:0,0:0:0:0:
439,132,66639,1,8,0:0:0:0:
383,271,66802,1,2,0:0:0:0:
214,113,66965,6,0,P|264:88|354:107,1,110.000003356934,0|2,0:0|0:0,0:0:0:0:
467,209,67291,1,8,0:0:0:0:
302,271,67454,1,0,0:0:0:0:
441,73,67617,2,0,L|438:205,1,110.000003356934,0|0,1:0|1:0,0:0:0:0:
326,298,67943,1,8,0:0:0:0:
214,113,68107,2,0,L|220:44,1,55.0000016784668
71,17,68270,5,0,1:0:0:0:
24,182,68433,1,0,0:0:0:0:
214,113,68596,2,0,P|208:167|221:220,1,110.000003356934,8|0,0:0|0:0,0:0:0:0:
407,92,68922,2,0,L|257:82,1,110.000003356934,0|0,1:0|1:0,0:0:0:0:
442,193,69248,1,8,0:0:0:0:
491,24,69411,1,2,0:0:0:0:
332,183,69574,6,0,B|323:236|323:236|349:309,1,110.000003356934,0|2,0:0|0:0,0:0:0:0:
476,119,69900,1,8,0:0:0:0:
310,109,70063,1,0,0:0:0:0:
448,346,70226,2,0,P|386:361|313:354,1,110.000003356934,0|0,1:0|0:0,0:0:0:0:
188,265,70552,1,8,0:0:0:0:
352,202,70715,1,2,0:0:0:0:
352,202,70797,1,0,0:0:0:0:
352,202,70878,6,0,P|377:152|291:59,1,165.000005035401,2|0,0:0|0:0,0:0:0:0:
294,74,71204,1,8,0:0:0:0:
132,200,71367,2,0,P|105:168|109:79,1,110.000003356934,2|0,0:0|0:0,0:0:0:0:
153,17,71693,1,2,0:0:0:0:
30,192,71857,2,0,L|38:366,1,165.000005035401,8|0,0:0|0:0,0:0:0:0:
67,356,72183,6,0,P|114:319|189:316,1,110.000003356934,0|0,1:0|1:0,0:0:0:0:
319,336,72509,5,8,0:0:0:0:
388,91,72672,1,2,0:0:0:0:
402,345,72835,5,8,0:0:0:0:
297,45,72998,1,2,0:0:0:0:
309,366,73161,5,8,0:0:0:0:
397,62,73324,1,2,0:0:0:0:
494,280,73487,6,0,B|445:301|445:301|306:273,1,165.000005035401,4|0,1:0|0:0,0:0:0:0:
301,253,73813,1,8,0:0:0:0:
132,348,73976,1,0,0:0:0:0:
215,129,74139,2,0,P|227:181|211:233,1,110.000003356934,0|0,1:0|1:0,0:0:0:0:
66,294,74465,1,8,0:0:0:0:
270,340,74628,5,2,0:0:0:0:
30,225,74791,1,0,0:0:0:0:
354,134,74954,1,2,0:0:0:0:
354,134,75036,1,0,0:0:0:0:
354,134,75117,6,0,L|348:253,1,120,12|0,0:0|0:0,0:0:0:0:
403,333,75443,6,0,B|292:372|325:297|183:349,1,179.999994506836,12|0,0:0|0:0,0:0:0:0:
207,192,75770,6,0,P|215:149|369:166,1,209.999993591309,12|0,0:0|0:0,0:0:0:0:
145,249,76096,6,0,P|134:162|209:49,1,220.000006713867,4|8,1:0|0:0,0:0:0:0:
353,133,76585,1,0,0:0:0:0:
145,249,76748,1,0,1:0:0:0:
145,249,76911,1,0,1:0:0:0:
347,344,77074,2,0,P|358:292|338:230,1,110.000003356934,8|2,0:0|0:0,0:0:0:0:
196,168,77400,5,0,0:0:0:0:
353,133,77563,1,2,0:0:0:0:
262,329,77726,2,0,B|213:336|213:336|130:312,1,110.000003356934,8|0,0:0|0:0,0:0:0:0:
110,141,78052,1,0,1:0:0:0:
65,352,78215,1,0,1:0:0:0:
332,275,78378,1,8,0:0:0:0:
108,243,78541,1,2,0:0:0:0:
108,243,78623,1,0,0:0:0:0:
108,243,78704,6,0,P|93:181|132:119,1,110.000003356934,0|2,1:0|0:0,0:0:0:0:
332,275,79030,2,0,P|285:318|212:316,1,110.000003356934,8|0,0:0|0:0,0:0:0:0:
110,141,79357,5,0,1:0:0:0:
403,206,79520,1,0,1:0:0:0:
108,243,79683,5,8,0:0:0:0:
495,130,79846,1,2,0:0:0:0:
327,28,80009,5,0,0:0:0:0:
315,150,80172,1,2,0:0:0:0:
194,77,80335,5,8,0:0:0:0:
206,183,80498,1,0,0:0:0:0:
115,137,80661,5,0,1:0:0:0:
105,226,80824,1,0,1:0:0:0:
6,197,80987,5,8,0:0:0:0:
33,372,81150,1,2,0:0:0:0:
1,159,81313,6,0,L|151:151,2,139.999995727539,6|0|8,0:0|0:0|0:0,0:0:0:0:
301,294,82291,1,2,0:0:0:0:
310,283,82454,1,8,0:0:0:0:
317,271,82780,5,8,0:0:0:0:
327,257,82943,2,0,L|329:160,1,69.9999978637696,2|0,0:0|0:0,0:0:0:0:
332,30,83270,1,8,0:0:0:0:
222,198,83433,5,0,0:0:0:0:
222,26,83596,1,2,0:0:0:0:
370,112,83759,1,8,0:0:0:0:
222,198,83922,6,0,P|164:199|79:158,2,150,2|2|2,0:0|0:0|0:0,0:0:0:0:
222,198,85226,6,0,B|265:189|312:175|340:128|341:78|341:78|382:68|462:81|491:143|462:197|401:217|327:184|333:149|343:78|410:37|445:35|471:38,1,587.5,0|0,0:0|0:0,0:0:0:0:
464,37,89139,6,0,L|335:29,1,100,4|0,1:0|0:0,0:0:0:0:
222,198,89465,2,0,L|122:204,1,100,8|0,0:0|0:0,0:0:0:0:
306,21,89791,2,0,P|319:81|300:136,1,100,0|2,1:0|0:0,0:0:0:0:
104,243,90117,2,0,P|91:303|110:358,1,100,8|0,0:0|0:0,0:0:0:0:
302,213,90443,6,0,B|320:161|320:161|302:88,1,100,0|0,1:0|0:0,0:0:0:0:
132,38,90770,1,8,0:0:0:0:
377,75,90933,1,0,0:0:0:0:
137,162,91096,1,0,1:0:0:0:
394,48,91259,1,2,0:0:0:0:
385,281,91422,1,8,0:0:0:0:
235,72,91585,1,2,0:0:0:0:
120,260,91748,6,0,P|171:275|236:267,1,100,0|0,1:0|0:0,0:0:0:0:
358,356,92074,1,8,0:0:0:0:
240,187,92237,1,0,0:0:0:0:
391,136,92400,2,0,L|516:130,1,100,0|0,1:0|0:0,0:0:0:0:
385,281,92726,1,8,0:0:0:0:
326,98,92889,1,2,0:0:0:0:
261,313,93052,6,0,P|193:326|138:297,1,100,0|0,1:0|0:0,0:0:0:0:
34,201,93378,1,8,0:0:0:0:
71,367,93541,1,2,0:0:0:0:
120,128,93704,5,0,1:0:0:0:
261,313,93867,1,2,0:0:0:0:
326,98,94030,1,8,0:0:0:0:
174,199,94193,1,0,3:0:0:0:
166,367,94357,6,0,P|148:323|168:247,1,100,4|0,1:0|0:0,0:0:0:0:
1,193,94683,2,0,P|19:149|87:109,1,100,8|0,0:0|0:0,0:0:0:0:
323,199,95009,2,0,L|330:67,1,100,0|2,1:0|0:0,0:0:0:0:
195,342,95335,2,0,L|188:210,1,100,8|2,0:0|0:0,0:0:0:0:
386,49,95661,6,0,P|405:104|366:167,1,100,0|0,1:0|0:0,0:0:0:0:
290,227,95987,1,8,0:0:0:0:
225,22,96150,1,0,0:0:0:0:
367,253,96313,1,0,1:0:0:0:
213,169,96476,1,2,0:0:0:0:
477,123,96639,1,8,0:0:0:0:
350,276,96802,1,0,0:0:0:0:
309,78,96965,5,8,0:0:0:0:
110,142,97128,1,0,0:0:0:0:
377,147,97291,5,12,0:0:0:0:
40,79,97454,1,0,0:0:0:0:
201,6,97617,1,12,0:0:0:0:
278,243,97780,5,8,0:0:0:0:
274,208,97862,1,8,0:0:0:0:
270,173,97943,1,8,0:0:0:0:
35,125,98107,1,8,0:0:0:0:
31,160,98188,1,8,0:0:0:0:
28,195,98270,1,8,0:0:0:0:
28,195,98596,6,0,P|85:226|210:149,1,179.999994506836,12|0,0:0|0:0,0:0:0:0:
368,258,98922,6,0,P|309:283|215:220,1,150,12|0,0:0|0:0,0:0:0:0:
64,315,99248,6,0,P|127:330|187:281,1,120,12|0,0:0|0:0,0:0:0:0:
233,251,99574,5,2,0:0:0:0:
269,320,99737,1,0,0:0:0:0:
339,289,99900,1,0,0:0:0:0:
308,218,100063,1,0,0:0:0:0:
451,308,100226,5,2,0:0:0:0:
360,315,100389,1,0,0:0:0:0:
269,320,100552,1,0,0:0:0:0:
126,206,100715,5,2,0:0:0:0:
308,218,100878,1,2,0:0:0:0:
216,212,101041,1,0,0:0:0:0:
166,135,101204,1,0,0:0:0:0:
349,118,101367,5,2,0:0:0:0:
452,132,101530,1,2,0:0:0:0:
469,236,101693,1,0,0:0:0:0:
375,285,101857,5,12,0:0:0:0:
466,0,102020,1,8,0:0:0:0:
256,192,102101,12,0,108052,0:0:0:0:
