osu file format v14

[General]
AudioFilename: weeb.mp3
AudioLeadIn: 0
PreviewTime: 64601
Countdown: 0
SampleSet: Soft
StackLeniency: 0.7
Mode: 0
LetterboxInBreaks: 0
WidescreenStoryboard: 1

[Editor]
Bookmarks: 418,5635,10852,21287,31722,42157,52591,60417,65635,76070,81287,83896,89113,99548
DistanceSpacing: 1.4
BeatDivisor: 4
GridSize: 4
TimelineZoom: 1.7

[Metadata]
Title:Yuki no Youni
TitleUnicode:雪のように
Artist:AKINO with bless4
ArtistUnicode:AKINO with bless4
Creator:Sotarks
Version:Electoz's Hard
Source:
Tags:akitoshi corinn electoz pkhg janpai [_Sc4v4ng3r_] Sc4v4ng3r appleeaterx Doormat Deppyforce davided kibbleru pentori kalibe hb24 fcl linada christmas
BeatmapID:1129336
BeatmapSetID:532165

[Difficulty]
HPDrainRate:5
CircleSize:4
OverallDifficulty:6
ApproachRate:7.8
SliderMultiplier:1.6
SliderTickRate:1

[Events]
//Background and Video events
0,0,"Electozbg.jpg",0,0
//Break Periods
//Storyboard Layer 0 (Background)
//Storyboard Layer 1 (Fail)
//Storyboard Layer 2 (Pass)
//Storyboard Layer 3 (Foreground)
//Storyboard Sound Samples

[TimingPoints]
444,326.086956521739,4,2,19,10,1,0
444,-133.333333333333,4,2,19,10,0,0
6965,-133.333333333333,4,2,19,35,0,0
7047,-133.333333333333,4,2,19,10,0,0
7943,-133.333333333333,4,2,19,25,0,0
8025,-133.333333333333,4,2,19,10,0,0
8270,-133.333333333333,4,2,19,25,0,0
8351,-133.333333333333,4,2,19,10,0,0
9574,-133.333333333333,4,2,19,20,0,0
9900,-133.333333333333,4,2,19,30,0,0
10226,-133.333333333333,4,2,19,45,0,0
10878,-133.333333333333,4,2,19,52,0,0
10960,-133.333333333333,4,2,19,45,0,0
12672,-133.333333333333,4,2,19,35,0,0
12753,-133.333333333333,4,2,19,45,0,0
13487,-133.333333333333,4,2,19,52,0,0
13568,-133.333333333333,4,2,19,45,0,0
14139,-133.333333333333,4,2,19,30,0,0
14791,-133.333333333333,4,2,19,45,0,0
15280,-133.333333333333,4,2,19,30,0,0
15443,-133.333333333333,4,2,19,45,0,0
15770,-133.333333333333,4,2,19,35,0,0
15933,-133.333333333333,4,2,19,45,0,0
16096,-133.333333333333,4,2,19,52,0,0
16177,-133.333333333333,4,2,19,45,0,0
17400,-133.333333333333,4,2,19,50,0,0
17482,-133.333333333333,4,2,19,45,0,0
18704,-111.111111111111,4,2,19,50,0,0
19030,-111.111111111111,4,2,19,55,0,0
19357,-111.111111111111,4,2,19,50,0,0
19683,-111.111111111111,4,2,19,45,0,0
20009,-111.111111111111,4,2,19,50,0,0
20172,-111.111111111111,4,2,19,40,0,0
20335,-111.111111111111,4,2,19,50,0,0
20498,-111.111111111111,4,2,19,40,0,0
20661,-111.111111111111,4,2,19,65,0,0
20987,-111.111111111111,4,2,19,55,0,0
21068,-111.111111111111,4,2,19,65,0,0
21150,-111.111111111111,4,2,19,55,0,0
21313,-90.9090909090909,4,2,19,70,0,0
22862,-90.9090909090909,4,2,19,15,0,0
22943,-90.9090909090909,4,2,19,70,0,0
24737,-90.9090909090909,4,2,19,60,0,0
24900,-90.9090909090909,4,2,19,70,0,0
26286,-90.9090909090909,4,2,19,50,0,0
26367,-90.9090909090909,4,2,19,55,0,0
26449,-90.9090909090909,4,2,19,50,0,0
26530,-90.9090909090909,4,2,19,70,0,0
27346,-90.9090909090909,4,2,19,60,0,0
27509,-90.9090909090909,4,2,19,70,0,0
29954,-90.9090909090909,4,2,19,60,0,0
30117,-90.9090909090909,4,2,19,50,0,0
30280,-90.9090909090909,4,2,19,60,0,0
30443,-90.9090909090909,4,2,19,30,0,0
30688,-90.9090909090909,4,2,19,10,0,0
30770,-90.9090909090909,4,2,19,75,0,0
31014,-90.9090909090909,4,2,19,25,0,0
31096,-90.9090909090909,4,2,19,75,0,0
31340,-90.9090909090909,4,2,19,25,0,0
31422,-90.9090909090909,4,2,19,60,0,0
31748,-125,4,2,19,45,0,0
33867,-125,4,2,19,35,0,0
34030,-125,4,2,19,45,0,0
35661,-125,4,2,19,60,0,0
35824,-125,4,2,19,45,0,0
36313,-125,4,2,19,60,0,0
36558,-125,4,2,19,10,0,0
36639,-125,4,2,19,45,0,0
36802,-125,4,2,19,33,0,0
36965,-125,4,2,19,45,0,0
38270,-125,4,2,19,60,0,0
38351,-125,4,2,19,45,0,0
39574,-125,4,2,19,60,0,0
39737,-125,4,2,19,45,0,0
40797,-125,4,2,19,10,0,0
40878,-125,4,2,19,60,0,0
41693,-125,4,2,19,40,0,0
41857,-125,4,2,19,60,0,0
41938,-111.111111111111,4,2,19,60,0,0
42020,-111.111111111111,4,2,19,40,0,0
42183,-111.111111111111,4,2,19,65,0,0
46911,-111.111111111111,4,2,19,40,0,0
47074,-111.111111111111,4,2,19,65,0,0
50498,-111.111111111111,4,2,19,50,0,0
50661,-111.111111111111,4,2,19,65,0,0
50824,-111.111111111111,4,2,19,40,0,0
50987,-111.111111111111,4,2,19,60,0,0
51965,-111.111111111111,4,2,19,50,0,0
52291,-111.111111111111,4,2,19,65,0,0
52617,-111.111111111111,4,2,19,40,0,0
52862,-111.111111111111,4,2,19,10,0,0
52943,-111.111111111111,4,2,19,60,0,0
53107,-111.111111111111,4,2,19,67,0,0
55226,-111.111111111111,4,2,19,40,0,0
55471,-111.111111111111,4,2,19,10,0,0
55552,-111.111111111111,4,2,19,60,0,0
55715,-111.111111111111,4,2,19,67,0,0
57020,-111.111111111111,4,2,19,55,0,0
57183,-111.111111111111,4,2,19,67,0,0
57346,-111.111111111111,4,2,19,55,0,0
57509,-111.111111111111,4,2,19,67,0,0
57672,-111.111111111111,4,2,19,55,0,0
57835,-111.111111111111,4,2,19,40,0,0
58079,-111.111111111111,4,2,19,10,0,0
58161,-111.111111111111,4,2,19,60,0,0
58324,-111.111111111111,4,2,19,67,0,0
60443,-100,4,2,19,67,0,0
61422,-100,4,2,19,50,0,0
61585,-100,4,2,19,67,0,0
61748,-100,4,2,19,50,0,0
61911,-100,4,2,19,67,0,0
62726,-100,4,2,19,50,0,0
62808,-100,4,2,19,67,0,0
64275,-100,4,2,19,10,0,0
64357,-90.9090909090909,4,2,19,40,0,0
64683,-90.9090909090909,4,2,19,60,0,0
64927,-90.9090909090909,4,2,19,10,0,0
65009,-90.9090909090909,4,2,19,80,0,0
65253,-90.9090909090909,4,2,19,10,0,0
65335,-90.9090909090909,4,2,19,85,0,0
65661,-90.9090909090909,4,2,19,90,0,1
65742,-90.9090909090909,4,2,19,80,0,1
66313,-90.9090909090909,4,2,19,55,0,1
66476,-90.9090909090909,4,2,19,80,0,1
69411,-90.9090909090909,4,2,19,60,0,1
69574,-90.9090909090909,4,2,19,80,0,1
70145,-90.9090909090909,4,2,19,10,0,1
70226,-90.9090909090909,4,2,19,80,0,1
70878,-90.9090909090909,4,2,19,55,0,1
70960,-90.9090909090909,4,2,19,80,0,1
73324,-90.9090909090909,4,2,19,60,0,1
73487,-90.9090909090909,4,2,19,80,0,1
75117,-90.9090909090909,4,2,19,55,0,1
75280,-90.9090909090909,4,2,19,80,0,1
75443,-90.9090909090909,4,2,19,55,0,1
75525,-90.9090909090909,4,2,19,80,0,1
76748,-90.9090909090909,4,2,19,55,0,1
76911,-90.9090909090909,4,2,19,80,0,1
81313,-125,4,2,19,70,0,1
82454,-125,4,2,19,55,0,1
82617,-125,4,2,19,70,0,1
85226,-125,4,2,19,40,0,1
87835,-125,4,2,19,20,0,1
88161,-125,4,2,19,25,0,1
88487,-125,4,2,19,35,0,1
88813,-125,4,2,19,45,0,1
89139,-90.9090909090909,4,2,19,70,0,0
94112,-90.9090909090909,4,2,19,60,0,0
94357,-90.9090909090909,4,2,19,70,0,0
97210,-90.9090909090909,4,2,19,10,0,0
97291,-90.9090909090909,4,2,19,80,0,0
97617,-90.9090909090909,4,2,19,70,0,0
97780,-90.9090909090909,4,2,19,60,0,0
98270,-90.9090909090909,4,2,19,40,0,0
98514,-90.9090909090909,4,2,19,10,0,0
98596,-90.9090909090909,4,2,19,75,0,0
98840,-90.9090909090909,4,2,19,10,0,0
98922,-90.9090909090909,4,2,19,65,0,0
99166,-90.9090909090909,4,2,19,10,0,0
99248,-90.9090909090909,4,2,19,60,0,0
99574,-111.111111111111,4,2,19,40,0,0
101530,-111.111111111111,4,2,19,20,0,0
101857,-111.111111111111,4,2,19,70,0,0
102020,-111.111111111111,4,2,19,80,0,0
102101,-111.111111111111,4,2,19,40,0,0
104791,-111.111111111111,4,2,19,50,0,0
108052,-111.111111111111,4,2,19,10,0,0

[Colours]
Combo1 : 207,191,184
Combo2 : 210,2,7
Combo3 : 51,0,102
Combo4 : 0,64,128

[HitObjects]
492,272,9574,38,0,P|398:311|323:296,1,180.000006866455
324,297,10145,1,0,0:0:0:0:
324,297,10226,1,8,0:0:0:0:
212,274,10878,38,0,B|230:223|210:183|172:154|172:154|218:147,1,180.000006866455,6|0,3:3|0:0,0:0:0:0:
298,147,11530,2,0,B|340:140|340:140|302:111|282:71|300:20,1,180.000006866455,8|0,0:3|0:0,0:0:0:0:
215,24,12183,1,6,3:2:0:0:
215,24,12346,1,8,0:3:0:0:
379,61,12672,2,0,P|407:90|425:127,1,60.0000022888184,8|0,0:3|0:0,0:0:0:0:
496,79,12998,1,0,3:0:0:0:
496,79,13161,1,0,3:0:0:0:
340,142,13487,6,0,P|290:109|224:119,1,120.000004577637,6|0,3:3|0:0,0:0:0:0:
271,194,13976,1,8,0:0:0:0:
271,194,14139,1,8,0:0:0:0:
167,61,14791,1,6,3:2:0:0:
167,61,14954,2,0,P|213:34|289:29,1,120.000004577637,8|8,0:0|0:0,0:0:0:0:
338,86,15443,2,0,L|365:148,1,60.0000022888184,2|8,0:0|0:0,0:0:0:0:
446,143,15770,2,0,L|470:88,1,60.0000022888184,8|0,0:3|3:0,0:0:0:0:
406,216,16096,38,0,P|390:272|414:326,2,120.000004577637,6|0|0,3:3|0:0|0:0,0:0:0:0:
305,81,17074,1,8,0:3:0:0:
406,216,17400,2,0,P|352:240|295:224,1,120.000004577637,6|0,3:3|0:0,0:0:0:0:
232,279,17889,1,8,0:3:0:0:
139,138,18215,1,8,0:3:0:0:
139,138,18378,1,0,3:0:0:0:
347,154,18704,6,0,L|193:168,1,143.999995605469,6|2,3:2|0:3,0:0:0:0:
22,76,19357,2,0,L|165:62,1,143.999995605469,6|10,3:3|0:3,0:0:0:0:
347,154,20009,38,0,L|272:160,1,71.9999978027344,6|8,3:3|0:3,0:0:0:0:
230,249,20335,2,0,L|301:243,2,71.9999978027344,6|8|6,0:3|0:3|3:2,0:0:0:0:
130,263,20824,1,8,0:0:0:0:
130,263,20905,1,8,0:0:0:0:
130,263,20987,2,0,L|84:240,3,35.9999989013672,8|0|8|8,0:0|0:0|0:0|0:0,0:0:0:0:
60,224,21313,38,0,P|52:177|71:129,1,88.000002685547,6|0,3:3|0:0,0:0:0:0:
172,80,21639,2,0,P|180:127|161:175,1,88.000002685547,8|0,0:0|0:0,0:0:0:0:
267,92,21965,2,0,L|355:99,1,88.000002685547,0|0,3:0|0:0,0:0:0:0:
477,93,22291,1,8,0:0:0:0:
394,185,22454,1,2,0:0:0:0:
394,185,22617,38,0,L|306:192,1,88.000002685547,2|0,3:2|0:0,0:0:0:0:
227,286,22943,2,0,L|315:279,1,88.000002685547,8|0,0:0|0:0,0:0:0:0:
224,194,23270,1,2,3:2:0:0:
146,289,23433,1,0,0:0:0:0:
146,289,23596,2,0,P|154:246|141:204,1,88.000002685547,8|0,0:0|0:0,0:0:0:0:
38,137,23922,6,0,P|30:184|49:232,1,88.000002685547,2|0,3:2|0:0,0:0:0:0:
146,289,24248,2,0,L|234:282,1,88.000002685547,8|0,0:0|0:0,0:0:0:0:
313,188,24574,2,0,L|225:195,1,88.000002685547,2|2,3:2|0:0,0:0:0:0:
102,206,24900,1,8,0:0:0:0:
233,282,25063,1,2,0:0:0:0:
233,282,25226,38,0,L|321:275,1,88.000002685547,2|0,3:2|0:0,0:0:0:0:
400,181,25552,2,0,L|312:188,1,88.000002685547,8|2,0:0|0:0,0:0:0:0:
207,201,25878,1,2,3:2:0:0:
207,201,26041,2,0,L|156:293,2,88.000002685547,0|8|0,0:0|0:0|0:0,0:0:0:0:
253,105,26530,6,0,P|210:93|168:102,1,88.000002685547,6|0,3:3|0:0,0:0:0:0:
207,201,26857,2,0,P|248:213|291:204,1,88.000002685547,8|0,0:0|0:0,0:0:0:0:
373,112,27183,1,2,3:2:0:0:
373,112,27346,2,0,L|460:120,1,88.000002685547,2|8,0:0|0:0,0:0:0:0:
404,30,27672,1,2,0:0:0:0:
379,195,27835,38,0,L|291:203,1,88.000002685547,2|0,3:2|0:0,0:0:0:0:
210,295,28161,2,0,L|298:287,1,88.000002685547,8|0,0:0|0:0,0:0:0:0:
390,337,28487,1,2,3:2:0:0:
461,259,28650,1,0,0:0:0:0:
461,259,28813,2,0,P|474:217|466:174,1,88.000002685547,8|0,0:0|0:0,0:0:0:0:
364,104,29139,6,0,P|356:151|375:199,1,88.000002685547,2|0,3:2|0:0,0:0:0:0:
283,278,29465,2,0,L|215:342,2,88.000002685547,8|0|10,0:0|0:0|0:0,0:0:0:0:
273,163,29954,1,8,0:0:0:0:
273,163,30036,1,8,0:0:0:0:
273,163,30117,1,8,0:0:0:0:
166,100,30280,2,0,L|113:64,2,44.0000013427735,8|8|2,0:0|0:0|0:0,0:0:0:0:
222,341,30770,38,0,B|166:276|166:276|163:181,2,176.000005371094,6|6|6,3:3|3:3|3:3,0:0:0:0:
222,341,31748,38,0,P|284:324|357:340,2,128,6|0|0,3:3|3:0|3:0,0:0:0:0:
294,177,32726,1,8,0:0:0:0:
294,177,33052,2,0,P|232:194|159:178,2,128,2|0|0,3:2|3:0|3:0,0:0:0:0:
222,341,34030,1,0,3:0:0:0:
400,317,34357,37,2,3:2:0:0:
294,177,34683,2,0,P|232:160|159:176,2,128,8|0|0,0:0|3:0|3:0,0:0:0:0:
400,317,35661,2,0,L|268:329,1,128,2|0,3:2|3:0,0:0:0:0:
94,313,36313,1,2,3:2:0:0:
196,165,36639,1,8,0:0:0:0:
272,328,36965,6,0,L|400:317,2,128,6|0|0,3:2|3:0|3:0,0:0:0:0:
375,182,37943,1,2,3:2:0:0:
196,165,38270,1,2,3:2:0:0:
272,328,38596,2,0,L|399:339,2,128,8|0|0,0:0|3:0|3:0,0:0:0:0:
94,313,39574,38,0,P|105:251|96:184,1,128,2|0,3:2|3:0,0:0:0:0:
208,47,40226,2,0,P|197:109|206:176,1,128,0|8,3:0|0:0,0:0:0:0:
330,301,40878,2,0,L|375:348,2,64,2|8|0,0:2|0:0|0:0,0:0:0:0:
378,128,41530,2,0,L|442:66,2,64,8|8|8,0:0|0:3|0:0,0:0:0:0:
240,243,42183,6,0,L|153:249,1,71.9999978027344,6|0,3:3|0:0,0:0:0:0:
67,256,42509,2,0,P|46:170|76:108,1,143.999995605469,8|0,0:0|3:0,0:0:0:0:
136,49,42998,1,0,0:0:0:0:
136,49,43161,2,0,L|216:49,1,71.9999978027344,8|0,0:0|0:0,0:0:0:0:
306,68,43487,2,0,P|326:135|304:203,1,143.999995605469,2|8,3:2|0:0,0:0:0:0:
254,290,43976,1,2,0:0:0:0:
254,290,44139,2,0,L|167:296,1,71.9999978027344,0|0,3:0|0:0,0:0:0:0:
131,216,44465,1,8,0:0:0:0:
131,216,44791,38,0,L|202:211,1,71.9999978027344,2|0,3:2|0:0,0:0:0:0:
303,203,45117,2,0,P|325:136|306:68,2,143.999995605469,8|0|8,0:0|3:0|0:0,0:0:0:0:
254,290,45933,1,0,0:0:0:0:
254,290,46096,2,0,L|110:266,1,143.999995605469,2|8,3:2|0:0,0:0:0:0:
52,174,46585,1,0,0:0:0:0:
52,174,46748,2,0,L|33:99,1,71.9999978027344,2|2,3:2|0:0,0:0:0:0:
152,100,47074,2,0,L|134:169,1,71.9999978027344,8|0,0:0|3:0,0:0:0:0:
111,265,47400,6,0,P|182:257|253:268,1,143.999995605469,6|8,3:2|0:0,0:0:0:0:
352,287,47889,1,0,3:0:0:0:
211,333,48052,2,0,P|177:257|223:197,1,143.999995605469,0|8,0:0|0:0,0:0:0:0:
281,144,48541,1,0,0:0:0:0:
253,268,48704,2,0,P|182:257|111:265,1,143.999995605469,6|8,3:2|0:0,0:0:0:0:
13,289,49193,1,0,3:0:0:0:
155,330,49357,2,0,P|189:254|143:194,1,143.999995605469,0|8,0:0|0:0,0:0:0:0:
84,142,49846,1,0,3:0:0:0:
84,142,50009,38,0,L|228:118,1,143.999995605469,6|8,3:2|0:0,0:0:0:0:
296,46,50498,2,0,L|324:131,1,71.9999978027344,2|2,3:2|3:2,0:0:0:0:
416,139,50824,2,0,L|393:70,1,71.9999978027344,8|8,0:3|0:0,0:0:0:0:
350,198,51150,1,2,3:2:0:0:
350,198,51313,2,0,P|407:227|480:200,1,143.999995605469,2|0,3:2|3:0,0:0:0:0:
467,301,51802,1,8,0:3:0:0:
367,319,51965,2,0,L|313:329,3,35.9999989013672,8|8|8|8,0:0|0:0|0:0|0:0,0:0:0:0:
281,317,52291,2,0,L|242:300,3,35.9999989013672,8|8|8|8,0:0|0:0|0:0|0:0,0:0:0:0:
201,282,52617,5,10,3:2:0:0:
201,282,52943,2,0,L|123:272,1,71.9999978027344,6|0,3:2|0:0,0:0:0:0:
49,210,53270,2,0,L|3:154,2,71.9999978027344,0|0|8,3:0|3:0|0:0,0:0:0:0:
129,272,53759,2,0,P|193:224|256:232,1,143.999995605469,2|0,3:2|3:0,0:0:0:0:
346,268,54248,1,8,0:0:0:0:
308,174,54411,2,0,P|250:149|158:155,1,143.999995605469,0|2,0:0|3:2,0:0:0:0:
79,195,54900,2,0,L|63:125,1,71.9999978027344,8|0,0:0|0:0,0:0:0:0:
40,26,55226,37,10,3:2:0:0:
40,26,55552,2,0,L|111:17,1,71.9999978027344,6|8,3:2|0:0,0:0:0:0:
210,36,55878,2,0,L|298:53,2,71.9999978027344,0|0|8,0:0|3:0|0:0,0:0:0:0:
111,16,56367,2,0,P|133:82|104:146,1,143.999995605469,2|2,3:2|3:2,0:0:0:0:
156,232,56857,2,0,L|200:299,2,71.9999978027344,8|8|2,0:0|0:0|3:2,0:0:0:0:
205,143,57346,2,0,L|240:72,2,71.9999978027344,8|10|8,0:0|3:2|0:0,0:0:0:0:
156,232,57835,5,10,0:0:0:0:
156,232,58161,2,0,L|234:241,1,71.9999978027344,6|8,3:2|0:0,0:0:0:0:
317,285,58487,2,0,L|384:316,2,71.9999978027344,0|0|8,3:0|3:0|0:0,0:0:0:0:
227,240,58976,2,0,P|205:174|234:110,1,143.999995605469,2|8,3:2|0:0,0:0:0:0:
313,46,59465,2,0,B|357:7|398:61|457:33,2,143.999995605469,8|0|8,0:0|3:0|0:0,0:0:0:0:
234,109,60443,38,0,P|225:150|235:190,1,80,10|0,3:2|3:0,0:0:0:0:
329,244,60770,2,0,P|337:205|328:166,1,80,8|0,0:0|3:0,0:0:0:0:
234,109,61096,2,0,P|193:100|153:110,1,80,8|2,0:0|3:2,0:0:0:0:
77,189,61423,2,0,P|66:226|75:265,1,80,2|0,1:3|0:0,0:0:0:0:
183,293,61748,2,0,P|193:255|184:216,1,80,2|0,1:3|3:0,0:0:0:0:
156,108,62074,2,0,B|128:48|40:101|29:18,2,160,8|8|8,0:0|0:0|0:3,0:0:0:0:
184,216,62889,1,0,3:0:0:0:
184,216,62971,1,0,3:0:0:0:
184,216,63052,6,0,L|355:230,1,160,10|8,0:2|0:0,0:0:0:0:
412,141,63541,2,0,L|252:127,1,160,6|8,3:2|0:0,0:0:0:0:
198,28,64030,2,0,L|277:34,1,80,8|0,0:0|0:0,0:0:0:0:
151,112,64357,37,2,3:3:0:0:
151,112,64683,2,0,L|244:118,1,88.000002685547,6|0,3:3|0:0,0:0:0:0:
137,191,65009,2,0,L|230:197,1,88.000002685547,6|0,3:3|0:0,0:0:0:0:
123,270,65335,2,0,L|216:276,1,88.000002685547,2|0,3:3|0:0,0:0:0:0:
352,286,65661,38,0,P|330:165|367:112,1,176.000005371094,6|8,3:3|0:0,0:0:0:0:
443,39,66150,1,0,0:0:0:0:
319,39,66313,2,0,L|231:44,1,88.000002685547,2|0,3:3|3:0,0:0:0:0:
139,126,66639,2,0,L|227:131,1,88.000002685547,8|0,0:0|3:0,0:0:0:0:
108,47,66965,38,0,P|54:132|87:193,1,176.000005371094,2|8,3:2|0:0,0:0:0:0:
175,273,67454,1,0,0:0:0:0:
175,273,67617,2,0,P|217:282|259:271,1,88.000002685547,0|0,3:0|3:0,0:0:0:0:
252,156,67943,2,0,P|209:146|167:157,1,88.000002685547,8|0,0:0|3:0,0:0:0:0:
259,271,68270,6,0,L|262:88,1,176.000005371094,2|8,3:2|0:0,0:0:0:0:
353,12,68759,1,0,0:0:0:0:
448,90,68922,2,0,P|457:132|446:174,1,88.000002685547,0|0,3:0|3:0,0:0:0:0:
350,251,69248,2,0,P|340:208|351:166,1,88.000002685547,8|2,0:0|0:0,0:0:0:0:
357,43,69574,38,0,L|269:38,1,88.000002685547,2|0,3:2|3:0,0:0:0:0:
146,47,69900,2,0,P|155:89|143:132,1,88.000002685547,8|0,0:0|0:0,0:0:0:0:
96,209,70226,2,0,P|68:176|56:134,1,88.000002685547,0|0,3:0|0:0,0:0:0:0:
230,133,70552,2,0,P|219:175|190:207,1,88.000002685547,8|0,0:0|3:0,0:0:0:0:
146,47,70878,6,0,L|329:63,1,176.000005371094,2|8,3:3|0:0,0:0:0:0:
416,142,71367,2,0,L|240:158,1,176.000005371094,0|0,0:0|3:0,0:0:0:0:
116,174,71857,2,0,P|125:132|113:89,1,88.000002685547,8|0,0:0|0:0,0:0:0:0:
66,12,72183,38,0,P|38:45|26:87,1,88.000002685547,2|0,3:2|3:0,0:0:0:0:
200,88,72509,2,0,P|189:46|160:14,1,88.000002685547,8|0,0:0|0:0,0:0:0:0:
116,174,72835,2,0,P|107:216|119:259,1,88.000002685547,2|0,3:2|0:0,0:0:0:0:
240,250,73161,2,0,P|249:208|237:165,1,88.000002685547,8|2,0:0|0:0,0:0:0:0:
177,333,73487,6,0,L|353:317,1,176.000005371094,2|8,3:2|0:0,0:0:0:0:
470,351,73976,1,0,0:0:0:0:
470,351,74139,2,0,P|462:271|391:207,1,176.000005371094,0|8,3:0|0:0,0:0:0:0:
443,95,74628,2,0,L|476:14,2,88.000002685547,2|2|0,3:2|3:2|3:0,0:0:0:0:
394,208,75117,38,0,P|350:203|307:210,1,88.000002685547,2|0,1:3|0:0,0:0:0:0:
228,306,75444,2,0,P|271:310|314:303,1,88.000002685547,2|0,0:3|0:0,0:0:0:0:
222,212,75770,2,0,P|178:204|135:211,1,88.000002685547,8|0,0:0|0:0,0:0:0:0:
307,209,76096,6,0,L|290:32,1,176.000005371094,6|8,3:2|0:0,0:0:0:0:
389,118,76585,1,0,0:0:0:0:
434,239,76748,2,0,P|442:281|430:323,1,88.000002685547,2|0,3:3|3:0,0:0:0:0:
268,282,77074,2,0,P|311:289|354:277,1,88.000002685547,8|0,0:0|3:0,0:0:0:0:
209,348,77400,38,0,P|183:273|238:200,1,176.000005371094,2|8,3:2|0:0,0:0:0:0:
340,134,77889,1,0,0:0:0:0:
340,134,78052,2,0,L|252:120,1,88.000002685547,0|0,3:0|0:0,0:0:0:0:
151,189,78378,2,0,L|237:202,1,88.000002685547,8|0,0:0|3:0,0:0:0:0:
312,300,78704,6,0,L|224:286,1,88.000002685547,2|0,3:2|0:0,0:0:0:0:
326,215,79030,2,0,L|412:228,1,88.000002685547,8|0,0:0|0:0,0:0:0:0:
376,109,79357,2,0,L|423:27,2,88.000002685547,0|0|8,3:0|3:0|0:0,0:0:0:0:
326,223,79846,1,2,3:2:0:0:
326,223,80009,38,0,P|285:235|242:227,1,88.000002685547,2|0,3:2|3:0,0:0:0:0:
247,108,80335,2,0,P|206:96|163:104,1,88.000002685547,8|0,0:0|0:0,0:0:0:0:
333,132,80661,2,0,P|334:90|316:50,1,88.000002685547,0|0,2:0|3:0,0:0:0:0:
333,222,80987,2,0,P|375:212|408:184,1,88.000002685547,8|0,0:0|0:0,0:0:0:0:
259,188,81313,6,0,L|246:327,2,128,2|0|8,3:2|3:0|0:0,0:0:0:0:
280,10,82291,1,0,3:0:0:0:
280,10,82454,2,0,P|222:34|160:23,1,128,8|8,0:3|0:0,0:0:0:0:
93,83,82943,2,0,L|9:184,2,128,0|8|0,3:0|0:0|3:0,0:0:0:0:
243,173,83922,37,2,0:3:0:0:
256,192,84085,12,0,88813,0:0:0:0:
253,277,89139,6,0,P|210:289|168:280,1,88.000002685547,6|0,3:3|0:0,0:0:0:0:
207,181,89466,2,0,P|248:169|291:178,1,88.000002685547,8|0,0:0|0:0,0:0:0:0:
373,270,89792,1,0,3:0:0:0:
373,270,89955,2,0,L|460:262,1,88.000002685547,0|0,0:0|0:0,0:0:0:0:
404,352,90281,1,2,0:0:0:0:
379,187,90444,38,0,L|291:179,1,88.000002685547,2|0,3:2|0:0,0:0:0:0:
210,87,90770,2,0,L|298:95,1,88.000002685547,8|0,0:0|0:0,0:0:0:0:
390,45,91096,1,2,3:2:0:0:
461,123,91259,1,0,0:0:0:0:
461,123,91422,2,0,P|474:165|466:208,1,88.000002685547,8|0,0:0|0:0,0:0:0:0:
410,317,91748,6,0,L|322:310,1,88.000002685547,2|0,3:2|0:0,0:0:0:0:
240,217,92074,2,0,L|328:224,1,88.000002685547,8|0,0:0|0:0,0:0:0:0:
236,306,92400,2,0,L|148:299,1,88.000002685547,0|0,3:0|0:0,0:0:0:0:
157,178,92726,1,8,0:0:0:0:
41,220,92889,1,2,0:0:0:0:
41,220,93052,38,0,P|28:178|36:135,1,88.000002685547,2|0,3:2|0:0,0:0:0:0:
151,93,93378,2,0,P|164:135|156:178,1,88.000002685547,8|0,0:0|0:0,0:0:0:0:
100,287,93704,1,0,3:0:0:0:
100,287,93867,2,0,L|43:381,2,88.000002685547,0|8|0,0:0|0:0|0:0,0:0:0:0:
156,177,94357,6,0,P|203:169|251:188,1,88.000002685547,6|0,3:3|0:0,0:0:0:0:
282,296,94683,2,0,P|235:304|187:285,1,88.000002685547,8|0,0:0|0:0,0:0:0:0:
156,177,95009,2,0,L|163:89,1,88.000002685547,0|0,3:0|0:0,0:0:0:0:
269,28,95335,1,8,0:0:0:0:
331,139,95498,1,2,0:0:0:0:
331,139,95661,38,0,P|339:186|320:234,1,88.000002685547,2|0,3:2|0:0,0:0:0:0:
223,289,95987,2,0,P|215:242|234:194,1,88.000002685547,8|0,0:0|0:0,0:0:0:0:
331,139,96313,1,0,3:0:0:0:
251,60,96476,1,0,0:0:0:0:
251,60,96639,2,0,L|163:67,1,88.000002685547,8|0,0:0|0:0,0:0:0:0:
119,182,96965,6,0,L|207:175,1,88.000002685547,2|0,3:2|0:0,0:0:0:0:
330,165,97291,2,0,P|343:123|335:80,2,88.000002685547,2|0|2,1:3|0:0|0:0,0:0:0:0:
270,272,97780,1,8,0:0:0:0:
270,272,97862,1,8,0:0:0:0:
270,272,97943,1,2,1:3:0:0:
385,317,98107,2,0,L|398:369,2,44.0000013427735,8|8|2,0:0|0:0|0:3,0:0:0:0:
335,80,98596,38,0,B|270:136|270:136|175:139,2,176.000005371094,6|6|2,1:3|1:3|1:3,0:0:0:0:
256,192,99574,12,0,101530,0:0:0:0:
252,191,101857,5,10,3:3:0:0:
252,191,102020,1,6,3:3:0:0:
256,192,102183,12,0,108052,0:0:0:0:
