osu file format v14

[General]
AudioFilename: weeb.mp3
AudioLeadIn: 0
PreviewTime: 64601
Countdown: 0
SampleSet: Soft
StackLeniency: 0.7
Mode: 0
LetterboxInBreaks: 0
WidescreenStoryboard: 0

[Editor]
Bookmarks: 65635,81287,89113,99548
DistanceSpacing: 1
BeatDivisor: 4
GridSize: 4
TimelineZoom: 1

[Metadata]
Title:Yuki no Youni
TitleUnicode:雪のように
Artist:AKINO with bless4
ArtistUnicode:AKINO with bless4
Creator:Sotarks
Version:Easy
Source:
Tags:akitoshi corinn electoz pkhg janpai [_Sc4v4ng3r_] Sc4v4ng3r appleeaterx Doormat Deppyforce davided kibbleru pentori kalibe hb24 fcl linada christmas
BeatmapID:1127618
BeatmapSetID:532165

[Difficulty]
HPDrainRate:3
CircleSize:3
OverallDifficulty:3
ApproachRate:3
SliderMultiplier:1.02
SliderTickRate:1

[Events]
//Background and Video events
0,0,"BGSoterks.jpg",0,0
//Break Periods
//Storyboard Layer 0 (Background)
//Storyboard Layer 1 (Fail)
//Storyboard Layer 2 (Pass)
//Storyboard Layer 3 (Foreground)
//Storyboard Sound Samples

[TimingPoints]
444,326.086956521739,4,2,22,22,1,0
6965,-100,4,2,22,32,0,0
7943,-100,4,2,22,22,0,0
8270,-100,4,2,22,32,0,0
10878,-100,4,2,22,42,0,0
18704,-100,4,2,22,52,0,0
21313,-100,4,2,22,62,0,0
30770,-100,4,2,22,72,0,0
31096,-100,4,2,22,62,0,0
31422,-100,4,2,22,52,0,0
31748,-100,4,2,22,42,0,0
52617,-100,4,2,22,52,0,0
64683,-100,4,2,22,62,0,0
65335,-100,4,2,22,82,0,0
65661,-100,4,2,22,62,0,1
72509,-100,4,2,22,72,0,1
72835,-100,4,2,22,82,0,1
73161,-100,4,2,22,72,0,1
73487,-100,4,2,22,62,0,1
81313,-100,4,2,22,52,0,0
83922,-100,4,2,22,42,0,0
84900,-100,4,2,22,32,0,0
89139,-100,4,2,22,62,0,0
99574,-100,4,2,22,42,0,0
101857,-100,4,2,22,72,0,0
108052,-100,4,2,22,22,0,0

[Colours]
Combo1 : 38,187,230
Combo2 : 211,10,10
Combo3 : 0,221,38
Combo4 : 255,185,244
SliderBorder : 243,178,255
SliderTrackOverride : 50,33,29

[HitObjects]
94,160,5661,6,0,B|157:149|157:149|231:166|231:166|296:157|342:99|342:99|382:155|350:235,2,408,0|0|0,0:0|0:0|0:0,0:0:0:0:
465,328,9574,2,0,B|382:373|359:291|253:346,1,204,0|8,0:0|0:0,0:0:0:0:
122,195,10878,6,0,B|175:109|175:109|229:205,1,204,6|0,0:0|3:0,0:0:0:0:
372,56,12183,2,0,L|391:211,2,153,4|8|4,3:0|3:0|3:0,0:0:0:0:
276,90,13487,2,0,P|177:105|83:35,1,204,6|8,0:0|0:0,0:0:0:0:
37,247,14791,6,0,P|136:232|230:302,2,204,6|0|6,0:0|1:0|0:0,0:0:0:0:
224,166,16748,2,0,L|356:164,2,102,0|8|4,3:0|3:0|3:0,0:0:0:0:
342,69,17889,2,0,B|401:85|401:85|428:129|436:193,1,153,4|8,3:0|3:0,0:0:0:0:
408,269,18704,5,6,0:0:0:0:
210,321,19357,1,6,0:0:0:0:
303,139,20009,2,0,B|315:208|315:208|312:268,1,102,8|8,0:0|0:0,0:0:0:0:
224,190,20661,2,0,B|212:259|212:259|215:319,1,102,8|8,0:0|0:0,0:0:0:0:
306,331,21313,6,0,P|354:321|400:254,2,102,4|8|0,1:0|0:0|1:0,0:0:0:0:
306,229,22291,1,8,0:0:0:0:
403,197,22617,2,0,B|371:150|371:150|314:114,1,102,0|8,1:0|0:0,0:0:0:0:
233,151,23270,2,0,B|205:187|205:187|192:242,1,102,0|8,1:0|0:0,0:0:0:0:
102,290,23922,6,0,P|88:234|90:151,2,102,0|8|0,1:0|0:0|1:0,0:0:0:0:
187,346,24900,1,8,0:0:0:0:
249,267,25226,2,0,P|304:248|363:254,1,102,0|8,1:0|0:0,0:0:0:0:
430,309,25878,2,0,L|440:188,1,102,0|8,1:0|0:0,0:0:0:0:
356,146,26530,6,0,P|316:129|239:146,2,102,4|8|0,1:0|0:0|1:0,0:0:0:0:
298,230,27509,1,8,0:0:0:0:
196,219,27835,2,0,L|169:109,1,102,0|8,1:0|0:0,0:0:0:0:
96,52,28487,2,0,L|71:151,1,102,0|8,1:0|0:0,0:0:0:0:
32,245,29139,6,0,B|101:233|101:233|154:242,2,102,0|8|0,1:0|0:0|1:0,0:0:0:0:
90,328,30117,1,8,0:0:0:0:
190,308,30443,1,6,0:0:0:0:
290,286,30770,2,0,L|298:170,2,102,12|12|12,0:0|0:0|0:0,0:0:0:0:
386,253,31748,6,0,B|379:150|379:150|348:99|280:90,2,204,0|0|0,1:0|1:0|1:0,0:0:0:0:
300,192,33378,2,0,L|193:177,1,102,0|0,1:0|1:0,0:0:0:0:
108,224,34030,1,0,1:0:0:0:
56,136,34357,6,0,B|24:183|24:183|16:236,1,102,0|12,1:0|0:0,0:0:0:0:
72,312,35009,2,0,B|135:315|135:315|191:301,1,102,0|0,1:0|1:0,0:0:0:0:
245,235,35661,2,0,L|266:335,2,102,0|0|0,1:0|1:0|1:0,0:0:0:0:
248,133,36639,1,8,0:0:0:0:
332,190,36965,6,0,P|408:191|462:53,2,204,4|0|0,1:0|1:0|1:0,0:0:0:0:
369,94,38596,2,0,P|312:70|258:60,1,102,12|0,0:0|1:0,0:0:0:0:
185,112,39248,1,0,1:0:0:0:
111,41,39574,6,0,B|86:110|86:110|116:247,1,204,0|0,1:0|1:0,0:0:0:0:
141,335,40552,1,8,0:0:0:0:
241,318,40878,2,0,B|268:190|268:190|243:121,1,204,0|8,1:0|3:0,0:0:0:0:
197,30,41857,1,12,0:0:0:0:
297,48,42183,6,0,L|436:61,1,102,4|8,1:0|0:0,0:0:0:0:
462,136,42835,2,0,L|323:149,1,102,0|8,1:0|0:0,0:0:0:0:
290,219,43487,2,0,P|262:171|264:112,2,102,0|8|0,1:0|0:0|1:0,0:0:0:0:
360,145,44465,1,8,0:0:0:0:
378,245,44791,6,0,B|372:313|372:313|325:345,1,102,0|8,1:0|0:0,0:0:0:0:
242,330,45443,2,0,B|214:311|214:311|208:243,1,102,0|8,1:0|0:0,0:0:0:0:
269,161,46096,2,0,L|379:146,2,102,0|8|0,1:0|0:0|1:0,0:0:0:0:
172,129,47074,1,8,0:0:0:0:
114,213,47400,6,0,B|76:164|76:164|70:97|117:26,1,204,0|0,1:0|0:0,0:0:0:0:
216,37,48378,1,8,0:0:0:0:
266,125,48704,2,0,B|270:184|270:184|297:242|297:242|301:337,1,204,0|0,1:0|0:0,0:0:0:0:
209,275,49683,1,8,0:0:0:0:
117,320,50009,6,0,B|104:261|104:261|114:172,1,102,4|8,1:0|0:0,0:0:0:0:
187,155,50661,2,0,B|200:96|200:96|195:54,1,102,0|8,0:0|0:0,0:0:0:0:
105,102,51313,2,0,P|44:153|9:171,1,102,4|2,1:0|0:0,0:0:0:0:
108,219,51965,2,0,P|169:270|204:288,1,102,8|8,0:0|0:0,0:0:0:0:
277,330,52617,6,0,L|297:204,2,102,4|8|2,1:0|0:0|0:0,0:0:0:0:
207,193,53759,2,0,P|248:144|343:145,1,153,0|8,1:0|0:0,0:0:0:0:
408,207,54574,2,0,L|423:77,1,102,0|8,1:0|0:0,0:0:0:0:
343,37,55226,6,0,B|408:18|408:18|470:37,2,102,4|8|2,1:0|0:0|0:0,0:0:0:0:
200,92,56367,2,0,P|275:102|325:188,1,153,0|8,1:0|0:0,0:0:0:0:
299,260,57183,1,8,0:0:0:0:
226,192,57509,1,8,0:0:0:0:
170,277,57835,6,0,L|51:290,2,102,12|8|2,0:0|0:0|0:0,0:0:0:0:
93,144,58976,2,0,P|135:82|241:47,1,153,0|8,1:0|0:0,0:0:0:0:
279,117,59791,2,0,P|340:132|394:107,1,102,0|8,1:0|0:0,0:0:0:0:
452,53,60443,6,0,L|468:177,1,102,8|8,0:0|0:0,0:0:0:0:
387,220,61096,2,0,L|373:321,1,102,8|8,0:0|0:0,0:0:0:0:
288,271,61748,2,0,P|225:240|183:235,1,102,8|8,0:0|0:0,0:0:0:0:
101,277,62400,2,0,P|51:266|7:241,1,102,8|8,0:0|3:0,0:0:0:0:
33,142,63052,6,0,B|88:109|88:109|182:89,2,153,12|12|12,0:0|0:0|0:0,0:0:0:0:
120,195,64357,2,0,L|131:312,2,102,8|12|12,0:0|0:0|0:0,0:0:0:0:
211,241,65335,1,12,0:0:0:0:
283,168,65661,6,0,B|312:217|312:217|273:359,1,204,4|0,1:0|1:0,0:0:0:0:
366,317,66639,1,8,0:0:0:0:
403,221,66965,2,0,B|389:178|389:178|351:120,1,102,0|8,0:0|0:0,0:0:0:0:
266,83,67617,2,0,L|139:78,1,102,0|8,1:0|0:0,0:0:0:0:
66,108,68270,6,0,P|141:122|165:250,1,204,0|0,1:0|1:0,0:0:0:0:
121,321,69248,1,8,0:0:0:0:
222,316,69574,1,0,0:0:0:0:
278,231,69900,2,0,L|283:123,2,102,8|0|8,0:0|1:0|0:0,0:0:0:0:
347,305,70878,6,0,P|418:303|460:204,2,153,2|2|8,0:0|0:0|0:0,0:0:0:0:
278,231,72183,1,0,1:0:0:0:
176,225,72509,2,0,P|198:163|247:128,2,102,8|8|8,0:0|0:0|0:0,0:0:0:0:
233,309,73487,6,0,B|178:326|178:326|84:316|59:226,1,204,4|0,1:0|1:0,0:0:0:0:
107,152,74465,1,8,0:0:0:0:
176,225,74791,1,0,0:0:0:0:
249,153,75117,2,0,B|274:203|274:203|281:272,2,102,12|12|12,0:0|0:0|0:0,0:0:0:0:
185,72,76096,6,0,B|260:34|305:101|393:56,1,204,4|0,1:0|1:0,0:0:0:0:
483,35,77074,1,8,0:0:0:0:
480,136,77400,2,0,L|464:277,1,102,0|8,0:0|0:0,0:0:0:0:
389,301,78052,2,0,L|377:199,1,102,0|8,1:0|0:0,0:0:0:0:
293,140,78704,6,0,P|285:77|289:32,2,102,0|8|0,1:0|0:0|1:0,0:0:0:0:
254,234,79683,1,8,0:0:0:0:
193,152,80009,2,0,P|133:157|88:175,1,102,0|8,0:0|0:0,0:0:0:0:
37,256,80661,2,0,P|97:261|142:279,1,102,0|8,1:0|0:0,0:0:0:0:
218,335,81313,5,6,0:0:0:0:
279,253,81639,2,0,L|290:144,1,102,0|8,0:0|0:0,0:0:0:0:
360,78,82291,2,0,B|377:139|377:139|376:208,2,102,2|2|2,0:0|0:0|0:0,0:0:0:0:
259,58,83270,2,0,L|143:53,1,102,8|2,0:0|0:0,0:0:0:0:
256,192,83922,12,0,87835,0:0:0:0:
206,53,89139,6,0,B|159:67|159:67|112:130,2,102,4|8|0,1:0|0:0|1:0,0:0:0:0:
206,155,90117,1,8,0:0:0:0:
117,206,90443,2,0,B|206:289,1,102,0|8,1:0|0:0,0:0:0:0:
284,232,91096,2,0,B|366:151,1,102,0|8,1:0|0:0,0:0:0:0:
429,89,91748,6,0,B|443:145|443:145|441:228,2,102,0|8|0,1:0|0:0|1:0,0:0:0:0:
336,46,92726,1,8,0:0:0:0:
263,117,93052,2,0,B|208:136|208:136|149:130,1,102,0|8,1:0|0:0,0:0:0:0:
82,75,93704,2,0,L|72:196,1,102,0|8,1:0|0:0,0:0:0:0:
156,238,94357,6,0,P|196:255|273:238,2,102,4|8|0,1:0|0:0|1:0,0:0:0:0:
214,154,95336,1,8,0:0:0:0:
316,165,95662,2,0,P|332:214|343:275,1,102,0|0,1:0|0:0,0:0:0:0:
415,335,96313,2,0,P|423:289|440:236,1,102,0|8,1:0|0:0,0:0:0:0:
485,145,96966,6,0,B|416:157|416:157|363:148,2,102,8|0|0,0:0|0:0|0:0,0:0:0:0:
416,69,97944,1,8,0:0:0:0:
314,82,98270,1,8,0:0:0:0:
280,178,98596,2,0,B|216:183|216:183|168:146,1,102,12|12,0:0|0:0,0:0:0:0:
114,86,99248,1,12,0:0:0:0:
81,182,99574,6,0,P|73:282|168:343,2,204,2|2|2,0:0|0:0|0:0,0:0:0:0:
165,239,101204,1,0,0:0:0:0:
201,143,101530,1,2,0:0:0:0:
264,223,101857,2,0,L|316:227,1,51,12|12,0:0|0:0,0:0:0:0:
256,192,102183,12,0,108052,0:0:0:0:
