osu file format v14

[General]
AudioFilename: weeb.mp3
AudioLeadIn: 0
PreviewTime: 64601
Countdown: 0
SampleSet: Soft
StackLeniency: 0.7
Mode: 0
LetterboxInBreaks: 0
WidescreenStoryboard: 1

[Editor]
Bookmarks: 64820,65635,66369,81287,89113,89439,99548
DistanceSpacing: 1.1
BeatDivisor: 4
GridSize: 4
TimelineZoom: 1.5

[Metadata]
Title:Yuki no Youni
TitleUnicode:雪のように
Artist:AKINO with bless4
ArtistUnicode:AKINO with bless4
Creator:Sotarks
Version:Doormat's Extra
Source:
Tags:akitoshi corinn electoz pkhg janpai [_Sc4v4ng3r_] Sc4v4ng3r appleeaterx Doormat Deppyforce davided kibbleru pentori kalibe hb24 fcl linada christmas
BeatmapID:1153240
BeatmapSetID:532165

[Difficulty]
HPDrainRate:6.6
CircleSize:4
OverallDifficulty:8.8
ApproachRate:9.3
SliderMultiplier:1.77
SliderTickRate:1

[Events]
//Background and Video events
0,0,"christmas.jpg",0,0
//Break Periods
//Storyboard Layer 0 (Background)
//Storyboard Layer 1 (Fail)
//Storyboard Layer 2 (Pass)
//Storyboard Layer 3 (Foreground)
//Storyboard Sound Samples

[TimingPoints]
444,326.086956521739,4,2,22,22,1,0
5661,-400,4,2,22,22,0,0
6965,-400,4,2,22,32,0,0
7943,-400,4,2,22,22,0,0
8270,-400,4,2,22,32,0,0
9574,-400,4,2,22,32,0,0
10878,-200,4,2,22,42,0,0
18704,-133.333333333333,4,2,22,52,0,0
20824,-100,4,2,22,52,0,0
21313,-100,4,2,22,62,0,0
30770,-66.6666666666667,4,2,22,72,0,0
31014,-66.6666666666667,4,2,22,5,0,0
31096,-80,4,2,22,62,0,0
31340,-80,4,2,22,5,0,0
31422,-100,4,2,22,52,0,0
31666,-100,4,2,22,5,0,0
31748,-125,4,2,22,42,0,0
36313,-83.3333333333333,4,2,22,42,0,0
36558,-83.3333333333333,4,2,22,5,0,0
36639,-100,4,2,22,42,0,0
36884,-100,4,2,22,5,0,0
36965,-125,4,2,22,42,0,0
42183,-100,4,2,22,42,0,0
46748,-71.4285714285714,4,2,22,42,0,0
46992,-71.4285714285714,4,2,22,5,0,0
47074,-83.3333333333333,4,2,22,42,0,0
47318,-90.9090909090909,4,2,22,5,0,0
47400,-100,4,2,22,42,0,0
52617,-100,4,2,22,52,0,0
52943,-80,4,2,22,52,0,0
53759,-100,4,2,22,52,0,0
55552,-80,4,2,22,52,0,0
56367,-100,4,2,22,52,0,0
58161,-80,4,2,22,52,0,0
58976,-100,4,2,22,52,0,0
64683,-76.9230769230769,4,2,22,62,0,0
64927,-76.9230769230769,4,2,22,5,0,0
65009,-74.0740740740741,4,2,22,72,0,0
65253,-71.4285714285714,4,2,22,5,0,0
65335,-66.6666666666667,4,2,22,82,0,0
65579,-66.6666666666667,4,2,22,5,0,0
65661,-90.9090909090909,4,2,22,62,0,1
72183,-90.9090909090909,4,2,22,62,0,1
72509,-90.9090909090909,4,2,22,72,0,1
72835,-90.9090909090909,4,2,22,82,0,1
73161,-90.9090909090909,4,2,22,72,0,1
73487,-90.9090909090909,4,2,22,62,0,1
75117,-76.9230769230769,4,2,22,62,0,1
75362,-76.9230769230769,4,2,22,5,0,1
75443,-71.4285714285714,4,2,22,62,0,1
75688,-71.4285714285714,4,2,22,5,0,1
75770,-66.6666666666667,4,2,22,62,0,1
76014,-66.6666666666667,4,2,22,5,0,1
76096,-90.9090909090909,4,2,22,62,0,1
81313,-100,4,2,22,52,0,0
83922,-200,4,2,22,42,0,0
88976,-200,4,2,22,5,0,0
89139,-100,4,2,22,62,0,0
98596,-71.4285714285714,4,2,22,62,0,0
98840,-71.4285714285714,4,2,22,5,0,0
98922,-83.3333333333333,4,2,22,62,0,0
99166,-83.3333333333333,4,2,22,5,0,0
99248,-100,4,2,22,62,0,0
99492,-100,4,2,22,5,0,0
99574,-133.333333333333,4,2,22,42,0,0
101857,-133.333333333333,4,2,22,72,0,0
108052,-133.333333333333,4,2,22,22,0,0

[Colours]
Combo1 : 38,187,230
Combo2 : 211,10,10
Combo3 : 0,221,38
Combo4 : 255,185,244
SliderBorder : 243,178,255
SliderTrackOverride : 50,33,29

[HitObjects]
196,208,5661,6,0,P|224:212|172:284,1,177,2|2,0:0|0:0,0:0:0:0:
312,148,7943,2,0,L|340:152,1,22.125,2|0,0:0|0:0,0:0:0:0:
355,79,8270,6,0,B|306:56|268:80|268:80|228:103|178:79,1,177,2|2,0:0|0:0,0:0:0:0:
301,213,10063,1,0,1:0:0:0:
306,180,10145,1,0,1:0:0:0:
312,148,10226,1,8,0:0:0:0:
40,259,10878,6,0,P|122:237|192:286,1,177,6|0,0:0|3:0,0:0:0:0:
192,286,12183,5,4,3:0:0:0:
256,224,12346,2,0,L|240:116,1,88.5,4|8,3:0|3:0,0:0:0:0:
228,52,12835,1,0,0:0:0:0:
324,116,12998,1,4,3:0:0:0:
168,188,13161,1,4,3:0:0:0:
168,188,13487,6,0,P|216:176|264:196,1,88.5,6|0,0:0|0:0,0:0:0:0:
328,260,13976,1,8,0:0:0:0:
84,224,14139,1,8,0:0:0:0:
84,224,14791,5,6,0:0:0:0:
136,302,14954,2,0,L|224:288,1,88.5,8|0,0:0|0:0,0:0:0:0:
224,288,15362,1,0,1:0:0:0:
224,288,15443,1,0,1:0:0:0:
168,384,15607,1,8,0:0:0:0:
276,204,15770,1,4,3:0:0:0:
324,372,15933,1,8,3:0:0:0:
188,139,16096,6,0,P|262:96|345:120,1,177,6|0,0:0|3:0,0:0:0:0:
400,228,17074,1,8,3:0:0:0:
260,304,17400,6,0,L|160:288,1,88.5,4|0,3:0|0:0,0:0:0:0:
312,228,17889,1,4,3:0:0:0:
312,228,18215,1,8,3:0:0:0:
260,304,18378,2,0,P|256:344|264:364,1,44.25,8|0,3:0|0:0,0:0:0:0:
428,232,18704,5,6,0:0:0:0:
83,175,19030,1,0,0:0:0:0:
398,102,19357,1,6,0:0:0:0:
113,305,19683,1,2,0:0:0:0:
398,102,20009,5,8,0:0:0:0:
220,64,20172,1,2,0:0:0:0:
280,248,20335,1,8,0:0:0:0:
280,248,20416,1,0,0:0:0:0:
280,248,20498,1,2,0:0:0:0:
344,28,20661,5,8,0:0:0:0:
104,92,20824,1,8,0:0:0:0:
104,92,20905,1,8,0:0:0:0:
103,91,20987,5,8,0:0:0:0:
118,121,21068,1,8,0:0:0:0:
124,154,21150,1,8,0:0:0:0:
123,187,21231,1,8,0:0:0:0:
113,219,21313,6,0,L|25:208,1,88.5,4|0,1:0|0:0,0:0:0:0:
216,300,21639,2,0,L|303:289,1,88.5,8|0,0:0|0:0,0:0:0:0:
472,268,21965,1,0,1:0:0:0:
296,204,22128,1,2,0:0:0:0:
384,380,22291,1,8,0:0:0:0:
420,192,22454,1,0,3:0:0:0:
271,368,22617,6,0,P|277:324|265:282,1,88.5,0|0,1:0|0:0,0:0:0:0:
144,188,22943,1,8,0:0:0:0:
332,208,23107,1,0,0:0:0:0:
172,336,23270,2,0,L|80:316,1,88.5,0|2,1:0|0:0,0:0:0:0:
332,208,23596,2,0,L|424:228,1,88.5,8|2,0:0|0:0,0:0:0:0:
368,68,23922,6,0,P|325:58|282:67,1,88.5,0|0,1:0|0:0,0:0:0:0:
84,144,24248,2,0,P|126:153|169:144,1,88.5,8|0,0:0|0:0,0:0:0:0:
24,60,24574,1,0,1:0:0:0:
0,244,24737,1,0,0:0:0:0:
124,56,24900,1,8,0:0:0:0:
152,252,25063,1,0,3:0:0:0:
292,136,25226,6,0,P|249:147|206:142,1,88.5,0|0,1:0|0:0,0:0:0:0:
368,276,25552,2,0,P|410:264|453:269,1,88.5,8|2,0:0|0:0,0:0:0:0:
316,356,25878,5,0,1:0:0:0:
376,132,26041,1,0,0:0:0:0:
304,360,26204,1,8,0:0:0:0:
388,128,26367,1,0,0:0:0:0:
205,278,26530,6,0,P|144:268|104:288,1,88.5,4|0,1:0|0:0,0:0:0:0:
368,276,26857,2,0,P|410:287|452:277,1,88.5,8|0,0:0|0:0,0:0:0:0:
500,144,27183,1,0,1:0:0:0:
304,188,27346,1,2,0:0:0:0:
440,40,27509,1,8,0:0:0:0:
508,224,27672,1,0,3:0:0:0:
344,88,27835,6,0,P|335:44|342:1,1,88.5,0|0,1:0|0:0,0:0:0:0:
224,128,28161,1,8,0:0:0:0:
440,160,28324,1,0,0:0:0:0:
264,8,28487,1,0,1:0:0:0:
300,216,28650,1,2,0:0:0:0:
424,44,28813,1,8,0:0:0:0:
460,252,28976,1,0,0:0:0:0:
256,136,29139,6,0,P|298:126|341:136,1,88.5,0|0,1:0|0:0,0:0:0:0:
172,216,29465,2,0,P|129:225|86:215,1,88.5,8|2,0:0|0:0,0:0:0:0:
188,88,29791,1,0,1:0:0:0:
268,276,29954,1,8,0:0:0:0:
268,276,30036,1,8,0:0:0:0:
268,276,30117,1,8,0:0:0:0:
20,168,30280,1,8,0:0:0:0:
20,168,30362,1,8,0:0:0:0:
20,168,30443,1,6,0:0:0:0:
168,23,30770,6,0,P|152:76|232:40,1,199.125007596016,12|0,0:0|0:0,0:0:0:0:
68,40,31096,6,0,L|93:203,1,165.9375,12|0,0:0|0:0,0:0:0:0:
168,272,31422,6,0,B|184:188|184:188|220:217,1,132.75,12|0,0:0|0:0,0:0:0:0:
220,348,31748,6,0,P|152:363|94:323,2,141.6,0|0|0,1:0|1:0|1:0,0:0:0:0:
296,260,32563,1,2,0:0:0:0:
184,188,32726,2,0,L|104:204,1,70.8,8|0,0:0|0:0,0:0:0:0:
252,95,33052,6,0,P|321:82|390:96,1,141.6,0|0,1:0|1:0,0:0:0:0:
253,202,33541,2,0,L|184:188,1,70.8,2|0,0:0|1:0,0:0:0:0:
352,260,33867,2,0,L|421:245,1,70.8,2|0,0:0|1:0,0:0:0:0:
352,364,34193,1,2,0:0:0:0:
212,308,34357,6,0,P|172:304|128:320,1,70.8,0|0,1:0|0:0,0:0:0:0:
352,260,34683,2,0,P|419:276|486:254,1,141.6,12|0,0:0|1:0,0:0:0:0:
332,360,35172,1,2,0:0:0:0:
416,156,35335,1,0,1:0:0:0:
460,300,35498,1,2,0:0:0:0:
256,212,35661,5,0,1:0:0:0:
384,268,35824,1,0,0:0:0:0:
344,112,35987,2,0,P|336:77|341:42,1,70.8,0|0,1:0|0:0,0:0:0:0:
212,128,36313,6,0,L|235:285,1,159.29999513855,0|0,1:0|0:0,0:0:0:0:
132,196,36639,6,0,B|114:131|114:131|133:68,1,132.75,8|0,0:0|0:0,0:0:0:0:
291,75,36965,6,0,P|302:109|302:144,1,70.8,4|0,1:0|0:0,0:0:0:0:
392,272,37291,2,0,P|391:236|402:203,1,70.8,0|0,1:0|0:0,0:0:0:0:
508,88,37617,1,0,1:0:0:0:
480,248,37780,1,2,0:0:0:0:
302,143,37943,1,0,1:0:0:0:
436,48,38107,1,2,0:0:0:0:
232,56,38270,6,0,L|161:45,1,70.8,0|0,1:0|0:0,0:0:0:0:
332,160,38596,2,0,L|472:139,1,141.6,12|0,0:0|1:0,0:0:0:0:
332,60,39085,1,2,0:0:0:0:
216,199,39248,2,0,P|209:234|215:269,1,70.8,0|2,1:0|0:0,0:0:0:0:
328,139,39574,6,0,P|333:69|315:1,2,141.6,0|0|0,1:0|1:0|1:0,0:0:0:0:
212,236,40389,1,2,0:0:0:0:
384,252,40552,1,8,0:0:0:0:
448,100,40715,1,0,0:0:0:0:
448,100,40797,1,0,0:0:0:0:
448,100,40878,5,0,1:0:0:0:
300,212,41041,2,0,P|292:246|295:281,1,70.8,8|0,0:0|0:0,0:0:0:0:
436,332,41367,1,0,0:0:0:0:
376,136,41530,5,8,3:0:0:0:
338,112,41611,1,8,3:0:0:0:
295,106,41693,1,8,3:0:0:0:
252,118,41774,1,8,3:0:0:0:
218,145,41857,2,0,B|208:224|208:224|248:200,1,106.2,12|0,0:0|0:0,0:0:0:0:
136,192,42183,6,0,P|93:179|50:187,1,88.5,4|0,1:0|0:0,0:0:0:0:
192,364,42509,2,0,L|376:344,1,177,8|0,0:0|1:0,0:0:0:0:
492,228,42997,1,2,0:0:0:0:
304,264,43161,1,8,0:0:0:0:
504,348,43324,1,2,0:0:0:0:
387,175,43487,6,0,P|380:132|384:88,1,88.5,0|0,1:0|0:0,0:0:0:0:
212,208,43813,2,0,P|219:251|215:295,1,88.5,8|0,0:0|0:0,0:0:0:0:
283,104,44139,2,0,L|164:88,1,88.5,0|2,1:0|0:0,0:0:0:0:
316,279,44465,2,0,L|403:267,1,88.5,8|2,0:0|0:0,0:0:0:0:
212,208,44791,6,0,P|160:200|108:220,1,88.5,0|0,1:0|0:0,0:0:0:0:
283,104,45117,2,0,P|335:120|459:72,1,177,8|0,0:0|1:0,0:0:0:0:
300,216,45607,1,2,0:0:0:0:
512,264,45770,1,8,0:0:0:0:
368,84,45933,1,2,0:0:0:0:
220,260,46096,5,0,1:0:0:0:
220,260,46259,2,0,P|280:248|332:264,1,88.5,0|8,0:0|0:0,0:0:0:0:
204,360,46585,1,0,0:0:0:0:
63,235,46748,6,0,P|121:188|121:263,1,185.849994328308,0|0,1:0|0:0,0:0:0:0:
220,260,47074,6,0,P|284:268|254:210,1,159.29999513855,8|0,0:0|0:0,0:0:0:0:
184,124,47400,6,0,L|359:97,1,177,0|8,1:0|0:0,0:0:0:0:
216,16,47889,2,0,P|172:8|130:21,1,88.5,2|0,0:0|0:0,0:0:0:0:
152,232,48215,1,0,1:0:0:0:
152,232,48378,2,0,P|196:240|238:227,1,88.5,8|0,0:0|0:0,0:0:0:0:
8,152,48704,6,0,L|29:327,1,177,0|8,1:0|0:0,0:0:0:0:
152,232,49193,2,0,L|140:140,1,88.5,2|0,0:0|0:0,0:0:0:0:
324,252,49520,1,0,1:0:0:0:
324,252,49683,2,0,L|312:339,1,88.5,8|0,0:0|0:0,0:0:0:0:
260,136,50009,6,0,P|344:156|429:118,1,177,4|8,1:0|0:0,0:0:0:0:
280,32,50498,2,0,L|192:45,1,88.5,4|0,1:0|0:0,0:0:0:0:
388,8,50824,2,0,L|475:21,1,88.5,8|8,3:0|0:0,0:0:0:0:
352,120,51150,1,2,0:0:0:0:
176,16,51313,6,0,P|184:76|168:112,1,88.5,4|0,1:0|0:0,0:0:0:0:
300,280,51639,2,0,P|292:220|308:184,1,88.5,2|2,0:0|0:0,0:0:0:0:
36,336,51965,5,8,0:0:0:0:
63,317,52046,1,8,0:0:0:0:
96,311,52128,1,8,0:0:0:0:
128,317,52209,1,8,0:0:0:0:
156,336,52291,1,8,0:0:0:0:
183,354,52373,1,8,0:0:0:0:
216,360,52454,1,8,0:0:0:0:
248,354,52536,1,8,0:0:0:0:
276,336,52617,6,0,P|278:282|318:318,1,132.75,4|0,1:0|0:0,0:0:0:0:
200,252,52943,6,0,L|216:124,1,110.625,8|8,0:0|0:0,0:0:0:0:
304,40,53270,1,2,0:0:0:0:
136,128,53433,1,2,0:0:0:0:
308,212,53596,1,8,0:0:0:0:
56,196,53759,6,0,P|32:113|79:42,1,177,0|0,1:0|1:0,0:0:0:0:
240,16,54248,1,8,0:0:0:0:
136,128,54411,1,0,0:0:0:0:
0,8,54574,1,0,1:0:0:0:
176,56,54737,1,2,0:0:0:0:
0,208,54900,1,8,0:0:0:0:
80,56,55063,1,2,0:0:0:0:
252,228,55226,6,0,P|316:248|384:216,1,132.75,4|0,1:0|0:0,0:0:0:0:
284,148,55552,6,0,P|312:173|316:119,1,110.625,8|8,0:0|0:0,0:0:0:0:
168,96,55878,1,2,0:0:0:0:
364,32,56041,1,2,0:0:0:0:
252,228,56204,1,8,0:0:0:0:
207,3,56367,6,0,P|122:3|66:68,1,177,0|0,1:0|1:0,0:0:0:0:
84,276,56857,1,8,0:0:0:0:
168,96,57020,1,0,1:0:0:0:
168,96,57101,1,0,1:0:0:0:
168,96,57183,1,8,0:0:0:0:
0,184,57346,1,8,0:0:0:0:
0,184,57427,1,8,0:0:0:0:
0,184,57509,1,8,0:0:0:0:
296,160,57672,1,8,0:0:0:0:
296,160,57753,1,8,0:0:0:0:
296,160,57835,6,0,L|432:184,1,132.75,12|0,0:0|0:0,0:0:0:0:
376,88,58161,6,0,L|261:68,1,110.625,8|8,0:0|0:0,0:0:0:0:
424,8,58487,1,2,0:0:0:0:
488,160,58650,1,2,0:0:0:0:
344,240,58813,1,8,0:0:0:0:
213,94,58976,6,0,P|295:121|376:88,1,177,0|0,1:0|1:0,0:0:0:0:
260,228,59465,2,0,L|172:212,1,88.5,8|0,0:0|0:0,0:0:0:0:
0,176,59791,1,0,1:0:0:0:
136,96,59954,1,2,0:0:0:0:
68,276,60117,2,0,P|63:319|73:362,1,88.5,8|0,0:0|0:0,0:0:0:0:
200,168,60443,5,8,0:0:0:0:
216,324,60607,1,2,0:0:0:0:
300,132,60770,5,8,0:0:0:0:
299,288,60933,1,2,0:0:0:0:
403,105,61096,5,8,0:0:0:0:
386,260,61259,1,2,0:0:0:0:
506,90,61422,5,8,0:0:0:0:
288,160,61586,1,2,0:0:0:0:
460,328,61748,5,8,0:0:0:0:
432,136,61911,1,2,0:0:0:0:
300,344,62074,5,8,0:0:0:0:
312,150,62237,1,2,0:0:0:0:
139,326,62400,5,8,0:0:0:0:
191,138,62563,1,2,0:0:0:0:
348,268,62726,5,8,3:0:0:0:
316,257,62807,1,8,3:0:0:0:
283,257,62889,1,8,3:0:0:0:
252,267,62970,1,8,3:0:0:0:
226,288,63052,6,0,L|232:188,1,88.5,12|0,0:0|0:0,0:0:0:0:
376,80,63378,1,2,0:0:0:0:
376,80,63460,1,0,0:0:0:0:
376,80,63541,2,0,L|382:180,1,88.5,12|0,0:0|0:0,0:0:0:0:
392,324,63867,1,2,0:0:0:0:
231,199,64030,1,12,0:0:0:0:
480,124,64193,1,0,0:0:0:0:
312,380,64357,1,8,0:0:0:0:
196,44,64683,6,0,B|100:76|100:76|156:119,1,172.574992100144,12|0,0:0|0:0,0:0:0:0:
68,4,65009,6,0,P|19:75|64:148,1,179.212500683641,12|0,0:0|0:0,0:0:0:0:
204,216,65335,6,0,P|109:206|48:280,1,199.125007596016,12|0,0:0|0:0,0:0:0:0:
152,308,65661,6,0,L|346:298,1,194.700005941773,4|8,1:0|0:0,0:0:0:0:
204,216,66150,1,0,0:0:0:0:
316,384,66313,1,0,1:0:0:0:
92,376,66476,1,0,1:0:0:0:
320,220,66639,1,8,0:0:0:0:
96,212,66802,1,2,0:0:0:0:
384,132,66965,6,0,P|315:112|248:139,1,146.025004456329,0|0,0:0|0:0,0:0:0:0:
176,96,67291,2,0,L|188:0,1,97.3500029708863,8|0,0:0|0:0,0:0:0:0:
52,116,67617,1,0,1:0:0:0:
196,220,67780,1,0,1:0:0:0:
84,20,67943,1,8,0:0:0:0:
12,200,68107,1,0,0:0:0:0:
176,96,68270,6,0,P|240:84|372:100,1,194.700005941773,0|8,1:0|0:0,0:0:0:0:
224,192,68759,1,0,0:0:0:0:
308,0,68922,1,0,1:0:0:0:
420,168,69085,1,0,1:0:0:0:
216,56,69248,1,8,0:0:0:0:
164,260,69411,1,2,0:0:0:0:
340,104,69574,6,0,P|316:171|341:246,1,146.025004456329,0|0,0:0|0:0,0:0:0:0:
259,276,69900,2,0,L|164:260,1,97.3500029708863,8|0,0:0|0:0,0:0:0:0:
24,140,70226,2,0,L|119:123,1,97.3500029708863,0|0,1:0|0:0,0:0:0:0:
280,32,70552,2,0,L|185:16,1,97.3500029708863,8|2,0:0|0:0,0:0:0:0:
320,148,70878,6,0,P|416:164|505:129,1,194.700005941773,2|8,0:0|0:0,0:0:0:0:
228,104,71367,2,0,P|216:150|225:198,1,97.3500029708863,2|0,0:0|0:0,0:0:0:0:
344,308,71693,1,2,0:0:0:0:
100,248,71857,1,8,0:0:0:0:
320,148,72020,1,0,0:0:0:0:
152,356,72183,5,0,1:0:0:0:
40,96,72346,1,0,1:0:0:0:
24,384,72509,5,8,0:0:0:0:
172,92,72672,1,2,0:0:0:0:
176,384,72835,5,8,0:0:0:0:
32,64,72998,1,2,0:0:0:0:
24,384,73161,5,8,0:0:0:0:
172,92,73324,1,2,0:0:0:0:
324,284,73487,6,0,P|236:248|144:277,1,194.700005941773,4|8,1:0|0:0,0:0:0:0:
8,372,73976,1,0,0:0:0:0:
228,368,74139,1,0,1:0:0:0:
64,228,74303,1,0,1:0:0:0:
284,224,74466,1,8,0:0:0:0:
112,344,74628,1,2,0:0:0:0:
204,128,74791,5,0,0:0:0:0:
288,348,74954,1,2,0:0:0:0:
453,164,75117,6,0,P|393:131|413:195,1,172.574992100144,12|0,0:0|0:0,0:0:0:0:
481,68,75443,6,0,P|392:49|320:104,1,185.849994328308,12|0,0:0|0:0,0:0:0:0:
208,149,75770,6,0,P|296:177|332:283,1,199.125007596016,12|0,0:0|0:0,0:0:0:0:
222,263,76096,6,0,L|28:253,1,194.700005941773,4|8,1:0|0:0,0:0:0:0:
208,149,76585,1,0,0:0:0:0:
288,360,76748,1,0,1:0:0:0:
72,280,76911,1,0,1:0:0:0:
308,360,77074,1,8,0:0:0:0:
52,280,77237,1,2,0:0:0:0:
344,149,77400,6,0,P|276:173|209:149,1,146.025004456329,0|0,0:0|0:0,0:0:0:0:
276,65,77726,2,0,L|372:77,1,97.3500029708863,8|0,0:0|0:0,0:0:0:0:
512,200,78052,2,0,L|416:212,1,97.3500029708863,0|0,1:0|1:0,0:0:0:0:
272,332,78378,2,0,L|368:344,1,97.3500029708863,8|2,0:0|0:0,0:0:0:0:
224,212,78704,6,0,P|155:192|88:219,1,146.025004456329,0|0,1:0|0:0,0:0:0:0:
16,176,79030,2,0,L|28:80,1,97.3500029708863,8|0,0:0|0:0,0:0:0:0:
160,300,79357,1,0,1:0:0:0:
120,108,79520,1,0,1:0:0:0:
0,316,79683,1,8,0:0:0:0:
224,212,79846,1,2,0:0:0:0:
3,27,80009,6,0,P|51:36|98:24,1,97.3500029708863,0|2,0:0|0:0,0:0:0:0:
376,88,80335,2,0,P|328:79|281:91,1,97.3500029708863,8|0,0:0|0:0,0:0:0:0:
348,260,80661,2,0,L|460:236,1,97.3500029708863,0|0,1:0|1:0,0:0:0:0:
172,296,80987,2,0,L|60:272,1,97.3500029708863,8|2,0:0|0:0,0:0:0:0:
305,363,81313,6,0,P|390:340|476:360,1,177,6|0,0:0|0:0,0:0:0:0:
436,204,81802,1,2,0:0:0:0:
436,204,81884,1,0,0:0:0:0:
436,204,81965,2,0,P|351:227|265:207,1,177,8|2,0:0|0:0,0:0:0:0:
192,84,82454,1,8,0:0:0:0:
144,292,82617,5,2,0:0:0:0:
200,72,82780,1,8,0:0:0:0:
136,304,82943,1,2,0:0:0:0:
452,192,83270,2,0,P|371:171|288:212,1,177,8|2,0:0|0:0,0:0:0:0:
380,300,83759,1,8,0:0:0:0:
228,100,83922,6,0,B|143:122|143:122|202:182|202:182|160:201|134:238|129:289|157:340,1,354,2|0,0:0|0:0,0:0:0:0:
256,192,85308,12,0,88976,0:0:0:0:
376,84,89139,6,0,L|464:100,1,88.5,4|0,1:0|0:0,0:0:0:0:
268,148,89465,2,0,L|181:164,1,88.5,8|0,0:0|0:0,0:0:0:0:
4,192,89791,1,0,1:0:0:0:
188,256,89954,1,2,0:0:0:0:
56,104,90117,1,8,0:0:0:0:
0,292,90280,1,0,3:0:0:0:
263,300,90443,6,0,P|273:257|264:214,1,88.5,0|0,1:0|0:0,0:0:0:0:
168,72,90770,1,8,0:0:0:0:
368,148,90933,1,0,0:0:0:0:
188,256,91096,2,0,P|144:264|101:256,1,88.5,0|2,1:0|0:0,0:0:0:0:
368,148,91422,2,0,P|411:139|454:147,1,88.5,8|2,0:0|0:0,0:0:0:0:
276,200,91748,6,0,L|285:112,1,88.5,0|0,1:0|0:0,0:0:0:0:
96,228,92073,2,0,L|105:315,1,88.5,8|0,0:0|0:0,0:0:0:0:
192,180,92400,1,0,1:0:0:0:
0,252,92563,1,0,0:0:0:0:
216,300,92726,1,8,0:0:0:0:
24,372,92889,1,0,3:0:0:0:
88,144,93052,6,0,P|92:101|84:57,1,88.5,0|0,1:0|0:0,0:0:0:0:
212,212,93378,2,0,P|208:256|216:300,1,88.5,8|2,0:0|0:0,0:0:0:0:
340,200,93704,5,0,1:0:0:0:
104,288,93867,1,0,0:0:0:0:
352,196,94030,1,8,0:0:0:0:
92,292,94193,1,0,0:0:0:0:
328,280,94357,6,0,P|317:322|327:365,1,88.5,4|0,1:0|0:0,0:0:0:0:
144,148,94683,2,0,P|155:105|145:62,1,88.5,8|0,0:0|0:0,0:0:0:0:
4,12,95009,1,0,1:0:0:0:
228,48,95172,1,2,0:0:0:0:
8,112,95334,1,8,0:0:0:0:
232,148,95498,1,0,3:0:0:0:
8,252,95661,6,0,L|95:242,1,88.5,0|0,1:0|0:0,0:0:0:0:
288,220,95987,1,8,0:0:0:0:
112,344,96150,1,0,0:0:0:0:
152,120,96313,1,0,1:0:0:0:
244,352,96476,1,2,0:0:0:0:
268,128,96639,1,8,0:0:0:0:
108,319,96802,1,0,0:0:0:0:
376,284,96965,6,0,P|332:292|289:284,1,88.5,8|0,0:0|0:0,0:0:0:0:
120,136,97291,1,12,0:0:0:0:
96,352,97454,1,0,0:0:0:0:
332,192,97617,1,12,0:0:0:0:
48,232,97780,1,8,0:0:0:0:
48,232,97862,1,8,0:0:0:0:
48,232,97943,1,8,0:0:0:0:
332,320,98107,1,8,0:0:0:0:
332,320,98188,1,8,0:0:0:0:
332,320,98270,1,8,0:0:0:0:
108,72,98596,6,0,B|116:192|116:192|132:148|176:128,1,185.849994328308,12|0,0:0|0:0,0:0:0:0:
248,204,98922,6,0,P|186:226|237:267,1,159.29999513855,12|0,0:0|0:0,0:0:0:0:
320,152,99248,6,0,B|352:116|352:116|366:199,1,132.75,12|0,0:0|0:0,0:0:0:0:
428,87,99574,6,0,P|413:58|387:38,1,66.3750025320054,2|0,0:0|0:0,0:0:0:0:
288,32,99900,2,0,P|258:46|238:72,1,66.3750025320054,2|2,0:0|0:0,0:0:0:0:
200,164,100226,1,2,0:0:0:0:
260,243,100389,1,0,0:0:0:0:
358,229,100552,1,0,0:0:0:0:
396,136,100715,1,2,0:0:0:0:
456,215,100878,6,0,L|449:281,1,66.3750025320054,2|0,0:0|0:0,0:0:0:0:
396,136,101204,2,0,L|402:69,1,66.3750025320054,0|2,0:0|0:0,0:0:0:0:
324,8,101530,1,2,0:0:0:0:
231,45,101693,1,0,0:0:0:0:
137,7,101857,5,4,1:0:0:0:
401,69,102020,1,4,1:0:0:0:
256,192,102101,12,0,108052,0:0:0:0:
