osu file format v14

[General]
AudioFilename: weeb.mp3
AudioLeadIn: 0
PreviewTime: 64601
Countdown: 0
SampleSet: Soft
StackLeniency: 0.4
Mode: 0
LetterboxInBreaks: 0
WidescreenStoryboard: 0

[Editor]
Bookmarks: 65635,81287,89113,99548
DistanceSpacing: 1.2
BeatDivisor: 4
GridSize: 8
TimelineZoom: 1.4

[Metadata]
Title:Yuki no Youni
TitleUnicode:雪のように
Artist:AKINO with bless4
ArtistUnicode:AKINO with bless4
Creator:Sotarks
Version:Deppy's Another
Source:
Tags:akitoshi corinn electoz pkhg janpai [_Sc4v4ng3r_] Sc4v4ng3r appleeaterx Doormat Deppyforce davided kibbleru pentori kalibe hb24 fcl linada christmas
BeatmapID:1127745
BeatmapSetID:532165

[Difficulty]
HPDrainRate:7
CircleSize:3
OverallDifficulty:7.6
ApproachRate:9
SliderMultiplier:1.77777777777778
SliderTickRate:1

[Events]
//Background and Video events
0,0,"depybg v2.jpg",0,0
//Break Periods
//Storyboard Layer 0 (Background)
//Storyboard Layer 1 (Fail)
//Storyboard Layer 2 (Pass)
//Storyboard Layer 3 (Foreground)
//Storyboard Sound Samples

[TimingPoints]
444,326.086956521739,4,2,22,22,1,0
5335,-200,4,2,22,22,0,0
5579,-133.333333333333,4,2,22,5,0,0
5661,-133.333333333333,4,2,22,22,0,0
6884,-133.333333333333,4,2,22,5,0,0
6965,-133.333333333333,4,2,22,32,0,0
7862,-133.333333333333,4,2,22,5,0,0
7943,-133.333333333333,4,2,22,22,0,0
8270,-133.333333333333,4,2,22,32,0,0
9492,-133.333333333333,4,2,22,5,0,0
9574,-133.333333333333,4,2,22,32,0,0
10878,-117.647058823529,4,2,22,42,0,0
18704,-117.647058823529,4,2,22,52,0,0
21313,-100,4,2,22,62,0,0
30770,-66.6666666666667,4,2,22,72,0,0
31014,-200,4,2,22,5,0,0
31096,-66.6666666666667,4,2,22,62,0,0
31340,-200,4,2,22,5,0,0
31422,-66.6666666666667,4,2,22,52,0,0
31666,-200,4,2,22,5,0,0
31748,-111.111111111111,4,2,22,42,0,0
34683,-111.111111111111,4,2,22,42,0,0
34846,-111.111111111111,4,2,22,42,0,0
38596,-111.111111111111,4,2,22,42,0,0
38759,-111.111111111111,4,2,22,42,0,0
52617,-100,4,2,22,52,0,0
64683,-71.4285714285714,4,2,22,62,0,0
64927,-100,4,2,22,5,0,0
65009,-62.5,4,2,22,72,0,0
65253,-100,4,2,22,5,0,0
65335,-55.5555555555556,4,2,22,82,0,0
65579,-100,4,2,22,5,0,0
65661,-71.4285714285714,4,2,22,62,0,1
72509,-71.4285714285714,4,2,22,72,0,1
72835,-71.4285714285714,4,2,22,82,0,1
73161,-71.4285714285714,4,2,22,72,0,1
73487,-71.4285714285714,4,2,22,62,0,1
75362,-71.4285714285714,4,2,22,5,0,1
75443,-58.8235294117647,4,2,22,62,0,1
75688,-71.4285714285714,4,2,22,5,0,1
75770,-50,4,2,22,62,0,1
76014,-71.4285714285714,4,2,22,5,0,1
76096,-71.4285714285714,4,2,22,62,0,1
76422,-71.4285714285714,4,2,99,52,0,1
76503,-71.4285714285714,4,2,22,62,0,1
81313,-83.3333333333333,4,2,22,52,0,0
83922,-133.333333333333,4,2,22,52,0,0
84003,-133.333333333333,4,2,22,15,0,0
85226,-1000,4,2,22,15,0,0
85308,-100,4,2,22,5,0,0
89139,-100,4,2,22,62,0,0
97617,-100,4,2,22,62,0,0
98270,-200,4,2,22,62,0,0
98596,-57.1428571428571,4,2,22,62,0,0
98922,-80,4,2,22,62,0,0
99248,-133.333333333333,4,2,22,62,0,0
99574,-100,4,2,22,42,0,0
101857,-100,4,2,22,72,0,0
108052,-100,4,2,22,22,0,0

[Colours]
Combo1 : 254,186,61
Combo2 : 211,10,10
Combo3 : 150,171,254
Combo4 : 1,137,41

[HitObjects]
209,83,5335,6,0,P|201:111|173:101,1,66.6666666666667,2|0,0:0|0:0,0:0:0:0:
173,101,5661,6,0,B|176:102|193:127|201:186|168:225|168:225|232:204|232:204|293:230|293:230|361:224|361:224|382:128|288:119|275:170,1,500.000019073488,2|0,0:0|0:0,0:0:0:0:
275,169,6965,6,0,B|285:250|230:286|230:286|216:355|135:366|63:321|89:252,1,366.666680653891,2|0,0:0|0:0,0:0:0:0:
169,224,7943,5,0,0:0:0:0:
16,210,8107,1,2,0:0:0:0:
89,253,8270,6,0,B|125:204|107:127|107:127|165:141|207:115|207:115|204:84|204:84|246:18|344:4|409:60,1,500.000019073488,2|0,0:0|0:0,0:0:0:0:
409,60,9574,6,0,P|379:153|399:250,1,200.000007629395,2|0,0:0|1:0,0:0:0:0:
445,275,10145,1,0,1:0:0:0:
495,287,10226,1,8,0:0:0:0:
495,287,10878,6,0,B|349:249|349:249|203:285,1,302.222227986654,6|0,0:0|3:0,0:0:0:0:
202,285,12183,5,4,3:0:0:0:
41,237,12346,2,0,L|34:86,1,151.111113993327,4|8,3:0|3:0,0:0:0:0:
34,86,12998,1,4,3:0:0:0:
195,134,13161,1,4,3:0:0:0:
195,134,13487,6,0,P|288:123|234:46,1,226.666670989991,6|8,0:0|0:0,0:0:0:0:
202,285,14139,1,8,0:0:0:0:
202,285,14791,5,6,0:0:0:0:
377,143,14954,2,0,B|313:102|313:102|238:99,1,151.111113993327,8|0,0:0|0:0,0:0:0:0:
238,99,15362,1,0,0:0:0:0:
238,99,15443,1,8,0:0:0:0:
133,50,15607,1,4,3:0:0:0:
237,98,15770,1,0,1:0:0:0:
143,167,15933,1,8,3:0:0:0:
379,33,16096,6,0,P|386:183|451:319,1,302.222227986654,6|0,0:0|3:0,0:0:0:0:
451,319,17074,1,8,3:0:0:0:
451,319,17400,6,0,B|303:349|303:349|230:328,1,226.666670989991,4|4,3:0|3:0,0:0:0:0:
230,328,18215,1,8,3:0:0:0:
281,146,18378,1,8,3:0:0:0:
280,146,18704,6,0,P|229:168|173:165,1,113.333335494995,6|0,0:0|0:0,0:0:0:0:
104,236,19030,2,0,P|68:245|32:235,1,75.5555569966635
267,279,19357,2,0,P|231:286|195:276,1,75.5555569966635,6|0,0:0|0:0,0:0:0:0:
53,344,19683,2,0,P|90:355|126:346,1,75.5555569966635,2|0,0:0|0:0,0:0:0:0:
280,146,20009,5,8,0:0:0:0:
257,313,20172,1,2,0:0:0:0:
376,137,20335,1,8,0:0:0:0:
348,339,20498,1,2,0:0:0:0:
198,219,20661,1,8,0:0:0:0:
423,247,20824,5,8,0:0:0:0:
444,285,20905,1,8,0:0:0:0:
487,288,20987,1,8,0:0:0:0:
512,255,21068,1,8,0:0:0:0:
501,213,21150,1,8,0:0:0:0:
460,201,21231,1,8,0:0:0:0:
467,246,21313,6,0,P|496:164|468:81,1,177.777777777778,4|8,1:0|0:0,0:0:0:0:
90,18,21965,2,0,P|61:99|89:182,1,177.777777777778,0|8,1:0|0:0,0:0:0:0:
212,318,22454,1,0,3:0:0:0:
378,79,22617,6,0,L|201:100,1,177.777777777778,0|8,1:0|0:0,0:0:0:0:
2,100,23107,1,0,0:0:0:0:
195,210,23270,1,0,1:0:0:0:
102,20,23433,1,2,0:0:0:0:
57,230,23596,2,0,L|63:318,1,88.888888888889,8|2,0:0|0:0,0:0:0:0:
362,235,23922,6,0,P|281:198|194:209,1,177.777777777778,0|8,1:0|0:0,0:0:0:0:
495,19,24574,2,0,P|505:106|469:186,1,177.777777777778,0|8,1:0|0:0,0:0:0:0:
291,328,25063,1,0,3:0:0:0:
111,139,25226,6,0,L|288:160,1,177.777777777778,0|8,1:0|0:0,0:0:0:0:
469,186,25715,1,2,0:0:0:0:
216,245,25878,1,0,1:0:0:0:
396,60,26041,1,2,0:0:0:0:
177,242,26204,1,8,0:0:0:0:
357,57,26367,1,0,3:0:0:0:
49,12,26530,6,0,P|44:100|11:182,1,177.777777777778,4|8,1:0|0:0,0:0:0:0:
383,152,27183,2,0,P|349:234|345:322,1,177.777777777778,0|8,1:0|0:0,0:0:0:0:
436,145,27672,1,0,3:0:0:0:
185,64,27835,6,0,L|176:241,1,177.777777777778,0|8,1:0|0:0,0:0:0:0:
345,322,28324,1,0,0:0:0:0:
144,206,28487,1,0,1:0:0:0:
383,152,28650,1,2,0:0:0:0:
157,19,28813,2,0,L|152:107,1,88.888888888889,8|0,0:0|0:0,0:0:0:0:
216,339,29139,6,0,P|298:369|385:352,1,177.777777777778,0|8,1:0|0:0,0:0:0:0:
326,31,29791,1,0,1:0:0:0:
126,110,29954,1,8,0:0:0:0:
126,110,30036,1,8,0:0:0:0:
126,110,30117,1,8,0:0:0:0:
375,180,30280,1,8,0:0:0:0:
375,180,30362,1,8,0:0:0:0:
375,180,30443,1,6,0:0:0:0:
375,180,30770,6,0,L|174:194,1,200.000007629395,12|0,0:0|0:0,0:0:0:0:
203,278,31096,2,0,L|403:265,1,200.000007629395,12|0,0:0|0:0,0:0:0:0:
431,348,31422,2,0,L|230:362,1,200.000007629395,12|0,0:0|0:0,0:0:0:0:
93,145,31748,6,0,P|82:106|84:66,1,79.9999975585939,0|0,1:0|0:0,0:0:0:0:
68,236,32074,1,0,1:0:0:0:
68,236,32237,1,0,0:0:0:0:
47,351,32400,2,0,P|36:312|38:272,1,79.9999975585939,0|2,1:0|0:0,0:0:0:0:
181,96,32726,2,0,P|192:134|190:174,1,79.9999975585939,8|0,0:0|0:0,0:0:0:0:
37,272,33052,5,0,1:0:0:0:
37,272,33215,1,0,0:0:0:0:
188,318,33378,2,0,L|269:313,1,79.9999975585939,0|2,1:0|0:0,0:0:0:0:
419,227,33704,1,0,1:0:0:0:
419,227,33867,1,2,0:0:0:0:
268,275,34030,2,0,L|187:270,1,79.9999975585939,0|2,1:0|0:0,0:0:0:0:
370,314,34357,6,0,L|450:319,1,79.9999975585939,0|0,1:0|0:0,0:0:0:0:
322,98,34683,2,0,P|313:136|318:176,1,79.9999975585939,12|0,0:0|0:0,0:0:0:0:
370,314,35009,1,0,1:0:0:0:
370,314,35172,1,2,0:0:0:0:
408,141,35335,1,0,1:0:0:0:
408,141,35498,1,2,0:0:0:0:
187,222,35661,6,0,L|106:217,1,79.9999975585939,0|0,1:0|0:0,0:0:0:0:
211,103,35987,2,0,L|89:110,1,119.999996337891,0|0,1:0|0:0,0:0:0:0:
89,199,36313,2,0,L|10:204,1,79.9999975585939,0|2,1:0|0:0,0:0:0:0:
17,15,36639,2,0,L|96:19,1,79.9999975585939,8|2,0:0|0:0,0:0:0:0:
186,222,36965,6,0,P|169:257|140:284,1,79.9999975585939,4|0,1:0|0:0,0:0:0:0:
314,212,37291,2,0,P|285:239|267:274,1,79.9999975585939,0|0,1:0|0:0,0:0:0:0:
242,105,37617,1,0,1:0:0:0:
242,105,37780,1,2,0:0:0:0:
413,235,37943,2,0,P|395:270|366:297,1,79.9999975585939,0|2,1:0|0:0,0:0:0:0:
186,222,38270,5,0,1:0:0:0:
186,222,38433,1,0,0:0:0:0:
267,9,38596,2,0,P|302:27|329:56,1,79.9999975585939,12|0,0:0|0:0,0:0:0:0:
314,212,38922,1,0,1:0:0:0:
314,212,39085,1,2,0:0:0:0:
128,126,39248,2,0,P|98:152|80:188,1,79.9999975585939,0|2,1:0|0:0,0:0:0:0:
242,105,39574,5,0,1:0:0:0:
128,126,39737,1,0,0:0:0:0:
332,170,39900,2,0,L|411:162,1,79.9999975585939,0|0,1:0|0:0,1:0:0:0:
247,241,40226,5,0,1:0:0:0:
236,355,40389,1,2,0:0:0:0:
446,149,40552,2,0,L|438:228,1,79.9999975585939,8|0,0:0|0:0,0:0:0:0:
265,347,40878,5,0,1:0:0:0:
428,186,41041,2,0,L|419:265,1,79.9999975585939,8|0,0:0|0:0,0:0:0:0:
294,339,41367,1,0,0:0:0:0:
410,223,41530,2,0,L|401:302,1,79.9999975585939,8|8,3:0|3:0,0:0:0:0:
354,340,41775,1,8,3:0:0:0:
294,339,41857,2,0,L|303:260,1,79.9999975585939,12|8,0:0|3:0,0:0:0:0:
331,91,42183,6,0,P|325:130|331:169,1,79.9999975585939,4|0,1:0|0:0,0:0:0:0:
490,49,42509,2,0,P|495:88|490:128,1,79.9999975585939,8|0,0:0|0:0,0:0:0:0:
288,111,42835,1,0,1:0:0:0:
288,111,42998,1,2,0:0:0:0:
489,205,43161,2,0,P|494:166|488:126,1,79.9999975585939,8|2,0:0|0:0,0:0:0:0:
308,254,43487,5,0,1:0:0:0:
308,254,43649,1,0,0:0:0:0:
146,207,43813,2,0,L|143:127,1,79.9999975585939,8|0,0:0|0:0,0:0:0:0:
7,39,44139,1,0,1:0:0:0:
7,39,44301,1,2,0:0:0:0:
169,86,44465,2,0,L|172:166,1,79.9999975585939,8|2,0:0|0:0,0:0:0:0:
91,352,44791,6,0,P|53:365|13:362,1,79.9999975585939,0|0,1:0|0:0,0:0:0:0:
203,291,45117,2,0,P|240:304|280:301,1,79.9999975585939,8|0,0:0|0:0,0:0:0:0:
255,193,45443,2,0,P|217:179|177:182,1,79.9999975585939,0|2,1:0|0:0,0:0:0:0:
375,244,45769,2,0,P|412:230|452:233,1,79.9999975585939,8|2,0:0|0:0,0:0:0:0:
280,301,46096,5,0,1:0:0:0:
280,301,46259,1,0,0:0:0:0:
350,135,46422,2,0,B|356:95|356:95|345:56,1,79.9999975585939,8|0,0:0|0:0,0:0:0:0:
138,95,46748,2,0,P|195:112|254:101,1,119.999996337891,0|0,1:0|0:0,0:0:0:0:
329,22,47074,2,0,P|387:10|444:27,1,119.999996337891,8|0,0:0|0:0,0:0:0:0:
492,164,47400,5,0,1:0:0:0:
168,296,47726,1,8,0:0:0:0:
323,339,47889,1,2,0:0:0:0:
163,263,48215,5,0,1:0:0:0:
350,315,48378,1,8,0:0:0:0:
329,22,48704,5,0,1:0:0:0:
461,346,49030,1,8,0:0:0:0:
504,191,49193,1,2,0:0:0:0:
428,351,49520,5,0,0:0:0:0:
480,164,49682,1,8,0:0:0:0:
479,164,50009,6,0,P|401:176|326:151,1,159.999995117188,4|8,1:0|0:0,0:0:0:0:
416,15,50498,1,4,1:0:0:0:
484,210,50661,1,0,0:0:0:0:
327,151,50824,1,8,3:0:0:0:
395,358,50987,2,0,P|406:319|404:280,1,79.9999975585939,8|0,0:0|0:0,0:0:0:0:
152,269,51313,6,0,L|72:264,1,79.9999975585939,4|0,1:0|0:0,0:0:0:0:
247,146,51639,2,0,L|326:150,1,79.9999975585939,2|2,0:0|0:0,0:0:0:0:
22,244,51965,5,8,0:0:0:0:
18,197,52047,1,8,0:0:0:0:
14,150,52128,1,8,0:0:0:0:
9,102,52210,1,8,0:0:0:0:
24,57,52292,1,8,0:0:0:0:
63,31,52373,1,8,0:0:0:0:
110,33,52455,1,8,0:0:0:0:
146,63,52536,1,8,0:0:0:0:
167,113,52617,6,0,B|163:207|163:207|126:283,1,177.777777777778,4|8,1:0|0:0,0:0:0:0:
126,283,53270,1,2,0:0:0:0:
290,244,53433,1,2,0:0:0:0:
167,113,53596,1,8,0:0:0:0:
225,332,53759,6,0,B|289:284|394:325|394:325|366:366|315:351,1,266.666666666667,0|8,1:0|0:0,0:0:0:0:
315,351,54574,2,0,L|321:260,1,88.888888888889,0|2,1:0|0:0,0:0:0:0:
290,244,54900,2,0,L|296:153,1,88.888888888889,8|2,0:0|0:0,0:0:0:0:
454,51,55226,5,4,1:0:0:0:
58,51,55552,1,8,0:0:0:0:
356,323,55878,1,2,0:0:0:0:
296,156,56041,1,2,0:0:0:0:
186,288,56204,1,8,0:0:0:0:
389,214,56367,6,0,P|400:129|346:61,1,177.777777777778,0|0,1:0|1:0,0:0:0:0:
132,124,56857,1,8,0:0:0:0:
186,288,57020,2,0,L|193:241,1,44.4444444444445,0|0,1:0|1:0,0:0:0:0:
222,21,57183,1,8,0:0:0:0:
34,123,57346,2,0,L|81:130,1,44.4444444444445,0|0,1:0|1:0,0:0:0:0:
296,156,57509,1,8,0:0:0:0:
65,248,57672,1,0,1:0:0:0:
65,248,57753,1,0,1:0:0:0:
65,248,57835,5,12,0:0:0:0:
418,369,58161,1,8,0:0:0:0:
347,3,58487,1,2,0:0:0:0:
212,123,58650,1,2,0:0:0:0:
381,180,58813,1,8,0:0:0:0:
236,13,58976,6,0,B|149:27|149:27|102:106|102:106|124:189,1,266.666666666667,0|8,1:0|0:0,0:0:0:0:
125,190,59791,2,0,P|157:222|199:232,1,88.888888888889,0|2,1:0|0:0,0:0:0:0:
217,263,60117,2,0,P|259:252|290:221,1,88.888888888889,8|0,0:0|0:0,0:0:0:0:
254,10,60443,5,8,0:0:0:0:
10,306,60770,1,8,0:0:0:0:
373,30,61096,1,8,0:0:0:0:
98,375,61423,1,8,0:0:0:0:
254,10,61748,1,8,0:0:0:0:
502,306,62074,1,8,0:0:0:0:
139,30,62400,1,8,0:0:0:0:
414,375,62726,2,0,L|413:329,1,44.4444444444445,8|8,3:0|3:0,0:0:0:0:
499,167,62889,2,0,L|498:213,1,44.4444444444445,8|8,3:0|3:0,0:0:0:0:
305,250,63052,6,0,P|218:252|144:205,1,177.777777777778,12|2,0:0|0:0,0:0:0:0:
139,157,63460,1,0,0:0:0:0:
134,109,63541,2,0,P|207:61|295:64,1,177.777777777778,12|2,0:0|0:0,0:0:0:0:
305,250,64030,1,12,0:0:0:0:
20,21,64357,1,8,0:0:0:0:
145,372,64683,6,0,L|332:360,1,186.666660970053,12|0,0:0|0:0,0:0:0:0:
412,259,65009,2,0,L|199:245,1,213.333333333334,12|0,0:0|0:0,0:0:0:0:
119,143,65335,2,0,L|358:128,1,239.999992675782,12|0,0:0|0:0,0:0:0:0:
269,27,65661,6,0,B|165:-5|107:84|107:84|98:117|119:143,1,248.888881293403,4|8,1:0|0:0,0:0:0:0:
199,245,66150,1,0,0:0:0:0:
353,65,66313,2,0,P|436:124|343:167,1,248.888881293403,0|8,1:0|0:0,0:0:0:0:
341,165,66965,5,0,0:0:0:0:
199,245,67128,1,2,0:0:0:0:
74,42,67291,1,8,0:0:0:0:
322,217,67617,5,0,1:0:0:0:
178,295,67780,1,0,1:0:0:0:
53,92,67943,1,8,0:0:0:0:
230,136,68107,2,0,P|228:167|217:197,1,62.2222203233508
60,358,68270,6,0,P|178:325|295:361,1,248.888881293403,0|8,1:0|0:0,0:0:0:0:
107,205,68759,1,0,0:0:0:0:
288,74,68922,2,0,P|324:191|291:309,1,248.888881293403,0|8,1:0|0:0,0:0:0:0:
291,309,69574,5,0,0:0:0:0:
437,276,69737,1,2,0:0:0:0:
489,52,69900,5,8,0:0:0:0:
456,36,70226,1,0,1:0:0:0:
424,46,70552,5,8,0:0:0:0:
437,276,70715,1,2,0:0:0:0:
286,42,70878,6,0,B|197:44|197:44|137:89|137:89|52:91,1,248.888881293403,2|8,0:0|0:0,0:0:0:0:
233,278,71367,2,0,P|245:217|234:157,1,124.444440646702,2|0,0:0|0:0,0:0:0:0:
18,103,71693,1,2,0:0:0:0:
12,364,71857,2,0,L|136:356,1,124.444440646702,8|0,0:0|0:0,0:0:0:0:
358,164,72183,2,0,L|233:156,1,124.444440646702,0|0,1:0|1:0,0:0:0:0:
48,322,72509,5,8,0:0:0:0:
443,190,72835,1,8,0:0:0:0:
0,117,73161,2,0,P|59:137|121:122,1,124.444440646702,8|2,0:0|0:0,0:0:0:0:
411,304,73487,6,0,B|280:318|280:318|165:293,1,248.888881293403,4|8,1:0|0:0,0:0:0:0:
379,119,73976,1,0,0:0:0:0:
40,328,74139,2,0,B|171:342|171:342|286:317,1,248.888881293403,0|8,1:0|0:0,0:0:0:0:
379,119,74628,1,2,0:0:0:0:
165,293,74791,1,0,0:0:0:0:
90,63,74954,1,2,0:0:0:0:
285,205,75117,1,12,0:0:0:0:
44,205,75280,1,0,0:0:0:0:
239,63,75443,6,0,P|344:95|439:40,1,226.666670989991,12|0,0:0|0:0,0:0:0:0:
337,42,75770,2,0,P|281:158|324:280,1,266.666666666667,12|0,0:0|0:0,0:0:0:0:
373,357,76096,6,0,P|202:316|177:143,1,373.333321940105,4|0,1:0|0:0,0:0:0:0:
411,218,76748,1,0,1:0:0:0:
178,340,76911,1,0,1:0:0:0:
72,86,77074,2,0,B|132:80|132:80|194:92,1,124.444440646702,8|2,0:0|0:0,0:0:0:0:
394,261,77400,6,0,B|334:267|334:267|272:255,1,124.444440646702,0|2,0:0|0:0,0:0:0:0:
512,64,77726,1,8,0:0:0:0:
91,120,78052,1,0,1:0:0:0:
422,375,78378,1,8,0:0:0:0:
0,320,78704,5,0,1:0:0:0:
32,108,78867,1,2,0:0:0:0:
125,365,79030,1,8,0:0:0:0:
125,365,79357,5,0,1:0:0:0:
32,108,79520,1,0,1:0:0:0:
228,315,79683,1,8,0:0:0:0:
383,19,79846,6,0,B|319:-2|266:46|266:46|272:104|347:130|421:129|474:91,1,373.333321940105,2|8,0:0|0:0,0:0:0:0:
474,90,80661,1,0,1:0:0:0:
207,139,80824,1,0,1:0:0:0:
497,42,80987,1,8,0:0:0:0:
9,84,81313,6,0,P|42:185|23:289,1,213.333326822917,6|0,0:0|0:0,0:0:0:0:
23,289,81965,2,0,P|123:256|227:275,1,213.333326822917,8|2,0:0|0:0,0:0:0:0:
430,363,82454,1,8,0:0:0:0:
366,233,82617,1,2,0:0:0:0:
512,23,82780,1,8,0:0:0:0:
448,153,82943,1,2,0:0:0:0:
448,153,83270,6,0,B|344:179|344:179|239:158,1,213.333326822917,8|2,0:0|0:0,0:0:0:0:
29,32,83759,1,8,0:0:0:0:
29,32,83922,5,2,0:0:0:0:
29,32,84411,5,2,0:0:0:0:
29,32,84900,5,0,0:0:0:0:
29,32,85226,6,0,B|15:64|22:104|60:134|102:128|102:128|89:157|106:187,1,208.888888888889,2|0,0:0|0:0,0:0:0:0:
45,246,89139,6,0,P|16:164|44:81,1,177.777777777778,4|8,1:0|0:0,0:0:0:0:
422,18,89791,2,0,P|451:99|423:182,1,177.777777777778,0|8,1:0|0:0,0:0:0:0:
300,318,90280,1,0,3:0:0:0:
134,79,90443,6,0,L|311:100,1,177.777777777778,0|8,1:0|0:0,0:0:0:0:
510,100,90933,1,0,0:0:0:0:
317,210,91096,1,0,1:0:0:0:
410,20,91259,1,2,0:0:0:0:
455,230,91422,2,0,L|449:318,1,88.888888888889,8|2,0:0|0:0,0:0:0:0:
150,236,91748,6,0,P|231:199|318:210,1,177.777777777778,0|8,1:0|0:0,0:0:0:0:
17,19,92400,2,0,P|7:106|43:186,1,177.777777777778,0|8,1:0|0:0,0:0:0:0:
221,328,92889,1,0,3:0:0:0:
401,139,93052,6,0,L|224:160,1,177.777777777778,0|8,1:0|0:0,0:0:0:0:
43,186,93541,1,2,0:0:0:0:
296,245,93704,1,0,1:0:0:0:
116,60,93867,1,2,0:0:0:0:
335,242,94030,1,8,0:0:0:0:
155,57,94193,1,0,3:0:0:0:
463,12,94356,6,0,P|468:100|501:182,1,177.777777777778,4|8,1:0|0:0,0:0:0:0:
129,152,95009,2,0,P|163:234|167:322,1,177.777777777778,0|8,1:0|0:0,0:0:0:0:
76,145,95498,1,0,3:0:0:0:
327,64,95661,6,0,L|336:241,1,177.777777777778,0|8,1:0|0:0,0:0:0:0:
167,322,96150,1,0,0:0:0:0:
368,206,96313,1,0,1:0:0:0:
129,152,96476,1,2,0:0:0:0:
355,19,96639,2,0,L|360:107,1,88.888888888889,8|0,0:0|0:0,0:0:0:0:
296,339,96965,6,0,P|214:369|127:352,1,177.777777777778,8|12,0:0|0:0,0:0:0:0:
186,31,97617,1,12,0:0:0:0:
386,110,97780,1,8,0:0:0:0:
386,110,97862,1,8,0:0:0:0:
386,110,97943,1,8,0:0:0:0:
137,180,98106,1,8,0:0:0:0:
137,180,98188,1,8,0:0:0:0:
137,180,98270,6,0,L|133:246,1,66.6666666666667,8|0,0:0|0:0,0:0:0:0:
228,272,98596,6,0,L|243:40,1,233.333335558574,12|0,0:0|0:0,0:0:0:0:
334,132,98922,2,0,L|324:299,1,166.666666666667,12|0,0:0|0:0,0:0:0:0:
418,324,99248,2,0,L|424:224,1,100.000003814698,12|0,0:0|0:0,0:0:0:0:
400,37,99574,6,0,P|316:17|242:61,2,177.777777777778,2|2|2,0:0|0:0|0:0,0:0:0:0:
334,132,100389,1,0,0:0:0:0:
222,101,100552,1,0,0:0:0:0:
156,196,100715,1,2,0:0:0:0:
330,220,100878,6,0,L|333:131,1,88.888888888889,2|0,0:0|0:0,0:0:0:0:
218,12,101204,2,0,L|221:100,1,88.888888888889,0|2,0:0|0:0,0:0:0:0:
424,181,101530,2,0,L|512:177,1,88.888888888889,2|0,0:0|0:0,0:0:0:0:
256,372,101857,5,4,1:0:0:0:
256,20,102020,1,4,1:0:0:0:
256,192,102101,12,0,108052,0:0:0:0:
