osu file format v14

[General]
AudioFilename: weeb.mp3
AudioLeadIn: 0
PreviewTime: 64601
Countdown: 0
SampleSet: Soft
StackLeniency: 0.7
Mode: 0
LetterboxInBreaks: 0
WidescreenStoryboard: 0

[Editor]
Bookmarks: 5295,7917,21287,31722,42157,52591,65635,76070,89113,101994
DistanceSpacing: 0.5
BeatDivisor: 4
GridSize: 4
TimelineZoom: 1.6

[Metadata]
Title:Yuki no Youni
TitleUnicode:雪のように
Artist:AKINO with bless4
ArtistUnicode:AKINO with bless4
Creator:Sotarks
Version:DavidEd's Expert
Source:
Tags:akitoshi corinn electoz pkhg janpai [_Sc4v4ng3r_] Sc4v4ng3r appleeaterx Doormat Deppyforce davided kibbleru pentori kalibe hb24 fcl linada christmas
BeatmapID:1127744
BeatmapSetID:532165

[Difficulty]
HPDrainRate:6
CircleSize:4.3
OverallDifficulty:7.6
ApproachRate:9
SliderMultiplier:1.8
SliderTickRate:1

[Events]
//Background and Video events
0,0,"davided.jpg",0,0
//Break Periods
//Storyboard Layer 0 (Background)
//Storyboard Layer 1 (Fail)
//Storyboard Layer 2 (Pass)
//Storyboard Layer 3 (Foreground)
//Storyboard Sound Samples

[TimingPoints]
444,326.086956521739,4,2,22,30,1,0
5579,-100,4,2,22,5,0,0
5661,-153.846153846153,4,2,22,30,0,0
6884,-153.846153846153,4,2,22,5,0,0
6965,-153.846153846153,4,2,22,30,0,0
7862,-153.846153846153,4,2,22,5,0,0
7943,-153.846153846153,4,2,22,30,0,0
8270,-153.846153846153,4,2,22,30,0,0
9574,-200,4,2,22,30,0,0
10878,-153.846153846153,4,2,22,50,0,0
11530,-153.846153846153,4,3,19,50,0,0
11857,-153.846153846153,4,2,22,50,0,0
12346,-153.846153846153,4,3,19,50,0,0
13487,-153.846153846153,4,2,22,50,0,0
15280,-153.846153846153,4,2,22,30,0,0
15607,-153.846153846153,4,2,22,50,0,0
15770,-153.846153846153,4,3,19,50,0,0
16096,-153.846153846153,4,2,22,50,0,0
17074,-153.846153846153,4,3,19,50,0,0
17400,-153.846153846153,4,2,22,50,0,0
17889,-153.846153846153,4,3,19,50,0,0
18704,-153.846153846153,4,2,22,50,0,0
20009,-100,4,2,22,50,0,0
20172,-100,4,3,19,50,0,0
20335,-100,4,2,19,50,0,0
20824,-83.3333333333333,4,2,19,50,0,0
21313,-83.3333333333333,4,2,22,70,0,0
29791,-83.3333333333333,4,2,19,70,0,0
30443,-76.9230769230769,4,3,19,70,0,0
30688,-76.9230769230769,4,3,19,5,0,0
30770,-66.6666666666667,4,1,27,70,0,0
31014,-66.6666666666667,4,2,22,5,0,0
31096,-66.6666666666667,4,1,27,70,0,0
31340,-66.6666666666667,4,2,22,5,0,0
31422,-66.6666666666667,4,1,27,70,0,0
31666,-66.6666666666667,4,2,22,5,0,0
31748,-111.111111111111,4,2,22,60,0,0
36313,-90.9090909090909,4,2,22,60,0,0
36558,-90.9090909090909,4,2,22,60,0,0
36639,-90.9090909090909,4,2,22,60,0,0
36884,-90.9090909090909,4,2,22,60,0,0
36965,-111.111111111111,4,2,22,60,0,0
41693,-111.111111111111,4,3,19,60,0,0
41857,-111.111111111111,4,2,19,60,0,0
42020,-111.111111111111,4,3,19,60,0,0
42183,-90.9090909090909,4,2,22,65,0,0
51639,-90.9090909090909,4,3,19,65,0,0
51965,-90.9090909090909,4,2,19,65,0,0
52617,-66.6666666666667,4,2,22,65,0,0
52862,-66.6666666666667,4,2,22,65,0,0
52943,-66.6666666666667,4,2,22,65,0,0
53188,-66.6666666666667,4,2,22,65,0,0
53270,-90.9090909090909,4,2,22,65,0,0
55226,-66.6666666666667,4,2,22,65,0,0
55471,-66.6666666666667,4,2,22,65,0,0
55552,-66.6666666666667,4,2,22,65,0,0
55797,-66.6666666666667,4,2,22,65,0,0
55878,-90.9090909090909,4,2,22,65,0,0
57020,-90.9090909090909,4,2,19,65,0,0
57835,-66.6666666666667,4,2,22,65,0,0
58079,-66.6666666666667,4,2,22,65,0,0
58161,-66.6666666666667,4,2,22,65,0,0
58405,-66.6666666666667,4,2,22,65,0,0
58487,-90.9090909090909,4,2,22,65,0,0
62726,-90.9090909090909,4,3,19,65,0,0
63052,-90.9090909090909,4,2,22,65,0,0
64683,-66.6666666666667,4,1,27,65,0,0
64927,-66.6666666666667,4,2,22,5,0,0
65009,-66.6666666666667,4,1,27,65,0,0
65253,-66.6666666666667,4,2,22,5,0,0
65335,-66.6666666666667,4,1,27,65,0,0
65579,-66.6666666666667,4,2,22,5,0,0
65661,-83.3333333333333,4,2,22,80,0,1
72509,-83.3333333333333,4,2,22,80,0,1
72835,-83.3333333333333,4,2,22,80,0,1
73161,-83.3333333333333,4,2,22,80,0,1
73487,-83.3333333333333,4,2,22,80,0,1
81313,-100,4,2,22,80,0,1
83922,-100,4,2,22,80,0,1
84900,-100,4,2,22,80,0,1
89058,-100,4,2,22,5,0,1
89139,-83.3333333333333,4,2,22,70,0,0
97617,-83.3333333333333,4,2,19,70,0,0
98270,-71.4285714285714,4,3,19,70,0,0
98514,-71.4285714285714,4,3,19,5,0,0
98596,-66.6666666666667,4,1,27,70,0,0
98840,-66.6666666666667,4,2,22,5,0,0
98922,-66.6666666666667,4,1,27,70,0,0
99166,-66.6666666666667,4,2,22,5,0,0
99248,-66.6666666666667,4,1,27,70,0,0
99492,-66.6666666666667,4,2,22,5,0,0
99574,-100,4,2,22,42,0,0
101857,-100,4,2,22,72,0,0
108052,-100,4,2,22,22,0,0

[Colours]
Combo1 : 55,255,250
Combo2 : 255,21,21
Combo3 : 13,251,0
Combo4 : 242,248,16

[HitObjects]
187,184,5335,6,0,P|256:192|319:166,1,135,2|0,0:0|0:0,0:0:0:0:
360,107,5661,6,0,P|424:76|387:169,1,233.999989288331,2|0,0:0|0:0,0:0:0:0:
333,305,6965,2,0,P|422:329|378:249,1,233.999989288331,2|0,0:0|0:0,0:0:0:0:
256,133,7943,2,0,L|256:197,1,58.4999973220826,2|0,0:0|0:0,0:0:0:0:
178,305,8270,6,0,P|89:329|134:249,1,233.999989288331,2|0,0:0|0:0,0:0:0:0:
256,56,9574,2,0,L|256:198,1,135,2|0,0:0|0:0,0:0:0:0:
256,191,10145,1,8,0:0:0:0:
256,191,10226,1,8,0:0:0:0:
256,191,10878,6,0,B|294:218|294:218|366:225,1,116.999994644165,4|0,0:0|0:0,0:0:0:0:
382,40,11530,2,0,P|340:72|329:141,1,116.999994644165,8|0,0:0|0:0,0:0:0:0:
367,324,12183,5,4,0:0:0:0:
268,276,12346,2,0,L|141:281,2,116.999994644165,8|8|8,0:0|0:0|0:0,0:0:0:0:
364,224,13161,2,0,P|385:207|408:170,1,58.4999973220826
226,51,13487,6,0,B|202:95|202:95|204:181,1,116.999994644165,4|0,0:0|0:0,0:0:0:0:
268,276,13976,1,8,0:0:0:0:
91,257,14139,2,0,P|70:208|125:179,1,116.999994644165,8|0,0:0|0:0,0:0:0:0:
342,323,14791,5,4,0:0:0:0:
268,217,14954,2,0,P|265:251|269:282,1,58.4999973220826,8|0,0:0|0:0,0:0:0:0:
435,208,15280,1,8,0:0:0:0:
435,208,15362,1,8,0:0:0:0:
435,208,15443,1,8,0:0:0:0:
245,126,15607,1,8,0:0:0:0:
400,82,15770,1,8,0:0:0:0:
358,241,15933,1,8,0:0:0:0:
130,132,16096,6,0,B|174:118|174:118|249:126,1,116.999994644165,4|0,0:0|0:0,0:0:0:0:
62,185,16748,2,0,B|48:141|48:141|56:66,1,116.999994644165,2|8,0:0|0:0,0:0:0:0:
312,72,17400,6,0,B|326:116|326:116|318:191,1,116.999994644165,4|0,0:0|0:0,0:0:0:0:
284,304,17889,2,0,P|275:332|276:367,1,58.4999973220826,8|0,0:0|0:0,0:0:0:0:
372,264,18215,1,8,0:0:0:0:
232,228,18378,2,0,P|200:224|166:231,1,58.4999973220826
312,72,18704,5,4,0:0:0:0:
55,146,19030,2,0,B|30:202|77:220|48:284,2,116.999994644165,2|2|2,0:0|0:0|0:0,0:0:0:0:
385,109,20009,6,0,P|351:144|305:149,1,90,4|8,0:0|0:0,0:0:0:0:
121,77,20335,1,8,0:0:0:0:
121,77,20416,1,8,0:0:0:0:
121,77,20498,1,8,0:0:0:0:
312,151,20661,1,8,0:0:0:0:
122,198,20824,1,8,0:0:0:0:
75,224,20905,1,8,0:0:0:0:
57,274,20987,1,8,0:0:0:0:
74,324,21068,1,8,0:0:0:0:
119,352,21150,1,8,0:0:0:0:
172,346,21231,1,8,0:0:0:0:
209,308,21313,6,0,P|225:256|221:201,1,107.999996704102,6|0,0:0|0:0,0:0:0:0:
121,77,21639,2,0,P|173:93|228:89,1,107.999996704102,10|0,0:0|0:0,0:0:0:0:
385,46,21965,2,0,P|409:94|415:149,1,107.999996704102,2|0,0:0|0:0,0:0:0:0:
392,308,22291,1,10,0:0:0:0:
312,151,22454,1,0,0:0:0:0:
209,308,22617,6,0,B|258:326|258:326|319:321,1,107.999996704102,2|0,0:0|0:0,0:0:0:0:
460,235,22943,1,10,0:0:0:0:
312,151,23107,1,0,0:0:0:0:
119,322,23270,1,2,0:0:0:0:
267,238,23434,1,0,0:0:0:0:
116,152,23596,2,0,B|100:100|100:100|112:48,1,107.999996704102,10|0,0:0|0:0,0:0:0:0:
400,48,23922,6,0,B|412:100|412:100|396:152,1,107.999996704102,2|0,0:0|0:0,0:0:0:0:
315,309,24248,2,0,P|365:327|417:319,1,107.999996704102,10|0,0:0|0:0,0:0:0:0:
312,151,24574,2,0,P|256:143|196:172,1,107.999996704102,2|0,0:0|0:0,0:0:0:0:
97,288,24900,1,10,0:0:0:0:
267,238,25063,1,0,0:0:0:0:
97,183,25226,6,0,P|84:133|94:78,1,107.999996704102,2|0,0:0|0:0,0:0:0:0:
267,238,25552,2,0,P|280:288|270:343,1,107.999996704102,10|0,0:0|0:0,0:0:0:0:
178,128,25878,1,2,0:0:0:0:
396,55,26041,1,2,0:0:0:0:
267,238,26204,1,10,0:0:0:0:
168,44,26367,1,2,0:0:0:0:
424,127,26530,6,0,P|440:176|444:236,1,107.999996704102,6|0,0:0|0:0,0:0:0:0:
238,298,26857,2,0,P|222:249|218:189,1,107.999996704102,10|0,0:0|0:0,0:0:0:0:
330,51,27183,2,0,P|284:75|226:89,1,107.999996704102,2|0,0:0|0:0,0:0:0:0:
45,63,27509,1,10,0:0:0:0:
142,193,27672,1,0,0:0:0:0:
50,344,27835,6,0,P|59:290|96:241,1,107.999996704102,2|0,0:0|0:0,0:0:0:0:
267,182,28161,2,0,P|321:191|370:228,1,107.999996704102,10|0,0:0|0:0,0:0:0:0:
170,337,28487,1,2,0:0:0:0:
66,182,28650,1,0,0:0:0:0:
267,182,28813,2,0,P|277:129|264:76,1,107.999996704102,10|0,0:0|0:0,0:0:0:0:
69,78,29139,6,0,P|56:130|66:182,1,107.999996704102,2|0,0:0|0:0,0:0:0:0:
220,283,29465,2,0,P|167:294|115:283,1,107.999996704102,10|0,0:0|0:0,0:0:0:0:
167,77,29791,1,8,0:0:0:0:
356,172,29954,1,8,0:0:0:0:
382,170,30035,1,8,0:0:0:0:
409,168,30117,1,8,0:0:0:0:
220,283,30280,1,8,0:0:0:0:
246,281,30361,1,8,0:0:0:0:
273,279,30443,6,0,P|257:358|170:333,1,175.499991966248
43,260,30770,2,0,P|39:191|157:141,1,202.500007724762,4|0,0:0|0:0,0:0:0:0:
145,136,31096,2,0,P|240:140|283:55,1,202.500007724762,4|0,0:0|0:0,0:0:0:0:
282,54,31422,2,0,P|376:62|403:154,1,202.500007724762,4|0,0:0|0:0,0:0:0:0:
320,288,31748,6,0,B|351:327|386:331|386:331|411:305|410:255,1,161.999995056153,6|2,0:0|0:0,0:0:0:0:
336,196,32237,1,0,0:0:0:0:
224,288,32400,2,0,P|183:304|138:304,1,80.9999975280763,2|2,0:0|0:0,0:0:0:0:
40,255,32726,1,10,0:0:0:0:
242,199,32889,6,0,B|279:119|212:118|245:37,1,161.999995056153,2|0,0:0|0:0,0:0:0:0:
347,84,33378,2,0,P|391:88|432:80,1,80.9999975280763,2|0,0:0|0:0,0:0:0:0:
472,181,33704,2,0,P|428:177|387:185,1,80.9999975280763,2|0,0:0|0:0,0:0:0:0:
328,253,34030,2,0,P|328:293|339:332,1,80.9999975280763,2|0,0:0|0:0,0:0:0:0:
298,166,34357,6,0,P|269:137|233:118,1,80.9999975280763,2|0,0:0|0:0,0:0:0:0:
52,46,34683,2,0,P|52:86|63:125,1,80.9999975280763,10|0,0:0|0:0,0:0:0:0:
129,249,35009,1,2,0:0:0:0:
155,152,35172,1,2,0:0:0:0:
37,222,35335,1,2,0:0:0:0:
169,330,35498,6,0,P|201:303|217:266,1,80.9999975280763,2|0,0:0|0:0,0:0:0:0:
247,173,35824,1,2,0:0:0:0:
366,269,35987,2,0,P|407:268|443:250,1,80.9999975280763,2|0,0:0|0:0,0:0:0:0:
469,90,36313,6,0,B|398:73|388:125|314:113,1,148.50000453186,2|0,0:0|0:0,0:0:0:0:
244,92,36639,2,0,P|182:122|166:198,1,148.50000453186,8|0,0:0|0:0,0:0:0:0:
343,191,36965,6,0,P|341:151|316:101,1,80.9999975280763,6|0,0:0|0:0,0:0:0:0:
165,194,37291,2,0,P|167:234|192:284,1,80.9999975280763,2|0,0:0|0:0,0:0:0:0:
366,269,37617,1,2,0:0:0:0:
264,227,37780,1,2,0:0:0:0:
245,329,37943,1,2,0:0:0:0:
82,208,38107,6,0,P|84:170|183:116,1,161.999995056153,2|0,0:0|0:0,0:0:0:0:
343,191,38596,2,0,P|383:189|433:164,1,80.9999975280763,10|0,0:0|0:0,0:0:0:0:
375,34,38922,2,0,P|363:72|369:127,1,80.9999975280763,2|0,0:0|0:0,0:0:0:0:
261,185,39248,2,0,P|221:187|171:212,1,80.9999975280763,2|0,0:0|0:0,0:0:0:0:
322,347,39574,6,0,B|345:301|345:301|342:189,1,161.999995056153,2|2,0:0|0:0,0:0:0:0:
342,190,40063,1,0,0:0:0:0:
284,105,40226,2,0,P|252:80|197:67,1,80.9999975280763,2|0,0:0|0:0,0:0:0:0:
112,238,40552,2,0,P|150:226|182:201,1,80.9999975280763,8|0,0:0|0:0,0:0:0:0:
284,105,40878,5,2,0:0:0:0:
215,316,41041,2,0,P|242:286|258:249,1,80.9999975280763,8|2,0:0|0:0,0:0:0:0:
284,105,41367,1,0,0:0:0:0:
356,317,41530,1,10,0:0:0:0:
463,175,41693,1,8,0:0:0:0:
463,175,41775,1,8,0:0:0:0:
463,175,41857,1,8,0:0:0:0:
414,165,41938,1,8,0:0:0:0:
365,167,42020,1,8,0:0:0:0:
317,181,42101,1,8,0:0:0:0:
274,205,42183,6,0,P|215:234|112:226,1,148.50000453186,4|0,0:0|0:0,0:0:0:0:
88,212,42509,2,0,P|64:179|51:120,1,99.0000030212403,10|0,0:0|0:0,0:0:0:0:
218,17,42835,1,2,0:0:0:0:
274,205,42998,1,2,0:0:0:0:
440,97,43161,1,10,0:0:0:0:
229,143,43324,6,0,P|202:180|205:238,1,99.0000030212403,2|0,0:0|0:0,0:0:0:0:
294,342,43650,1,0,0:0:0:0:
448,218,43813,2,0,P|399:208|346:216,1,99.0000030212403,10|0,0:0|0:0,0:0:0:0:
189,329,44139,2,0,P|140:335|91:325,1,99.0000030212403,2|0,0:0|0:0,0:0:0:0:
38,134,44465,1,10,0:0:0:0:
202,231,44628,1,0,0:0:0:0:
401,123,44791,6,0,P|403:75|386:9,1,99.0000030212403,2|0,0:0|0:0,0:0:0:0:
196,42,45117,2,0,P|193:89|210:155,1,99.0000030212403,10|0,0:0|0:0,0:0:0:0:
311,305,45443,1,2,0:0:0:0:
136,208,45607,1,2,0:0:0:0:
328,209,45770,2,0,P|328:256|304:314,1,99.0000030212403,10|2,0:0|0:0,0:0:0:0:
112,302,46096,5,2,0:0:0:0:
203,139,46259,2,0,P|239:105|283:83,1,99.0000030212403,2|10,0:0|0:0,0:0:0:0:
477,120,46585,2,0,P|440:153|396:175,1,99.0000030212403,0|2,0:0|0:0,0:0:0:0:
213,250,46911,1,0,0:0:0:0:
129,70,47074,2,0,P|99:30|59:0,1,99.0000030212403,10|0,0:0|0:0,0:0:0:0:
73,256,47400,6,0,P|140:275|212:250,1,148.50000453186,6|0,0:0|0:0,0:0:0:0:
253,222,47726,2,0,P|296:203|349:200,1,99.0000030212403,8|0,0:0|0:0,0:0:0:0:
471,353,48052,2,0,P|425:339|383:308,1,99.0000030212403,2|0,0:0|0:0,0:0:0:0:
283,138,48378,1,8,0:0:0:0:
239,331,48541,1,0,0:0:0:0:
414,238,48704,6,0,P|422:192|395:140,1,99.0000030212403,6|0,0:0|0:0,0:0:0:0:
244,24,49030,1,8,0:0:0:0:
204,217,49193,1,0,0:0:0:0:
49,91,49357,2,0,P|83:59|139:39,1,99.0000030212403,2|0,0:0|0:0,0:0:0:0:
327,68,49683,2,0,P|293:100|237:120,1,99.0000030212403,8|0,0:0|0:0,0:0:0:0:
65,298,50009,6,0,P|127:287|234:315,1,148.50000453186,6|0,0:0|0:0,0:0:0:0:
255,323,50335,1,8,0:0:0:0:
447,276,50498,2,0,P|451:231|434:172,1,99.0000030212403,2|0,0:0|0:0,0:0:0:0:
244,118,50824,1,2,0:0:0:0:
328,296,50987,1,8,0:0:0:0:
408,115,51150,6,0,P|401:70|371:16,1,99.0000030212403,2|0,0:0|0:0,0:0:0:0:
244,118,51476,1,0,0:0:0:0:
244,118,51639,2,0,L|140:123,1,99.0000030212403,8|0,0:0|0:0,0:0:0:0:
57,234,51965,1,8,0:0:0:0:
80,232,52046,1,8,0:0:0:0:
105,231,52128,1,8,0:0:0:0:
130,229,52209,1,8,0:0:0:0:
154,228,52291,1,8,0:0:0:0:
179,226,52372,1,8,0:0:0:0:
204,226,52454,1,8,0:0:0:0:
229,224,52535,1,8,0:0:0:0:
253,223,52617,6,0,B|420:215|420:215|363:255,1,202.500007724762,4|0,0:0|0:0,0:0:0:0:
282,317,52943,2,0,B|115:325|115:325|172:285,1,202.500007724762,12|0,0:0|0:0,0:0:0:0:
259,227,53270,5,2,0:0:0:0:
183,37,53433,1,2,0:0:0:0:
62,193,53596,1,10,0:0:0:0:
244,115,53759,6,0,B|335:65|356:156|460:112,1,198.000006042481,2|0,0:0|0:0,0:0:0:0:
457,317,54248,2,0,P|434:269|433:211,1,99.0000030212403,10|0,0:0|0:0,0:0:0:0:
470,30,54574,1,2,0:0:0:0:
368,172,54737,1,0,0:0:0:0:
266,30,54900,1,10,0:0:0:0:
368,172,55063,1,0,0:0:0:0:
126,341,55226,6,0,P|63:280|145:258,1,202.500007724762,4|0,0:0|0:0,0:0:0:0:
256,342,55552,2,0,P|319:281|237:259,1,202.500007724762,12|0,0:0|0:0,0:0:0:0:
126,341,55878,5,2,0:0:0:0:
75,149,56041,1,2,0:0:0:0:
242,254,56204,1,10,0:0:0:0:
329,76,56367,6,0,P|429:45|471:123,1,198.000006042481
331,253,56857,1,10,0:0:0:0:
501,352,57020,2,0,L|499:282,1,49.5000015106202,8|8,0:0|0:0,0:0:0:0:
495,232,57183,1,8,0:0:0:0:
325,133,57346,2,0,L|327:203,1,49.5000015106202,8|8,0:0|0:0,0:0:0:0:
331,253,57509,1,8,0:0:0:0:
165,355,57672,1,8,0:0:0:0:
165,355,57753,1,8,0:0:0:0:
165,355,57835,6,0,B|332:363|332:363|275:323,1,202.500007724762,4|0,0:0|0:0,0:0:0:0:
194,261,58161,2,0,B|27:253|27:253|84:293,1,202.500007724762,12|0,0:0|0:0,0:0:0:0:
165,355,58487,5,2,0:0:0:0:
263,183,58650,1,2,0:0:0:0:
85,95,58813,1,10,0:0:0:0:
194,261,58976,6,0,P|299:280|362:209,1,198.000006042481,2|0,0:0|0:0,0:0:0:0:
448,45,59465,1,10,0:0:0:0:
480,240,59628,1,0,0:0:0:0:
331,108,59791,2,0,P|271:98|221:106,1,99.0000030212403,2|0,0:0|0:0,0:0:0:0:
96,266,60117,2,0,P|145:270|193:260,1,99.0000030212403,10|0,0:0|0:0,0:0:0:0:
380,196,60443,5,6,0:0:0:0:
264,358,60607,1,2,0:0:0:0:
194,172,60770,1,10,0:0:0:0:
359,280,60933,1,2,0:0:0:0:
447,103,61096,2,0,P|440:55|412:4,1,99.0000030212403,10|0,0:0|0:0,0:0:0:0:
220,33,61422,1,10,0:0:0:0:
356,176,61585,1,0,0:0:0:0:
194,289,61748,5,10,0:0:0:0:
282,111,61911,1,0,0:0:0:0:
86,144,62074,2,0,P|67:87|75:22,1,99.0000030212403,10|0,0:0|0:0,0:0:0:0:
282,111,62400,2,0,P|301:168|293:233,1,99.0000030212403,10|0,0:0|0:0,0:0:0:0:
105,324,62726,1,8,0:0:0:0:
123,307,62807,1,8,0:0:0:0:
144,295,62889,1,0,0:0:0:0:
168,288,62970,1,0,0:0:0:0:
193,288,63052,6,0,B|242:300|242:300|300:291,1,99.0000030212403,12|0,0:0|0:0,0:0:0:0:
396,231,63378,1,2,0:0:0:0:
213,83,63541,2,0,P|187:125|177:173,1,99.0000030212403,12|0,0:0|0:0,0:0:0:0:
193,288,63867,1,2,0:0:0:0:
396,231,64030,2,0,P|404:181|397:133,1,99.0000030212403,12|0,0:0|0:0,0:0:0:0:
111,263,64357,5,8,0:0:0:0:
111,263,64683,2,0,P|148:334|222:261,1,202.500007724762,4|0,0:0|0:0,0:0:0:0:
224,275,65009,2,0,B|208:216|245:171|245:171|280:209|328:220,1,202.500007724762,4|0,0:0|0:0,0:0:0:0:
322,218,65335,2,0,P|401:206|358:113,1,202.500007724762,4|0,0:0|0:0,0:0:0:0:
221,52,65661,6,0,P|116:52|61:151,1,215.999993408203,6|10,0:0|0:0,0:0:0:0:
88,290,66150,1,2,0:0:0:0:
271,223,66313,2,0,P|330:217|384:235,1,107.999996704102,2|0,0:0|0:0,0:0:0:0:
212,347,66639,1,10,0:0:0:0:
141,170,66802,1,0,0:0:0:0:
327,61,66965,6,0,P|292:102|235:132,1,107.999996704102,2|0,0:0|0:0,0:0:0:0:
59,237,67291,2,0,P|94:196|151:166,1,107.999996704102,10|0,0:0|0:0,0:0:0:0:
355,149,67617,1,2,0:0:0:0:
153,71,67780,1,0,0:0:0:0:
189,283,67943,1,10,0:0:0:0:
327,61,68107,1,0,0:0:0:0:
468,286,68270,6,0,P|416:325|316:326,1,161.999995056153,2|0,0:0|0:0,0:0:0:0:
270,311,68596,1,8,0:0:0:0:
355,149,68759,1,2,0:0:0:0:
153,71,68922,2,0,P|143:123|156:178,1,107.999996704102,2|0,0:0|0:0,0:0:0:0:
357,253,69248,2,0,P|367:201|354:146,1,107.999996704102,10|0,0:0|0:0,0:0:0:0:
73,190,69574,6,0,P|92:231|202:243,1,161.999995056153,2|0,0:0|0:0,0:0:0:0:
245,220,69900,1,10,0:0:0:0:
397,340,70063,1,0,0:0:0:0:
354,148,70226,2,0,P|358:94|392:32,1,107.999996704102,2|0,0:0|0:0,0:0:0:0:
433,232,70552,2,0,P|387:259|327:261,1,107.999996704102,10|0,0:0|0:0,0:0:0:0:
73,190,70878,6,0,P|72:85|165:54,1,215.999993408203,2|8,0:0|0:0,0:0:0:0:
354,148,71367,2,0,P|308:175|248:177,1,107.999996704102,2|0,0:0|0:0,0:0:0:0:
66,93,71693,1,0,0:0:0:0:
203,251,71857,2,0,P|199:304|172:350,1,107.999996704102,10|0,0:0|0:0,0:0:0:0:
66,93,72183,6,0,P|109:61|161:53,1,107.999996704102,2|0,0:0|0:0,0:0:0:0:
354,148,72509,2,0,P|308:175|248:177,1,107.999996704102,10|0,0:0|0:0,0:0:0:0:
455,30,72835,2,0,P|492:75|506:133,1,107.999996704102,2|0,0:0|0:0,0:0:0:0:
367,301,73161,2,0,P|330:256|316:198,1,107.999996704102,10|0,0:0|0:0,0:0:0:0:
66,93,73487,6,0,B|21:185|114:205|56:322,1,215.999993408203,2|8,0:0|0:0,0:0:0:0:
149,144,73976,1,2,0:0:0:0:
316,208,74139,2,0,P|369:210|419:192,1,107.999996704102,2|0,0:0|0:0,0:0:0:0:
261,73,74465,1,8,0:0:0:0:
162,322,74628,6,0,B|140:218|140:218|156:105,1,215.999993408203,2|0,0:0|0:0,0:0:0:0:
316,208,75117,1,10,0:0:0:0:
424,46,75280,1,0,0:0:0:0:
258,148,75443,2,0,P|232:202|245:254,1,107.999996704102,2|0,0:0|0:0,0:0:0:0:
419,327,75770,2,0,P|445:273|432:221,1,107.999996704102,10|0,0:0|0:0,0:0:0:0:
306,51,76096,6,0,B|212:9|195:102|76:48,1,215.999993408203,4|8,0:0|0:0,0:0:0:0:
258,148,76585,1,2,0:0:0:0:
146,307,76748,1,2,0:0:0:0:
327,236,76911,1,0,0:0:0:0:
129,203,77074,2,0,P|64:236|38:284,1,107.999996704102,10|0,0:0|0:0,0:0:0:0:
330,331,77400,6,0,P|395:298|421:250,1,107.999996704102,2|0,0:0|0:0,0:0:0:0:
431,76,77726,2,0,P|366:109|340:157,1,107.999996704102,10|0,0:0|0:0,0:0:0:0:
256,272,78052,2,0,P|194:233|172:183,1,107.999996704102,2|0,0:0|0:0,0:0:0:0:
104,39,78378,1,10,0:0:0:0:
45,224,78541,1,0,0:0:0:0:
240,137,78704,6,0,P|294:129|351:138,1,107.999996704102,2|0,0:0|0:0,0:0:0:0:
496,221,79030,1,10,0:0:0:0:
327,260,79193,1,2,0:0:0:0:
477,346,79357,1,2,0:0:0:0:
346,136,79520,1,2,0:0:0:0:
233,345,79683,1,10,0:0:0:0:
48,133,79846,6,0,P|139:142|202:245,1,215.999993408203,2|0,0:0|0:0,0:0:0:0:
44,347,80335,2,0,P|53:294|81:248,1,107.999996704102,10|0,0:0|0:0,0:0:0:0:
196,91,80661,1,2,0:0:0:0:
317,240,80824,1,0,0:0:0:0:
432,87,80987,2,0,P|385:64|325:65,1,107.999996704102,10|0,0:0|0:0,0:0:0:0:
255,303,81313,6,0,P|353:320|403:247,1,180,6|0,0:0|0:0,0:0:0:0:
478,148,81802,1,0,0:0:0:0:
317,240,81965,2,0,P|308:161|330:62,1,180,10|0,0:0|0:0,0:0:0:0:
225,163,82454,6,0,P|187:180|125:184,1,90,8|2,0:0|0:0,0:0:0:0:
103,42,82780,2,0,P|144:72|167:119,1,90,8|0,0:0|0:0,0:0:0:0:
202,259,83107,1,2,0:0:0:0:
418,228,83270,1,10,0:0:0:0:
254,334,83433,1,2,0:0:0:0:
366,153,83596,1,2,0:0:0:0:
349,345,83759,1,2,0:0:0:0:
271,142,83922,6,0,P|317:71|414:72,1,180,2|0,0:0|0:0,0:0:0:0:
313,225,84411,2,0,P|226:222|178:150,1,180,2|0,0:0|0:0,0:0:0:0:
256,192,84900,12,0,89058,0:0:0:0:
256,192,89139,6,0,P|311:204|362:191,1,107.999996704102,6|0,0:0|0:0,0:0:0:0:
189,99,89465,2,0,P|133:87|83:101,1,107.999996704102,10|0,0:0|0:0,0:0:0:0:
87,295,89791,2,0,P|138:308|191:296,1,107.999996704102,2|0,0:0|0:0,0:0:0:0:
360,191,90117,1,10,0:0:0:0:
259,357,90280,1,0,0:0:0:0:
278,163,90443,6,0,P|314:118|376:107,1,107.999996704102,2|0,0:0|0:0,0:0:0:0:
430,288,90770,1,10,0:0:0:0:
241,238,90933,1,0,0:0:0:0:
436,155,91096,1,2,0:0:0:0:
340,324,91259,1,0,0:0:0:0:
155,261,91422,2,0,P|158:206|200:161,1,107.999996704102,10|0,0:0|0:0,0:0:0:0:
347,51,91748,6,0,P|303:77|230:77,1,107.999996704102,2|0,0:0|0:0,0:0:0:0:
55,47,92074,2,0,P|104:33|174:52,1,107.999996704102,10|0,0:0|0:0,0:0:0:0:
304,172,92400,2,0,P|356:182|408:169,1,107.999996704102,2|0,0:0|0:0,0:0:0:0:
247,81,92726,1,10,0:0:0:0:
155,261,92889,1,0,0:0:0:0:
323,357,93052,6,0,P|350:311|355:258,1,107.999996704102,2|0,0:0|0:0,0:0:0:0:
186,161,93378,2,0,P|159:207|154:260,1,107.999996704102,10|0,0:0|0:0,0:0:0:0:
408,168,93704,1,2,0:0:0:0:
250,20,93867,1,2,0:0:0:0:
274,234,94030,1,10,0:0:0:0:
378,44,94193,1,2,0:0:0:0:
179,131,94357,6,0,P|126:140|75:127,1,107.999996704102,6|0,0:0|0:0,0:0:0:0:
250,20,94683,2,0,P|277:66|282:119,1,107.999996704102,10|0,0:0|0:0,0:0:0:0:
123,232,95009,2,0,P|113:284|127:336,1,107.999996704102,2|0,0:0|0:0,0:0:0:0:
321,336,95335,1,10,0:0:0:0:
213,173,95498,1,0,0:0:0:0:
391,51,95661,6,0,P|418:97|423:150,1,107.999996704102,2|0,0:0|0:0,0:0:0:0:
260,257,95987,1,10,0:0:0:0:
453,234,96150,1,0,0:0:0:0:
307,74,96313,1,2,0:0:0:0:
179,248,96476,1,0,0:0:0:0:
391,286,96639,1,10,0:0:0:0:
240,130,96802,1,0,0:0:0:0:
139,321,96965,6,0,P|105:284|103:217,1,107.999996704102,2|0,0:0|0:0,0:0:0:0:
175,49,97291,1,10,0:0:0:0:
257,225,97454,1,0,0:0:0:0:
427,92,97617,1,8,0:0:0:0:
186,130,97780,1,8,0:0:0:0:
213,130,97861,1,8,0:0:0:0:
240,130,97943,1,8,0:0:0:0:
328,311,98107,1,8,0:0:0:0:
355,311,98188,1,8,0:0:0:0:
382,311,98270,6,0,P|426:249|331:256,1,188.999994232178
216,323,98596,2,0,P|153:350|66:256,1,202.500007724762,4|0,0:0|0:0,0:0:0:0:
66,268,98922,2,0,B|75:232|99:215|99:215|142:186|153:127|88:73,1,202.500007724762,4|0,0:0|0:0,0:0:0:0:
109,94,99248,2,0,P|165:16|258:39,1,202.500007724762,4|0,0:0|0:0,0:0:0:0:
359,127,99574,5,2,0:0:0:0:
275,195,99737,1,0,0:0:0:0:
369,247,99900,2,0,P|414:236|453:199,1,90,2|2,0:0|0:0,0:0:0:0:
275,195,100226,2,0,P|230:206|191:243,2,90,2|2|0,0:0|0:0|0:0,0:0:0:0:
359,127,100715,1,2,0:0:0:0:
256,94,100878,6,0,P|217:68|193:20,2,90,2|2|0,0:0|0:0|0:0,0:0:0:0:
359,127,101367,1,2,0:0:0:0:
197,233,101530,2,0,P|176:274|179:328,1,90,2|2,0:0|0:0,0:0:0:0:
436,320,101857,5,4,0:0:0:0:
436,320,102020,1,4,0:0:0:0:
256,192,102183,12,0,108052,0:0:0:0:
