osu file format v14

[General]
AudioFilename: weeb.mp3
AudioLeadIn: 0
PreviewTime: 64601
Countdown: 0
SampleSet: Soft
StackLeniency: 0.4
Mode: 0
LetterboxInBreaks: 0
WidescreenStoryboard: 1

[Editor]
Bookmarks: 29765,108352
DistanceSpacing: 1
BeatDivisor: 4
GridSize: 4
TimelineZoom: 1

[Metadata]
Title:Yuki no Youni
TitleUnicode:雪のように
Artist:AKINO with bless4
ArtistUnicode:AKINO with bless4
Creator:Sotarks
Version:Akitoshi's Normal
Source:
Tags:akitoshi corinn electoz pkhg janpai [_Sc4v4ng3r_] Sc4v4ng3r appleeaterx Doormat Deppyforce davided kibbleru pentori kalibe hb24 fcl linada christmas
BeatmapID:1127616
BeatmapSetID:532165

[Difficulty]
HPDrainRate:4
CircleSize:3.3
OverallDifficulty:4
ApproachRate:5
SliderMultiplier:1.02
SliderTickRate:1

[Events]
//Background and Video events
0,0,"akitoshis diff.jpg",0,0
//Break Periods
//Storyboard Layer 0 (Background)
//Storyboard Layer 1 (Fail)
//Storyboard Layer 2 (Pass)
//Storyboard Layer 3 (Foreground)
//Storyboard Sound Samples

[TimingPoints]
444,326.086956521739,4,2,27,30,1,0
5335,-100,4,2,27,30,0,0
10063,-100,4,2,28,60,0,0
10226,-100,4,2,28,60,0,0
10878,-100,4,2,28,65,0,0
18704,-100,4,2,28,65,0,0
21313,-100,4,2,28,80,0,1
21395,-100,4,2,28,65,0,0
30770,-100,4,2,27,65,0,0
31096,-100,4,2,27,65,0,0
31422,-100,4,2,27,65,0,0
31748,-100,4,2,28,55,0,0
42183,-100,4,2,28,60,0,0
52617,-100,4,2,28,65,0,0
63052,-100,4,2,28,70,0,0
64683,-100,4,2,27,65,0,0
65009,-100,4,2,27,70,0,0
65335,-100,4,2,27,75,0,0
65661,-100,4,2,28,80,0,1
75117,-100,4,2,27,65,0,1
75443,-100,4,2,27,70,0,1
75770,-100,4,2,27,75,0,1
76096,-100,4,2,28,80,0,1
81313,-100,4,2,28,65,0,0
83922,-100,4,2,27,55,0,0
89139,-100,4,2,28,80,0,1
89221,-100,4,2,28,65,0,0
97291,-100,4,2,27,75,0,0
97617,-100,4,2,27,70,0,0
97943,-100,4,2,27,65,0,0
98596,-100,4,2,27,75,0,0
98922,-100,4,2,27,70,0,0
99248,-100,4,2,27,65,0,0
99574,-100,4,2,27,40,0,0
101857,-100,4,2,28,70,0,0
104791,-100,4,2,28,50,0,0
106748,-100,4,2,28,30,0,0
108052,-100,4,2,28,10,0,0

[Colours]
Combo1 : 255,192,0
Combo2 : 255,0,255
Combo3 : 255,128,0
Combo4 : 242,24,57

[HitObjects]
23,118,5335,5,0,0:0:0:0:
66,210,5661,2,0,P|113:260|256:131,1,306,2|0,0:0|0:0,0:0:0:0:
160,167,6965,6,0,P|242:244|360:121,1,306,2|0,0:0|0:0,0:0:0:0:
260,142,8270,6,0,P|342:219|460:96,1,306,2|0,0:0|0:0,0:0:0:0:
382,45,9574,6,0,B|336:41|336:41|286:60|286:60|229:54,1,153,2|2,0:0|0:0,0:0:0:0:
183,43,10226,1,6,0:0:0:0:
19,164,10878,6,0,P|8:235|108:324,1,204,6|8,0:0|0:0,0:0:0:0:
298,336,12183,1,6,0:0:0:0:
298,336,12346,2,0,L|410:328,1,102,8|8,3:0|3:0,0:0:0:0:
488,278,12998,1,4,3:0:0:0:
488,278,13161,1,4,3:0:0:0:
472,177,13487,6,0,P|437:143|332:135,1,153,6|8,0:0|0:0,0:0:0:0:
292,157,14139,1,8,0:0:0:0:
97,217,14791,1,6,0:0:0:0:
97,217,14954,2,0,L|96:101,1,102,0|0,3:0|3:0,0:0:0:0:
196,93,15607,2,0,L|195:152,2,51,0|8|0,3:0|3:0|0:0,0:0:0:0:
232,57,16096,6,0,P|296:64|357:179,1,204,6|0,0:0|3:0,0:0:0:0:
312,269,17074,1,8,3:0:0:0:
227,326,17400,2,0,L|54:320,1,153,6|8,0:0|3:0,0:0:0:0:
25,231,18215,1,8,3:0:0:0:
25,231,18378,1,8,3:0:0:0:
62,136,18704,6,0,L|168:134,1,102,6|0,0:0|0:0,0:0:0:0:
237,62,19357,2,0,L|343:60,1,102,6|0,0:0|0:0,0:0:0:0:
440,55,20009,1,6,0:0:0:0:
496,139,20335,1,2,0:0:0:0:
452,230,20661,2,0,B|406:257|406:257|353:253,1,102,6|2,0:0|0:0,0:0:0:0:
276,191,21313,6,0,P|227:175|178:186,2,102,6|8|2,0:0|0:0|0:0,0:0:0:0:
223,278,22291,1,8,0:0:0:0:
122,262,22617,2,0,P|88:214|88:161,1,102,2|8,0:0|0:0,0:0:0:0:
100,71,23270,2,0,L|171:68,1,51,2|0,0:0|0:0,0:0:0:0:
201,67,23596,1,8,0:0:0:0:
299,92,23922,6,0,P|320:134|312:203,2,102,2|8|2,0:0|0:0|0:0,0:0:0:0:
221,158,24900,1,8,0:0:0:0:
257,253,25226,2,0,P|304:276|365:264,1,102,2|8,0:0|0:0,0:0:0:0:
445,230,25878,2,0,L|440:164,1,51,2|0,0:0|0:0,0:0:0:0:
417,134,26204,2,0,L|412:68,1,51,8|0,0:0|0:0,0:0:0:0:
383,41,26530,6,0,P|344:27|273:41,1,102,6|8,0:0|0:0,0:0:0:0:
196,86,27183,1,2,0:0:0:0:
152,178,27509,1,8,0:0:0:0:
196,269,27835,2,0,P|235:283|306:269,1,102,2|8,0:0|0:0,0:0:0:0:
366,203,28487,2,0,L|426:201,1,51,2|0,0:0|0:0,0:0:0:0:
467,199,28813,1,8,0:0:0:0:
510,291,29139,6,0,P|480:336|420:353,1,102,2|8,0:0|0:0,0:0:0:0:
336,336,29791,2,0,L|275:335,1,51,2|8,0:0|0:0,0:0:0:0:
242,306,30117,2,0,L|181:305,1,51,8|8,0:0|0:0,0:0:0:0:
145,281,30443,1,8,0:0:0:0:
76,205,30770,2,0,P|67:154|92:95,2,102,6|6|6,0:1|0:1|0:1,0:0:0:0:
168,162,31748,6,0,B|309:174|309:174|372:146,1,204,6|2,0:0|0:0,0:0:0:0:
451,93,32726,1,8,0:0:0:0:
493,185,33052,2,0,L|484:291,2,102,2|2|2,0:0|0:0|0:0,0:0:0:0:
451,93,34030,1,8,0:0:0:0:
369,31,34357,6,0,P|319:19|257:33,1,102,2|8,0:0|0:0,0:0:0:0:
205,106,35009,2,0,P|155:118|93:104,1,102,2|8,0:0|0:0,0:0:0:0:
15,61,35661,2,0,P|3:112|21:168,1,102,0|8,0:0|0:0,0:0:0:0:
67,246,36313,1,2,0:0:0:0:
160,285,36639,1,2,0:0:0:0:
254,247,36965,6,0,B|333:243|333:243|378:265|378:265|452:259,1,204,6|2,0:0|0:0,0:0:0:0:
509,174,37943,1,8,0:0:0:0:
453,87,38270,2,0,P|405:69|353:78,1,102,0|8,0:0|0:0,0:0:0:0:
264,121,38922,2,0,P|216:139|164:130,1,102,2|8,0:0|0:0,0:0:0:0:
114,42,39574,6,0,P|63:126|105:215,1,204,2|2,0:0|0:0,0:0:0:0:
203,245,40552,1,8,0:0:0:0:
304,235,40878,2,0,L|354:228,2,51,2|8|0,0:0|0:0|0:0,0:0:0:0:
264,329,41530,1,2,0:0:0:0:
356,372,41857,1,8,0:0:0:0:
427,299,42183,6,0,P|450:262|450:196,1,102,2|8,0:0|0:0,0:0:0:0:
410,111,42835,2,0,P|373:88|307:88,1,102,2|8,0:0|0:0,0:0:0:0:
229,139,43487,2,0,P|213:89|231:28,2,102,2|8|2,0:0|0:0|0:0,0:0:0:0:
317,188,44465,1,8,0:0:0:0:
410,228,44791,6,0,B|423:279|423:279|412:337,1,102,2|8,0:0|0:0,0:0:0:0:
318,364,45443,2,0,P|270:372|209:345,1,102,2|8,0:0|0:0,0:0:0:0:
157,273,46096,2,0,P|149:225|176:164,1,102,2|8,0:0|0:0,0:0:0:0:
228,94,46748,1,2,0:0:0:0:
325,62,47074,1,2,0:0:0:0:
422,94,47400,6,0,L|424:205,1,102,6|8,0:0|0:0,0:0:0:0:
421,246,47889,2,0,P|384:273|320:273,1,102,2|2,0:0|0:0,0:0:0:0:
279,263,48378,1,8,0:0:0:0:
195,204,48704,2,0,B|147:188|147:188|78:197,1,102,2|8,0:0|0:0,0:0:0:0:
46,207,49193,2,0,P|34:260|53:325,1,102,2|2,0:0|0:0,0:0:0:0:
66,351,49683,1,8,0:0:0:0:
166,369,50009,6,0,L|281:364,1,102,6|8,0:0|0:0,0:0:0:0:
318,364,50498,1,2,0:0:0:0:
399,302,50824,1,2,0:0:0:0:
399,302,50987,2,0,L|395:239,1,51,8|0,0:0|0:0,0:0:0:0:
389,200,51313,2,0,P|339:187|274:211,1,102,2|2,0:0|0:0,0:0:0:0:
211,263,51965,2,0,L|149:261,1,51,8|8,0:0|0:0,0:0:0:0:
114,238,52291,2,0,L|52:236,1,51,8|8,0:0|0:0,0:0:0:0:
16,216,52617,6,0,P|5:165|29:107,1,102,6|8,0:0|0:0,0:0:0:0:
108,66,53270,2,0,L|107:13,2,51,2|0|8,0:0|0:0|0:0,0:0:0:0:
131,111,53759,2,0,B|183:121|183:121|240:112,1,102,0|0,3:0|0:0,0:0:0:0:
281,106,54248,1,8,0:0:0:0:
382,99,54574,2,0,L|384:158,1,51,2|0,0:0|0:0,0:0:0:0:
367,198,54900,2,0,L|369:257,1,51,8|0,0:0|0:0,0:0:0:0:
351,296,55226,6,0,P|309:324|242:323,1,102,2|8,0:0|0:0,0:0:0:0:
162,295,55878,2,0,L|101:298,2,51,2|0|8,0:0|0:0|0:0,0:0:0:0:
198,258,56367,2,0,B|211:207|211:207|200:145,1,102,0|0,3:0|0:0,0:0:0:0:
194,107,56857,1,8,0:0:0:0:
262,31,57183,2,0,L|321:30,1,51,2|8,0:0|0:0,0:0:0:0:
358,53,57509,2,0,L|417:52,1,51,8|0,0:0|0:0,0:0:0:0:
451,80,57835,6,0,P|476:127|464:192,1,102,2|8,0:0|0:0,0:0:0:0:
426,265,58487,2,0,L|433:321,2,51,2|0|8,0:0|0:0|0:0,0:0:0:0:
392,226,58976,2,0,B|342:216|342:216|279:223,1,102,0|0,3:0|0:0,0:0:0:0:
240,229,59465,1,8,0:0:0:0:
142,199,59791,2,0,L|139:144,1,51,2|0,0:0|0:0,0:0:0:0:
138,97,60117,1,8,0:0:0:0:
63,27,60443,6,0,P|45:55|41:128,1,102,12|8,0:0|0:0,0:0:0:0:
60,222,61096,1,8,0:0:0:0:
144,278,61422,1,8,0:0:0:0:
229,222,61748,2,0,L|353:214,1,102,8|8,0:0|0:0,0:0:0:0:
432,208,62400,2,0,P|456:251|456:321,1,102,8|8,0:0|0:0,0:0:0:0:
439,351,62889,1,8,0:0:0:0:
439,351,63052,6,0,B|391:360|391:360|330:353,1,102,6|0,0:0|0:0,0:0:0:0:
291,334,63541,2,0,P|242:322|176:336,1,102,6|0,0:0|0:0,0:0:0:0:
144,349,64030,1,2,0:0:0:0:
51,304,64357,1,6,0:0:0:0:
11,209,64683,2,0,P|8:163|39:106,2,102,6|6|6,2:1|2:1|2:1,0:0:0:0:
108,180,65661,6,0,L|222:171,1,102,6|8,0:0|0:0,0:0:0:0:
265,172,66150,1,0,0:0:0:0:
265,172,66313,2,0,P|299:205|311:267,1,102,2|8,0:0|0:0,0:0:0:0:
286,355,66965,2,0,P|340:354|387:325,1,102,2|8,0:0|0:0,0:0:0:0:
430,241,67617,2,0,L|426:179,1,51,2|2,0:0|0:0,0:0:0:0:
423,139,67943,1,8,0:0:0:0:
365,54,68270,6,0,B|314:39|314:39|253:39,1,102,2|8,0:0|0:0,0:0:0:0:
218,46,68759,1,0,0:0:0:0:
218,46,68922,2,0,P|190:87|193:154,1,102,2|8,0:0|0:0,0:0:0:0:
251,217,69574,2,0,P|207:237|145:230,1,102,2|8,0:0|0:0,0:0:0:0:
61,192,70226,1,2,0:0:0:0:
7,104,70552,1,8,0:0:0:0:
71,25,70878,6,0,L|181:22,1,102,2|8,0:0|0:0,0:0:0:0:
218,46,71367,2,0,L|328:43,1,102,0|2,0:0|0:0,0:0:0:0:
365,66,71857,1,8,0:0:0:0:
421,150,72183,2,0,P|437:199|420:258,1,102,2|8,0:0|0:0,0:0:0:0:
357,322,72835,1,2,0:0:0:0:
256,341,73161,1,8,0:0:0:0:
162,300,73487,6,0,L|165:191,1,102,2|8,0:0|0:0,0:0:0:0:
170,151,73976,1,0,0:0:0:0:
170,151,74139,2,0,P|121:132|63:145,1,102,2|8,0:0|0:0,0:0:0:0:
0,210,74791,1,2,0:0:0:0:
65,288,75117,2,0,P|114:307|172:294,2,102,6|6|6,0:1|0:1|0:1,0:0:0:0:
0,210,76096,6,0,L|6:89,1,102,6|8,0:0|0:0,0:0:0:0:
12,61,76585,1,0,0:0:0:0:
12,61,76748,2,0,P|53:46|116:60,1,102,2|8,0:0|0:0,0:0:0:0:
200,101,77400,2,0,P|241:116|304:102,1,102,2|8,0:0|0:0,0:0:0:0:
381,47,78052,1,2,0:0:0:0:
476,82,78378,1,8,0:0:0:0:
502,180,78704,6,0,B|505:232|505:232|474:284,1,102,2|8,0:0|0:0,0:0:0:0:
390,326,79357,2,0,L|394:376,2,51,2|2|8,0:0|0:0|0:0,0:0:0:0:
361,283,79846,2,0,P|318:263|244:267,1,102,0|0,0:0|0:0,0:0:0:0:
213,269,80335,1,8,0:0:0:0:
120,225,80661,2,0,L|129:112,1,102,2|8,0:0|0:0,0:0:0:0:
196,45,81313,6,0,P|245:32|305:47,1,102,6|2,0:0|0:0,0:0:0:0:
383,91,81965,1,8,0:0:0:0:
444,172,82291,2,0,L|442:230,1,51,2|8,0:0|0:0,0:0:0:0:
406,259,82617,2,0,L|404:317,1,51,2|8,0:0|0:0,0:0:0:0:
368,346,82943,1,2,0:0:0:0:
266,359,83270,2,0,P|214:352|168:314,1,102,8|2,0:0|0:0,0:0:0:0:
120,237,83922,5,4,0:1:0:0:
256,192,84085,12,0,88487,0:0:0:0:
293,232,89139,6,0,L|408:225,2,102,6|8|2,0:0|0:0|0:0,0:0:0:0:
191,230,90117,1,8,0:0:0:0:
107,171,90443,2,0,P|105:123|138:70,1,102,2|8,0:0|0:0,0:0:0:0:
222,33,91096,2,0,L|283:31,1,51,2|0,0:0|0:0,0:0:0:0:
323,30,91422,1,8,0:0:0:0:
403,92,91748,6,0,L|508:89,2,102,2|8|2,0:0|0:0|0:0,0:0:0:0:
303,115,92726,1,8,0:0:0:0:
229,185,93052,2,0,P|220:234|244:299,1,102,2|8,0:0|0:0,0:0:0:0:
303,358,93704,2,0,L|362:356,1,51,2|0,0:0|0:0,0:0:0:0:
390,320,94030,2,0,L|449:318,1,51,8|0,0:0|0:0,0:0:0:0:
477,281,94357,6,0,B|488:230|488:230|471:160,1,102,6|8,0:0|0:0,0:0:0:0:
431,90,95009,1,2,0:0:0:0:
338,47,95335,1,8,0:0:0:0:
245,90,95661,2,0,L|137:87,1,102,2|8,0:0|0:0,0:0:0:0:
41,82,96313,2,0,P|36:111|37:152,1,51,2|0,0:0|0:0,0:0:0:0:
41,183,96639,1,8,0:0:0:0:
108,259,96965,5,2,0:0:0:0:
200,300,97291,2,0,P|249:311|297:296,2,102,6|6|6,0:1|0:1|0:1,0:0:0:0:
246,209,98270,1,0,3:0:0:0:
346,223,98596,2,0,P|376:257|380:325,2,102,6|6|6,0:1|0:1|0:1,0:0:0:0:
246,209,99574,6,0,P|296:136|411:146,1,204,2|2,0:0|0:0,0:0:0:0:
465,220,100552,1,0,0:0:0:0:
506,126,100878,2,0,P|487:79|433:41,1,102,2|0,0:0|0:0,0:0:0:0:
347,30,101530,1,2,0:0:0:0:
253,62,101857,5,6,0:0:0:0:
253,62,102020,1,6,0:0:0:0:
256,192,102183,12,0,108052,0:0:0:0:
