osu file format v14

[General]
AudioFilename: weeb.mp3
AudioLeadIn: 0
PreviewTime: 64601
Countdown: 0
SampleSet: Soft
StackLeniency: 0.4
Mode: 0
LetterboxInBreaks: 0
WidescreenStoryboard: 0

[Editor]
Bookmarks: 29765,108352
DistanceSpacing: 0.8
BeatDivisor: 4
GridSize: 4
TimelineZoom: 1

[Metadata]
Title:Yuki no Youni
TitleUnicode:雪のように
Artist:AKINO with bless4
ArtistUnicode:AKINO with bless4
Creator:Sotarks
Version:Akitoshi's Extra
Source:
Tags:akitoshi corinn electoz pkhg janpai [_Sc4v4ng3r_] Sc4v4ng3r appleeaterx Doormat Deppyforce davided kibbleru pentori kalibe hb24 fcl linada christmas
BeatmapID:1127615
BeatmapSetID:532165

[Difficulty]
HPDrainRate:6
CircleSize:3.8
OverallDifficulty:8.2
ApproachRate:9.2
SliderMultiplier:1.8
SliderTickRate:1

[Events]
//Background and Video events
0,0,"akitoshis diff.jpg",0,0
//Break Periods
//Storyboard Layer 0 (Background)
//Storyboard Layer 1 (Fail)
//Storyboard Layer 2 (Pass)
//Storyboard Layer 3 (Foreground)
//Storyboard Sound Samples

[TimingPoints]
444,326.086956521739,4,2,27,30,1,0
5335,-200,4,2,27,30,0,0
10063,-200,4,2,28,60,0,0
10226,-133.333333333333,4,2,28,60,0,0
10878,-125,4,2,28,65,0,0
18704,-117.647058823529,4,2,28,65,0,0
21313,-111.111111111111,4,2,28,80,0,1
21395,-111.111111111111,4,2,28,65,0,0
30770,-86.9565217391304,4,2,27,65,0,0
31096,-105.263157894737,4,2,27,65,0,0
31422,-133.333333333333,4,2,27,65,0,0
31748,-125,4,2,28,55,0,0
42183,-117.647058823529,4,2,28,60,0,0
52617,-111.111111111111,4,2,28,65,0,0
63052,-104.712041884817,4,2,28,70,0,0
64683,-133.333333333333,4,2,27,65,0,0
65009,-105.263157894737,4,2,27,70,0,0
65335,-86.9565217391303,4,2,27,75,0,0
65661,-90.9090909090909,4,2,28,80,0,1
75117,-133.333333333333,4,2,27,65,0,1
75443,-105.263157894737,4,2,27,70,0,1
75770,-86.9565217391303,4,2,27,75,0,1
76096,-90.9090909090909,4,2,28,80,0,1
81313,-111.111111111111,4,2,28,65,0,0
83922,-166.666666666667,4,2,27,55,0,0
89139,-111.111111111111,4,2,28,80,0,1
89221,-111.111111111111,4,2,28,65,0,0
97291,-86.9565217391304,4,2,27,75,0,0
97617,-105.263157894737,4,2,27,70,0,0
97780,-105.263157894737,4,2,28,70,0,0
97943,-133.333333333333,4,2,27,65,0,0
98107,-133.333333333333,4,2,28,65,0,0
98270,-133.333333333333,4,2,27,65,0,0
98596,-86.9565217391304,4,2,27,75,0,0
98922,-105.263157894737,4,2,27,70,0,0
99248,-133.333333333333,4,2,27,65,0,0
99574,-181.818181818182,4,2,27,40,0,0
101857,-100,4,2,28,70,0,0
104791,-100,4,2,28,50,0,0
106748,-100,4,2,28,30,0,0
108052,-100,4,2,28,10,0,0

[Colours]
Combo1 : 255,192,0
Combo2 : 255,0,255
Combo3 : 255,128,0
Combo4 : 242,24,57

[HitObjects]
104,139,5335,5,0,0:0:0:0:
104,139,5661,6,0,B|194:147|194:147|273:106|273:106|378:117,1,270,2|0,0:0|0:0,0:0:0:0:
364,116,6965,6,0,B|336:172|357:212|357:212|379:262|362:314|306:306|271:265|322:229,1,270,2|0,0:0|0:0,0:0:0:0:
310,238,8270,6,0,B|142:180|232:313|45:258,1,270,2|0,0:0|0:0,0:0:0:0:
56,261,9574,6,0,L|74:114,1,135,2|2,0:0|0:0,0:0:0:0:
72,127,10145,1,2,0:0:0:0:
72,127,10226,1,6,0:0:0:0:
72,127,10878,6,0,P|149:155|250:72,1,216,6|0,0:0|0:0,0:0:0:0:
145,45,11530,1,8,0:0:0:0:
145,45,12183,5,6,0:0:0:0:
320,30,12346,2,0,L|329:133,1,72,8|0,3:0|0:0,0:0:0:0:
210,215,12672,2,0,L|201:112,1,72,8|0,3:0|0:0,0:0:0:0:
334,184,12998,1,4,3:0:0:0:
218,303,13161,1,4,3:0:0:0:
218,303,13487,6,0,P|151:274|71:309,1,144,6|0,0:0|0:0,0:0:0:0:
147,380,13976,1,8,0:0:0:0:
122,185,14139,1,8,0:0:0:0:
122,185,14791,5,6,0:0:0:0:
218,303,14954,2,0,P|292:299|361:239,1,144,0|0,3:0|3:0,0:0:0:0:
347,259,15362,1,0,3:0:0:0:
347,259,15443,1,0,3:0:0:0:
467,373,15607,1,8,0:0:0:0:
418,192,15770,1,8,3:0:0:0:
348,365,15933,1,8,3:0:0:0:
288,149,16096,6,0,B|238:131|187:162|187:162|130:196|67:159,1,216,6|0,0:0|0:0,0:0:0:0:
108,17,16748,2,0,P|128:47|130:83,1,72,0|0,3:0|0:0,0:0:0:0:
66,258,17074,1,8,3:0:0:0:
66,258,17400,6,0,B|160:270|160:270|231:242,1,144,6|0,0:0|0:0,0:0:0:0:
327,189,17889,1,8,3:0:0:0:
235,335,18052,1,0,0:0:0:0:
155,181,18215,1,8,3:0:0:0:
327,189,18378,1,8,3:0:0:0:
327,189,18704,5,6,0:0:0:0:
197,59,19030,1,0,0:0:0:0:
66,189,19357,1,6,0:0:0:0:
195,318,19683,1,0,0:0:0:0:
346,186,20009,5,6,0:0:0:0:
70,295,20172,1,0,0:0:0:0:
362,337,20335,1,6,0:0:0:0:
124,153,20498,1,0,0:0:0:0:
332,190,20661,5,6,0:0:0:0:
86,289,20824,1,0,0:0:0:0:
348,327,20987,1,6,0:0:0:0:
134,161,21150,1,0,0:0:0:0:
352,87,21313,6,0,P|411:136|422:233,1,161.999995056153,6|8,0:0|0:0,0:0:0:0:
317,194,21802,1,0,0:0:0:0:
408,307,21965,2,0,P|446:307|492:281,1,80.9999975280763,2|0,0:0|0:0,0:0:0:0:
317,194,22291,2,0,P|279:194|233:220,1,80.9999975280763,8|0,0:0|0:0,0:0:0:0:
70,288,22617,6,0,B|58:180|58:180|90:127,1,161.999995056153,2|8,0:0|0:0,0:0:0:0:
162,39,23107,1,0,0:0:0:0:
139,199,23270,1,2,0:0:0:0:
11,98,23433,1,0,0:0:0:0:
162,39,23596,2,0,L|275:33,1,80.9999975280763,8|0,0:0|0:0,0:0:0:0:
403,112,23922,6,0,P|429:156|404:268,1,161.999995056153,2|8,0:0|0:0,0:0:0:0:
320,342,24411,1,0,0:0:0:0:
174,219,24574,2,0,B|218:186|218:186|325:191,1,161.999995056153,2|8,0:0|0:0,0:0:0:0:
248,285,25063,1,0,0:0:0:0:
157,132,25226,6,0,P|191:109|251:110,1,80.9999975280763,2|0,0:0|0:0,0:0:0:0:
403,112,25552,1,8,0:0:0:0:
325,191,25715,1,0,0:0:0:0:
316,4,25878,2,0,L|204:2,1,80.9999975280763,2|0,0:0|0:0,0:0:0:0:
325,191,26204,2,0,L|437:189,1,80.9999975280763,8|0,0:0|0:0,0:0:0:0:
229,104,26530,6,0,B|170:103|170:103|129:116|129:116|51:114,1,161.999995056153,6|8,0:0|0:0,0:0:0:0:
109,3,27020,1,0,0:0:0:0:
310,85,27183,2,0,P|303:143|213:187,1,161.999995056153,2|8,0:0|0:0,0:0:0:0:
96,192,27672,1,0,0:0:0:0:
229,104,27835,6,0,B|244:153|244:153|236:269,1,161.999995056153,2|8,0:0|0:0,0:0:0:0:
172,376,28324,1,0,0:0:0:0:
318,329,28487,2,0,P|336:294|337:237,1,80.9999975280763,2|0,0:0|0:0,0:0:0:0:
229,104,28813,1,8,0:0:0:0:
236,263,28976,1,0,0:0:0:0:
361,104,29139,6,0,L|466:98,1,80.9999975280763,2|0,0:0|0:0,0:0:0:0:
229,104,29465,2,0,L|124:98,1,80.9999975280763,8|0,0:0|0:0,0:0:0:0:
164,301,29791,1,2,0:0:0:0:
50,95,29954,1,8,0:0:0:0:
35,70,30036,1,8,0:0:0:0:
21,45,30117,1,8,0:0:0:0:
214,79,30280,1,8,0:0:0:0:
229,104,30362,1,8,0:0:0:0:
243,129,30443,1,8,0:0:0:0:
243,129,30770,6,0,P|284:96|387:103,1,155.250002961159,6|0,0:1|0:0,0:0:0:0:
454,124,31096,6,0,P|390:126|339:163,1,128.249996575356,6|0,0:1|0:0,0:0:0:0:
281,203,31422,6,0,P|340:204|391:235,1,101.250003862381,6|0,0:1|0:0,0:0:0:0:
379,298,31748,6,0,B|302:303|302:303|238:263,1,144,6|2,0:0|0:0,0:0:0:0:
153,186,32237,1,0,0:0:0:0:
46,246,32400,2,0,P|39:281|48:324,1,72,2|0,0:0|0:0,0:0:0:0:
153,186,32726,2,0,P|160:151|151:108,1,72,8|0,0:0|0:0,0:0:0:0:
241,29,33052,6,0,P|316:27|402:21,1,144,2|2,0:0|0:0,0:0:0:0:
499,64,33541,1,0,0:0:0:0:
417,155,33704,2,0,B|409:190|409:190|415:243,1,72,2|0,0:0|0:0,0:0:0:0:
311,294,34030,2,0,B|319:259|319:259|313:206,1,72,8|0,0:0|0:0,0:0:0:0:
281,104,34357,6,0,L|198:103,1,72,2|0,0:0|0:0,0:0:0:0:
36,95,34683,1,8,0:0:0:0:
118,4,34846,1,0,0:0:0:0:
118,126,35009,2,0,P|137:164|167:187,1,72,2|0,0:0|0:0,0:0:0:0:
281,104,35335,1,2,0:0:0:0:
234,246,35498,6,0,P|166:281|84:246,1,144
161,111,35987,2,0,L|159:183,1,72,8|0,0:0|0:0,0:0:0:0:
225,350,36313,2,0,B|260:354|260:354|309:351,1,72,2|0,0:0|0:0,0:0:0:0:
386,179,36639,2,0,B|351:175|351:175|302:178,1,72,10|0,0:0|0:0,0:0:0:0:
485,232,36965,6,0,P|496:155|448:86,1,144,6|2,0:0|0:0,0:0:0:0:
349,59,37454,1,0,0:0:0:0:
314,177,37617,2,0,L|233:172,1,72,2|0,0:0|0:0,0:0:0:0:
120,161,37943,1,2,0:0:0:0:
212,302,38107,6,0,B|251:254|251:254|242:165,1,144
156,22,38596,1,8,0:0:0:0:
120,161,38759,1,0,0:0:0:0:
258,84,38922,2,0,L|355:81,1,72,2|0,0:0|0:0,0:0:0:0:
424,208,39248,2,0,L|327:211,1,72,8|0,0:0|0:0,0:0:0:0:
505,248,39574,6,0,P|508:178|462:125,2,144,2|2|2,0:0|0:0|0:0,0:0:0:0:
447,357,40389,1,0,0:0:0:0:
352,210,40552,2,0,B|346:174|346:174|350:138,1,72,8|0,0:0|0:0,0:0:0:0:
386,21,40878,5,2,0:0:0:0:
238,79,41041,2,0,B|185:81|185:81|150:66|150:66|97:68,1,144,8|0,0:0|0:0,0:0:0:0:
1,145,41530,1,2,0:0:0:0:
97,220,41693,1,0,3:0:0:0:
114,238,41775,1,0,3:0:0:0:
131,255,41857,2,0,L|265:248,1,108,8|0,0:0|0:0,0:0:0:0:
265,247,42183,6,0,B|269:196|269:196|254:148|254:148|258:89,1,153.000002918243,2|8,0:0|0:0,0:0:0:0:
365,23,42672,1,0,0:0:0:0:
474,93,42835,2,0,P|490:132|483:177,1,76.5000014591217,2|0,0:0|0:0,0:0:0:0:
373,268,43161,1,8,0:0:0:0:
409,143,43324,1,0,0:0:0:0:
262,169,43487,6,0,P|180:172|116:108,1,153.000002918243,2|8,0:0|0:0,0:0:0:0:
218,68,43976,1,0,0:0:0:0:
65,68,44139,2,0,P|45:97|45:161,1,76.5000014591217,2|0,0:0|0:0,0:0:0:0:
120,266,44465,1,8,0:0:0:0:
127,129,44628,1,0,0:0:0:0:
223,248,44791,6,0,B|274:250|274:250|315:233|315:233|376:236,1,153.000002918243,2|8,0:0|0:0,0:0:0:0:
502,243,45280,1,0,0:0:0:0:
421,140,45443,2,0,P|385:129|341:133,1,76.5000014591217,2|0,0:0|0:0,0:0:0:0:
223,248,45770,1,8,0:0:0:0:
205,96,45933,1,0,0:0:0:0:
76,179,46096,6,0,B|70:216|70:216|82:273,1,76.5000014591217,2|0,0:0|0:0,0:0:0:0:
212,326,46422,1,8,0:0:0:0:
215,172,46585,1,0,0:0:0:0:
118,337,46748,2,0,P|82:346|35:336,1,76.5000014591217,2|0,0:0|0:0,0:0:0:0:
215,172,47074,2,0,P|251:163|298:173,1,76.5000014591217,2|0,0:0|0:0,0:0:0:0:
495,226,47400,6,0,L|482:50,1,153.000002918243,6|8,0:0|0:0,0:0:0:0:
337,28,47889,2,0,P|298:21|248:30,1,76.5000014591217,2|0,0:0|0:0,0:0:0:0:
289,169,48215,1,2,0:0:0:0:
151,100,48378,2,0,L|154:3,1,76.5000014591217,8|0,0:0|0:0,0:0:0:0:
289,169,48704,6,0,L|294:333,1,153.000002918243,2|8,0:0|0:0,0:0:0:0:
381,196,49193,2,0,P|384:148|365:109,1,76.5000014591217,2|0,0:0|0:0,0:0:0:0:
262,25,49520,1,2,0:0:0:0:
162,188,49683,2,0,L|69:187,1,76.5000014591217,8|0,0:0|0:0,0:0:0:0:
217,322,50009,6,0,L|310:321,1,76.5000014591217,6|0,0:0|0:0,0:0:0:0:
454,319,50335,1,8,0:0:0:0:
327,220,50498,2,0,P|288:215|237:230,1,76.5000014591217,2|0,0:0|0:0,0:0:0:0:
112,302,50824,1,2,0:0:0:0:
61,164,50987,2,0,L|67:65,1,76.5000014591217,8|0,0:0|0:0,0:0:0:0:
250,14,51313,6,0,L|256:113,1,76.5000014591217,2|0,0:0|0:0,0:0:0:0:
262,258,51639,1,2,0:0:0:0:
351,115,51802,1,8,0:0:0:0:
193,174,51965,1,8,0:0:0:0:
159,180,52046,1,8,0:0:0:0:
125,178,52128,1,8,0:0:0:0:
92,167,52209,1,8,0:0:0:0:
67,143,52291,1,8,0:0:0:0:
55,110,52373,1,8,0:0:0:0:
55,75,52454,1,8,0:0:0:0:
73,45,52536,1,8,0:0:0:0:
107,32,52617,6,0,L|251:24,1,121.499996292114,6|0,0:0|0:0,0:0:0:0:
305,16,52943,2,0,P|322:58|318:107,1,80.9999975280763,8|0,0:0|0:0,0:0:0:0:
217,294,53270,1,2,0:0:0:0:
417,201,53433,1,0,0:0:0:0:
199,158,53596,1,8,0:0:0:0:
388,348,53759,6,0,B|423:315|423:315|417:190,1,161.999995056153,0|0,3:0|0:0,0:0:0:0:
227,78,54248,1,8,0:0:0:0:
408,47,54411,1,0,0:0:0:0:
313,257,54574,1,2,0:0:0:0:
317,62,54737,1,0,0:0:0:0:
148,249,54900,1,8,0:0:0:0:
154,54,55063,1,0,0:0:0:0:
298,176,55226,6,0,P|353:172|417:117,1,121.499996292114,2|0,0:0|0:0,0:0:0:0:
445,67,55552,2,0,P|476:99|483:148,1,80.9999975280763,8|0,0:0|0:0,0:0:0:0:
454,341,55878,1,2,0:0:0:0:
406,135,56041,1,0,0:0:0:0:
296,351,56204,1,8,0:0:0:0:
239,114,56367,6,0,B|130:103|130:103|53:126,1,161.999995056153,0|0,3:0|0:0,0:0:0:0:
148,266,56857,1,8,0:0:0:0:
326,169,57020,1,8,0:0:0:0:
354,154,57101,1,8,0:0:0:0:
383,139,57183,1,2,0:0:0:0:
432,315,57346,1,8,0:0:0:0:
404,330,57427,1,8,0:0:0:0:
375,346,57509,2,0,P|337:355|286:349,1,80.9999975280763,8|0,0:0|0:0,0:0:0:0:
169,191,57835,6,0,L|171:61,1,121.499996292114,2|0,0:0|0:0,0:0:0:0:
232,22,58161,2,0,P|272:18|311:28,1,80.9999975280763,8|0,0:0|0:0,0:0:0:0:
472,164,58487,1,2,0:0:0:0:
265,122,58650,1,0,0:0:0:0:
454,29,58813,1,8,0:0:0:0:
337,260,58976,6,0,P|253:263|155:265,1,161.999995056153,0|0,3:0|0:0,0:0:0:0:
12,130,59465,2,0,P|7:90|29:47,1,80.9999975280763,8|0,0:0|0:0,0:0:0:0:
233,44,59791,1,2,0:0:0:0:
93,198,59954,1,0,0:0:0:0:
327,181,60117,2,0,B|341:220|341:220|336:269,1,80.9999975280763,8|0,0:0|0:0,0:0:0:0:
103,332,60443,5,12,0:0:0:0:
201,131,60607,1,2,0:0:0:0:
224,376,60770,1,8,0:0:0:0:
91,197,60933,1,2,0:0:0:0:
338,259,61096,5,8,0:0:0:0:
252,45,61259,1,2,0:0:0:0:
195,294,61422,1,8,0:0:0:0:
347,119,61585,1,2,0:0:0:0:
88,66,61748,5,8,0:0:0:0:
256,245,61911,1,2,0:0:0:0:
0,199,62074,1,8,0:0:0:0:
225,90,62237,1,2,0:0:0:0:
85,329,62400,5,8,0:0:0:0:
88,66,62563,1,2,0:0:0:0:
256,245,62726,1,8,0:0:0:0:
293,261,62808,1,8,0:0:0:0:
332,268,62889,1,8,0:0:0:0:
372,266,62971,1,8,0:0:0:0:
411,248,63052,6,0,B|419:127|419:127|391:45,1,171.899996917992,6|0,0:0|0:0,0:0:0:0:
152,16,63541,2,0,B|144:137|144:137|172:219,1,171.899996917992,6|0,0:0|0:0,0:0:0:0:
327,261,64030,2,0,P|371:259|422:242,1,85.9499984589958,2|0,0:0|0:0,0:0:0:0:
160,184,64357,2,0,L|51:176,1,85.9499984589958,6|0,0:0|0:0,0:0:0:0:
302,85,64683,6,0,L|427:76,1,101.250003862381,6|0,2:1|0:0,0:0:0:0:
482,120,65009,6,0,P|504:179|472:255,1,128.249996575356,6|0,2:1|0:0,0:0:0:0:
419,329,65335,6,0,B|392:279|392:279|406:182,1,155.250002961159,6|0,2:1|0:0,0:0:0:0:
497,314,65661,6,0,P|407:308|263:301,1,198.000006042481,6|8,0:0|0:0,0:0:0:0:
88,306,66150,1,0,0:0:0:0:
257,177,66313,1,2,0:0:0:0:
196,383,66476,1,2,0:0:0:0:
125,180,66639,2,0,P|110:135|133:62,1,99.0000030212403,8|0,0:0|0:0,0:0:0:0:
373,77,66965,6,0,B|334:134|334:134|205:125,1,198.000006042481,2|8,0:0|0:0,0:0:0:0:
8,107,67454,1,0,0:0:0:0:
206,17,67617,1,2,0:0:0:0:
187,233,67780,1,2,0:0:0:0:
8,107,67943,2,0,L|12:8,1,99.0000030212403,8|0,0:0|0:0,0:0:0:0:
205,125,68270,6,0,L|192:327,1,198.000006042481,2|8,0:0|0:0,0:0:0:0:
68,208,68759,1,0,0:0:0:0:
165,35,68922,2,0,P|215:26|273:55,1,99.0000030212403,2|2,0:0|0:0,0:0:0:0:
335,246,69248,1,8,0:0:0:0:
205,125,69411,1,0,0:0:0:0:
409,50,69574,6,0,L|509:44,1,99.0000030212403,2|0,0:0|0:0,0:0:0:0:
301,123,69900,2,0,P|250:134|179:110,1,99.0000030212403,8|0,0:0|0:0,0:0:0:0:
52,32,70226,2,0,P|102:20|173:44,1,99.0000030212403,2|2,0:0|0:0,0:0:0:0:
226,233,70552,1,8,0:0:0:0:
101,135,70715,1,0,0:0:0:0:
301,123,70878,6,0,B|365:120|365:120|432:145|432:145|497:141,1,198.000006042481,2|8,0:0|0:0,0:0:0:0:
297,7,71367,2,0,P|231:32|191:152,1,198.000006042481,0|2,0:0|0:0,0:0:0:0:
361,310,71857,1,8,0:0:0:0:
301,123,72020,1,0,0:0:0:0:
136,265,72183,6,0,P|87:276|24:258,1,99.0000030212403,2|0,0:0|0:0,0:0:0:0:
107,65,72509,2,0,P|156:54|219:72,1,99.0000030212403,8|0,0:0|0:0,0:0:0:0:
315,284,72835,2,0,B|449:297|449:297|514:268,1,198.000006042481,2|8,0:0|0:0,0:0:0:0:
411,109,73324,1,0,0:0:0:0:
202,241,73487,6,0,P|194:287|209:343,1,99.0000030212403,2|0,0:0|0:0,0:0:0:0:
415,205,73813,2,0,P|423:159|408:103,1,99.0000030212403,8|0,0:0|0:0,0:0:0:0:
216,10,74139,1,2,0:0:0:0:
309,162,74302,1,2,0:0:0:0:
114,63,74465,2,0,B|67:57|67:57|12:63,1,99.0000030212403,8|0,0:0|0:0,0:0:0:0:
15,230,74791,2,0,B|62:236|62:236|117:230,1,99.0000030212403,2|0,0:0|0:0,0:0:0:0:
268,242,75117,6,0,P|283:289|268:343,1,101.250003862381,6|0,0:1|0:0,0:0:0:0:
195,293,75443,6,0,L|356:284,1,128.249996575356,6|0,0:1|0:0,0:0:0:0:
415,248,75770,6,0,B|421:142|421:142|384:98,1,155.250002961159,6|0,0:1|0:0,0:0:0:0:
337,19,76096,6,0,P|295:70|332:187,1,198.000006042481,6|8,0:0|0:0,0:0:0:0:
492,300,76585,1,0,0:0:0:0:
274,289,76748,1,2,0:0:0:0:
389,104,76911,1,2,0:0:0:0:
400,341,77074,2,0,P|360:359|285:355,1,99.0000030212403,8|0,0:0|0:0,0:0:0:0:
123,241,77400,6,0,L|128:130,1,99.0000030212403,2|0,0:0|0:0,0:0:0:0:
261,24,77726,2,0,L|266:135,1,99.0000030212403,8|0,0:0|0:0,0:0:0:0:
408,259,78052,2,0,P|464:263|521:232,1,99.0000030212403,2|2,0:0|0:0,0:0:0:0:
360,110,78378,2,0,P|304:106|247:137,1,99.0000030212403,8|0,0:0|0:0,0:0:0:0:
144,295,78704,6,0,B|123:241|123:241|130:92,1,198.000006042481,2|8,0:0|0:0,0:0:0:0:
237,222,79193,1,0,0:0:0:0:
12,85,79357,1,2,0:0:0:0:
260,76,79520,1,2,0:0:0:0:
144,295,79683,1,8,0:0:0:0:
134,8,79846,1,0,0:0:0:0:
387,143,80009,6,0,P|456:119|470:7,1,198.000006042481,2|8,0:0|0:0,0:0:0:0:
212,18,80498,1,0,0:0:0:0:
343,227,80661,2,0,P|398:234|460:219,1,99.0000030212403,2|2,0:0|0:0,0:0:0:0:
396,55,80987,1,8,0:0:0:0:
396,55,81313,6,0,L|224:52,1,161.999995056153,6|2,0:0|0:0,0:0:0:0:
88,48,81802,1,0,0:0:0:0:
176,202,81965,2,0,B|181:243|181:243|170:300,1,80.9999975280763,8|0,0:0|0:0,0:0:0:0:
35,234,82291,1,2,0:0:0:0:
161,86,82454,1,8,0:0:0:0:
173,281,82617,5,2,0:0:0:0:
51,129,82780,1,8,0:0:0:0:
234,124,82943,2,0,L|329:117,1,80.9999975280763,2|0,0:0|0:0,0:0:0:0:
493,109,83270,1,8,0:0:0:0:
386,35,83433,1,0,0:0:0:0:
421,192,83596,1,2,0:0:0:0:
314,118,83759,1,0,0:0:0:0:
318,295,83922,6,0,B|263:321|216:299|216:299|165:277|112:312|112:312|55:286|56:208|107:149|183:190,1,431.999986816407,4|2,0:1|0:0,0:0:0:0:
256,192,85308,12,0,88976,0:0:0:0:
74,167,89139,6,0,B|115:154|151:177|151:177|185:204|251:188,1,161.999995056153,6|8,0:0|0:0,0:0:0:0:
357,176,89628,1,0,0:0:0:0:
244,22,89791,2,0,P|218:52|209:92,1,80.9999975280763,2|0,0:0|0:0,0:0:0:0:
357,176,90117,2,0,P|382:145|391:105,1,80.9999975280763,8|0,0:0|0:0,0:0:0:0:
227,192,90443,6,0,P|232:270|240:356,1,161.999995056153,2|8,0:0|0:0,0:0:0:0:
326,235,90933,1,0,0:0:0:0:
135,271,91096,1,2,0:0:0:0:
200,87,91259,1,0,0:0:0:0:
326,235,91422,2,0,L|426:232,1,80.9999975280763,8|0,0:0|0:0,0:0:0:0:
280,85,91748,6,0,L|115:88,1,161.999995056153,2|8,0:0|0:0,0:0:0:0:
205,204,92237,1,0,0:0:0:0:
35,148,92400,2,0,P|16:76|70:-2,1,161.999995056153,2|8,0:0|0:0,0:0:0:0:
118,87,92889,1,0,0:0:0:0:
86,262,93052,6,0,L|-7:267,1,80.9999975280763,2|0,0:0|0:0,0:0:0:0:
166,342,93378,1,8,0:0:0:0:
117,170,93541,1,0,0:0:0:0:
307,207,93704,2,0,L|393:202,1,80.9999975280763,2|0,0:0|0:0,0:0:0:0:
272,45,94030,2,0,L|191:40,1,80.9999975280763,8|0,0:0|0:0,0:0:0:0:
20,191,94357,6,0,P|5:255|78:353,1,161.999995056153,6|8,0:0|0:0,0:0:0:0:
196,378,94846,1,0,0:0:0:0:
278,247,95009,2,0,B|235:234|235:234|119:246,1,161.999995056153,2|8,0:0|0:0,0:0:0:0:
196,378,95498,1,0,0:0:0:0:
361,276,95661,6,0,P|365:233|345:192,1,80.9999975280763,2|0,0:0|0:0,0:0:0:0:
178,108,95987,1,8,0:0:0:0:
278,247,96150,1,0,0:0:0:0:
327,34,96313,1,2,0:0:0:0:
190,204,96476,1,0,0:0:0:0:
386,108,96639,2,0,L|472:104,1,80.9999975280763,8|0,0:0|0:0,0:0:0:0:
190,204,96965,6,0,L|104:200,1,80.9999975280763,2|0,0:0|0:0,0:0:0:0:
228,30,97291,2,0,P|275:84|261:185,1,155.250002961159,6|0,0:1|0:0,0:0:0:0:
190,204,97617,1,6,0:1:0:0:
327,305,97780,1,8,0:0:0:0:
351,329,97862,1,8,0:0:0:0:
374,352,97943,1,6,0:1:0:0:
437,179,98107,1,8,0:0:0:0:
413,155,98189,1,8,0:0:0:0:
390,132,98270,1,6,0:1:0:0:
390,132,98596,6,0,B|329:127|329:127|293:143|293:143|226:136,1,155.250002961159,6|0,0:1|0:0,0:0:0:0:
153,127,98922,6,0,P|113:165|116:245,1,128.249996575356,6|0,0:1|0:0,0:0:0:0:
157,301,99248,6,0,P|111:315|51:289,1,101.250003862381,6|0,0:1|0:0,0:0:0:0:
14,234,99574,6,0,L|18:166,1,49.5000015106202,2|0,0:0|0:0,0:0:0:0:
107,184,99900,2,0,L|111:252,1,49.5000015106202
157,301,100226,1,2,0:0:0:0:
233,334,100389,1,0,0:0:0:0:
311,308,100552,1,0,0:0:0:0:
350,235,100715,1,0,0:0:0:0:
233,334,100878,6,0,L|239:391,1,49.5000015106202,2|0,0:0|0:0,0:0:0:0:
350,235,101204,2,0,L|356:178,1,49.5000015106202
252,65,101530,1,2,0:0:0:0:
367,69,101693,1,0,0:0:0:0:
196,152,101857,5,6,0:0:0:0:
473,23,102020,1,6,0:0:0:0:
256,192,102101,12,0,108052,0:0:0:0:
