osu file format v14

[General]
AudioFilename: audio.mp3
AudioLeadIn: 0
PreviewTime: 65550
Countdown: 0
SampleSet: Soft
StackLeniency: 0.7
Mode: 3
LetterboxInBreaks: 0
SpecialStyle: 0
WidescreenStoryboard: 0

[Editor]
DistanceSpacing: 0.5
BeatDivisor: 4
GridSize: 32
TimelineZoom: 3.099999

[Metadata]
Title:Yuki no Youni
TitleUnicode:雪のように
Artist:AKINO with bless4
ArtistUnicode:AKINO with bless4
Creator:Maxus
Version:Dell's 5K Hard
Source:
Tags:2nd album decennia short ver Critical_Star Dellvangel
BeatmapID:1126818
BeatmapSetID:531713

[Difficulty]
HPDrainRate:8
CircleSize:5
OverallDifficulty:8
ApproachRate:5
SliderMultiplier:1.4
SliderTickRate:1

[Events]
//Background and Video events
0,0,"20161122235555.jpg",0,0
//Break Periods
//Storyboard Layer 0 (Background)
//Storyboard Layer 1 (Fail)
//Storyboard Layer 2 (Pass)
//Storyboard Layer 3 (Foreground)
//Storyboard Sound Samples

[TimingPoints]
1311,326.086956521739,4,2,1,40,1,0
10930,-100,4,2,1,50,0,0
66528,-100,4,2,1,50,0,1
75495,-100,4,2,1,50,0,0
76963,-100,4,2,1,50,0,1
82180,-100,4,2,1,50,0,0

[HitObjects]
460,192,1311,5,0,0:0:0:0:
256,192,1474,1,0,0:0:0:0:
51,192,1637,1,0,0:0:0:0:
358,192,1800,1,0,0:0:0:0:
153,192,1963,1,0,0:0:0:0:
256,192,2126,1,0,0:0:0:0:
460,192,2289,1,0,0:0:0:0:
51,192,2452,1,0,0:0:0:0:
153,192,2615,1,0,0:0:0:0:
358,192,2778,1,0,0:0:0:0:
256,192,2941,1,0,0:0:0:0:
153,192,3104,1,0,0:0:0:0:
460,192,3267,1,0,0:0:0:0:
51,192,3430,1,0,0:0:0:0:
256,192,3593,1,0,0:0:0:0:
358,192,3756,1,0,0:0:0:0:
460,192,3919,1,0,0:0:0:0:
153,192,4082,1,0,0:0:0:0:
51,192,4245,1,0,0:0:0:0:
256,192,4408,1,0,0:0:0:0:
358,192,4571,1,0,0:0:0:0:
153,192,4734,1,0,0:0:0:0:
460,192,4897,1,0,0:0:0:0:
256,192,5060,1,0,0:0:0:0:
51,192,5224,1,0,0:0:0:0:
153,192,5387,1,0,0:0:0:0:
358,192,5550,1,0,0:0:0:0:
460,192,5713,1,0,0:0:0:0:
51,192,5876,1,0,0:0:0:0:
256,192,6039,1,0,0:0:0:0:
358,192,6202,128,0,6528:0:0:0:0:
153,192,6365,1,0,0:0:0:0:
51,192,6528,128,0,7832:0:0:0:0:
460,192,6691,1,0,0:0:0:0:
153,192,6854,1,0,0:0:0:0:
358,192,7017,1,0,0:0:0:0:
256,192,7180,1,0,0:0:0:0:
460,192,7343,1,0,0:0:0:0:
153,192,7506,1,0,0:0:0:0:
256,192,7669,1,0,0:0:0:0:
460,192,7832,128,0,8810:0:0:0:0:
358,192,7995,1,0,0:0:0:0:
153,192,8158,1,0,0:0:0:0:
51,192,8321,1,0,0:0:0:0:
256,192,8484,1,0,0:0:0:0:
358,192,8647,1,0,0:0:0:0:
51,192,8810,128,0,8974:0:0:0:0:
256,192,8974,128,0,9137:0:0:0:0:
153,192,9137,128,0,10278:0:0:0:0:
460,192,9300,1,0,0:0:0:0:
358,192,9463,1,0,0:0:0:0:
51,192,9626,1,0,0:0:0:0:
256,192,9789,1,0,0:0:0:0:
460,192,9952,1,0,0:0:0:0:
358,192,10115,1,0,0:0:0:0:
256,192,10278,1,0,0:0:0:0:
51,192,10441,1,0,0:0:0:0:
153,192,10604,1,0,0:0:0:0:
256,192,10685,1,0,0:0:0:0:
358,192,10767,1,0,0:0:0:0:
460,192,10849,1,0,0:0:0:0:
256,192,10930,1,8,0:0:0:0:
153,192,11012,1,8,0:0:0:0:
460,192,11093,128,2,11745:0:0:0:0:
51,192,11093,1,0,0:0:0:0:
51,192,11419,128,0,11745:0:0:0:0:
153,192,11419,128,0,11745:0:0:0:0:
358,192,11745,1,12,0:0:0:0:
256,192,11745,128,0,13050:0:0:0:0:
460,192,12397,1,0,0:0:0:0:
153,192,12397,1,0,0:0:0:0:
51,192,13050,128,8,14354:0:0:0:0:
460,192,13050,1,4,0:0:0:0:
153,192,13213,1,8,0:0:0:0:
358,192,13213,1,0,0:0:0:0:
256,192,13539,1,8,0:0:0:0:
358,192,13539,1,0,0:0:0:0:
153,192,13702,1,0,0:0:0:0:
358,192,13865,1,8,0:0:0:0:
460,192,13865,1,0,0:0:0:0:
256,192,14028,1,8,0:0:0:0:
153,192,14028,1,0,0:0:0:0:
256,192,14354,1,8,0:0:0:0:
460,192,14354,128,4,15658:0:0:0:0:
153,192,14843,1,2,0:0:0:0:
358,192,14843,1,0,0:0:0:0:
256,192,15006,1,2,0:0:0:0:
51,192,15006,1,0,0:0:0:0:
153,192,15658,128,4,16963:0:0:0:0:
51,192,15658,1,8,0:0:0:0:
256,192,15821,1,2,0:0:0:0:
358,192,15821,1,0,0:0:0:0:
460,192,16147,1,0,0:0:0:0:
358,192,16229,1,0,0:0:0:0:
256,192,16310,1,0,0:0:0:0:
460,192,16474,1,2,0:0:0:0:
51,192,16474,1,0,0:0:0:0:
358,192,16637,1,8,0:0:0:0:
256,192,16637,1,0,0:0:0:0:
358,192,16800,1,8,0:0:0:0:
460,192,16800,1,0,0:0:0:0:
256,192,16963,1,4,0:0:0:0:
51,192,16963,128,8,18267:0:0:0:0:
460,192,17615,1,0,0:0:0:0:
358,192,17941,1,8,0:0:0:0:
153,192,17941,1,0,0:0:0:0:
460,192,18267,128,4,19571:0:0:0:0:
256,192,18267,1,8,0:0:0:0:
153,192,18756,1,8,0:0:0:0:
51,192,18756,1,0,0:0:0:0:
256,192,18919,1,0,0:0:0:0:
358,192,19082,1,8,0:0:0:0:
153,192,19082,1,0,0:0:0:0:
256,192,19245,1,8,0:0:0:0:
51,192,19245,1,0,0:0:0:0:
51,192,19571,1,4,0:0:0:0:
358,192,19571,1,8,0:0:0:0:
256,192,19897,128,0,20224:0:0:0:0:
153,192,20224,128,4,20550:0:0:0:0:
358,192,20224,1,0,0:0:0:0:
51,192,20550,128,8,20876:0:0:0:0:
256,192,20550,1,0,0:0:0:0:
460,192,20876,128,4,21202:0:0:0:0:
358,192,20876,1,8,0:0:0:0:
153,192,21039,1,8,0:0:0:0:
51,192,21039,1,0,0:0:0:0:
358,192,21202,128,4,21528:0:0:0:0:
256,192,21202,1,8,0:0:0:0:
51,192,21365,1,8,0:0:0:0:
153,192,21365,1,0,0:0:0:0:
51,192,21528,128,2,21854:0:0:0:0:
460,192,21528,1,4,0:0:0:0:
256,192,21691,1,8,0:0:0:0:
358,192,21772,1,8,0:0:0:0:
460,192,21854,128,4,22180:0:0:0:0:
153,192,21854,1,8,0:0:0:0:
256,192,22017,1,8,0:0:0:0:
153,192,22099,1,8,0:0:0:0:
51,192,22180,1,4,0:0:0:0:
358,192,22180,128,8,22343:0:0:0:0:
153,192,22343,128,0,22506:0:0:0:0:
51,192,22506,128,2,22669:0:0:0:0:
460,192,22506,1,0,0:0:0:0:
256,192,22669,128,0,22832:0:0:0:0:
460,192,22832,128,8,23158:0:0:0:0:
358,192,22832,1,0,0:0:0:0:
51,192,23158,1,2,0:0:0:0:
256,192,23158,1,0,0:0:0:0:
358,192,23321,128,0,23484:0:0:0:0:
256,192,23484,1,8,0:0:0:0:
153,192,23484,128,0,23810:0:0:0:0:
51,192,23810,1,2,0:0:0:0:
460,192,23810,1,0,0:0:0:0:
256,192,23974,128,0,24137:0:0:0:0:
153,192,24137,1,8,0:0:0:0:
460,192,24137,128,0,24300:0:0:0:0:
358,192,24300,128,0,24463:0:0:0:0:
256,192,24463,128,2,24626:0:0:0:0:
51,192,24463,1,0,0:0:0:0:
153,192,24626,128,0,24789:0:0:0:0:
460,192,24789,1,8,0:0:0:0:
51,192,24789,128,0,24952:0:0:0:0:
256,192,24952,128,0,25115:0:0:0:0:
358,192,25115,128,2,25278:0:0:0:0:
153,192,25115,1,0,0:0:0:0:
460,192,25278,128,0,25441:0:0:0:0:
51,192,25441,128,8,25767:0:0:0:0:
256,192,25441,1,0,0:0:0:0:
153,192,25767,1,2,0:0:0:0:
460,192,25767,1,0,0:0:0:0:
358,192,25930,128,0,26093:0:0:0:0:
256,192,26093,1,8,0:0:0:0:
153,192,26093,128,0,26419:0:0:0:0:
460,192,26419,1,2,0:0:0:0:
51,192,26419,1,0,0:0:0:0:
358,192,26582,128,0,26745:0:0:0:0:
460,192,26745,128,8,27071:0:0:0:0:
256,192,26745,1,0,0:0:0:0:
153,192,26908,128,0,27071:0:0:0:0:
51,192,27071,128,2,27397:0:0:0:0:
256,192,27071,1,0,0:0:0:0:
358,192,27234,128,0,27397:0:0:0:0:
460,192,27397,1,4,0:0:0:0:
256,192,27397,128,8,27560:0:0:0:0:
153,192,27560,128,0,27724:0:0:0:0:
460,192,27724,128,2,27887:0:0:0:0:
358,192,27724,1,0,0:0:0:0:
51,192,27887,128,0,28050:0:0:0:0:
256,192,28050,128,8,28376:0:0:0:0:
153,192,28050,1,0,0:0:0:0:
358,192,28376,1,2,0:0:0:0:
51,192,28376,1,0,0:0:0:0:
460,192,28539,128,0,28702:0:0:0:0:
153,192,28702,1,8,0:0:0:0:
51,192,28702,128,0,29028:0:0:0:0:
358,192,29028,1,2,0:0:0:0:
460,192,29028,1,0,0:0:0:0:
256,192,29191,128,0,29354:0:0:0:0:
358,192,29354,128,8,29517:0:0:0:0:
460,192,29354,1,0,0:0:0:0:
153,192,29517,128,0,29680:0:0:0:0:
51,192,29680,128,2,29843:0:0:0:0:
256,192,29680,1,0,0:0:0:0:
460,192,29843,128,0,30006:0:0:0:0:
256,192,30006,128,8,30169:0:0:0:0:
358,192,30006,1,0,0:0:0:0:
153,192,30169,128,0,30332:0:0:0:0:
51,192,30332,1,2,0:0:0:0:
358,192,30332,128,0,30495:0:0:0:0:
256,192,30495,128,0,30658:0:0:0:0:
153,192,30658,1,2,0:0:0:0:
460,192,30658,1,0,0:0:0:0:
51,192,30821,1,2,0:0:0:0:
256,192,30903,1,2,0:0:0:0:
460,192,30984,1,2,0:0:0:0:
358,192,31147,1,2,0:0:0:0:
256,192,31229,1,2,0:0:0:0:
153,192,31310,1,2,0:0:0:0:
256,192,31637,1,4,0:0:0:0:
358,192,31637,1,8,0:0:0:0:
460,192,31637,128,2,31963:0:0:0:0:
256,192,31963,1,4,0:0:0:0:
153,192,31963,1,8,0:0:0:0:
51,192,31963,128,2,32289:0:0:0:0:
358,192,32289,128,2,32615:0:0:0:0:
256,192,32289,1,4,0:0:0:0:
460,192,32289,1,8,0:0:0:0:
153,192,32615,1,4,0:0:0:0:
51,192,32615,1,8,0:0:0:0:
460,192,32615,1,0,0:0:0:0:
256,192,32941,1,8,0:0:0:0:
51,192,33267,1,8,0:0:0:0:
153,192,33593,1,2,0:0:0:0:
460,192,33593,1,0,0:0:0:0:
358,192,33919,1,8,0:0:0:0:
256,192,34245,1,8,0:0:0:0:
51,192,34571,1,8,0:0:0:0:
460,192,34897,1,8,0:0:0:0:
358,192,35224,1,8,0:0:0:0:
51,192,35224,1,0,0:0:0:0:
153,192,35550,1,2,0:0:0:0:
460,192,35550,1,0,0:0:0:0:
256,192,35876,1,8,0:0:0:0:
51,192,36202,1,8,0:0:0:0:
358,192,36528,1,8,0:0:0:0:
460,192,36528,1,0,0:0:0:0:
153,192,36854,1,8,0:0:0:0:
256,192,37180,1,8,0:0:0:0:
460,192,37180,128,0,37506:0:0:0:0:
358,192,37506,1,2,0:0:0:0:
51,192,37506,128,0,37832:0:0:0:0:
256,192,37832,128,8,39137:0:0:0:0:
153,192,37832,1,4,0:0:0:0:
460,192,37832,1,0,0:0:0:0:
358,192,38158,1,8,0:0:0:0:
51,192,38484,1,8,0:0:0:0:
460,192,38810,1,8,0:0:0:0:
358,192,39137,1,8,0:0:0:0:
153,192,39137,128,0,40441:0:0:0:0:
51,192,39463,1,2,0:0:0:0:
460,192,39463,1,0,0:0:0:0:
358,192,39789,1,8,0:0:0:0:
256,192,40115,1,8,0:0:0:0:
51,192,40441,1,8,0:0:0:0:
460,192,40441,128,0,41745:0:0:0:0:
358,192,40767,1,8,0:0:0:0:
256,192,41093,1,8,0:0:0:0:
51,192,41419,1,2,0:0:0:0:
358,192,41419,1,0,0:0:0:0:
153,192,41745,1,8,0:0:0:0:
256,192,41745,1,0,0:0:0:0:
358,192,41908,1,2,0:0:0:0:
460,192,41908,1,0,0:0:0:0:
153,192,42071,1,8,0:0:0:0:
51,192,42071,1,0,0:0:0:0:
358,192,42397,1,8,0:0:0:0:
256,192,42479,1,8,0:0:0:0:
153,192,42560,1,8,0:0:0:0:
460,192,42642,1,8,0:0:0:0:
51,192,42724,1,2,0:0:0:0:
358,192,42724,1,0,0:0:0:0:
153,192,42805,1,0,0:0:0:0:
256,192,42887,1,8,0:0:0:0:
358,192,42968,1,8,0:0:0:0:
460,192,43050,1,4,0:0:0:0:
153,192,43050,1,8,0:0:0:0:
51,192,43213,1,0,0:0:0:0:
256,192,43376,1,2,0:0:0:0:
358,192,43376,1,0,0:0:0:0:
153,192,43539,1,0,0:0:0:0:
460,192,43702,1,8,0:0:0:0:
358,192,43702,1,0,0:0:0:0:
51,192,43865,1,0,0:0:0:0:
153,192,44028,1,2,0:0:0:0:
256,192,44028,1,0,0:0:0:0:
460,192,44191,1,0,0:0:0:0:
153,192,44354,1,8,0:0:0:0:
51,192,44354,1,0,0:0:0:0:
358,192,44517,1,0,0:0:0:0:
51,192,44680,1,2,0:0:0:0:
460,192,44680,1,0,0:0:0:0:
256,192,44843,1,0,0:0:0:0:
358,192,45006,1,8,0:0:0:0:
153,192,45006,1,0,0:0:0:0:
51,192,45169,1,0,0:0:0:0:
256,192,45332,1,2,0:0:0:0:
460,192,45332,1,0,0:0:0:0:
153,192,45495,1,0,0:0:0:0:
358,192,45658,1,8,0:0:0:0:
51,192,45658,1,0,0:0:0:0:
460,192,45821,1,0,0:0:0:0:
153,192,45984,1,2,0:0:0:0:
256,192,45984,1,0,0:0:0:0:
51,192,46147,1,0,0:0:0:0:
256,192,46310,1,8,0:0:0:0:
460,192,46310,1,0,0:0:0:0:
358,192,46474,1,0,0:0:0:0:
153,192,46637,1,2,0:0:0:0:
51,192,46637,1,0,0:0:0:0:
460,192,46800,1,0,0:0:0:0:
358,192,46963,1,8,0:0:0:0:
256,192,46963,1,0,0:0:0:0:
51,192,47126,1,0,0:0:0:0:
460,192,47289,1,2,0:0:0:0:
358,192,47289,1,0,0:0:0:0:
256,192,47452,1,0,0:0:0:0:
51,192,47615,1,8,0:0:0:0:
460,192,47615,128,0,47941:0:0:0:0:
153,192,47941,1,2,0:0:0:0:
51,192,47941,128,0,48267:0:0:0:0:
256,192,48267,1,12,0:0:0:0:
358,192,48267,128,0,49571:0:0:0:0:
460,192,48267,1,0,0:0:0:0:
153,192,48593,1,2,0:0:0:0:
51,192,48593,1,0,0:0:0:0:
460,192,48756,1,8,0:0:0:0:
256,192,48919,1,0,0:0:0:0:
51,192,49082,1,8,0:0:0:0:
153,192,49245,1,2,0:0:0:0:
460,192,49245,1,0,0:0:0:0:
256,192,49571,1,12,0:0:0:0:
51,192,49571,128,0,50876:0:0:0:0:
460,192,49571,1,0,0:0:0:0:
153,192,49897,1,2,0:0:0:0:
358,192,49897,1,0,0:0:0:0:
460,192,50060,1,8,0:0:0:0:
256,192,50224,1,0,0:0:0:0:
153,192,50387,1,8,0:0:0:0:
358,192,50550,1,2,0:0:0:0:
460,192,50550,1,0,0:0:0:0:
153,192,50876,1,12,0:0:0:0:
256,192,50876,128,0,52180:0:0:0:0:
358,192,51202,1,2,0:0:0:0:
460,192,51202,1,0,0:0:0:0:
51,192,51365,1,8,0:0:0:0:
358,192,51528,1,0,0:0:0:0:
153,192,51691,1,8,0:0:0:0:
460,192,51854,1,2,0:0:0:0:
51,192,51854,1,0,0:0:0:0:
358,192,52017,1,0,0:0:0:0:
153,192,52180,128,8,52506:0:0:0:0:
51,192,52180,1,0,0:0:0:0:
358,192,52506,1,8,0:0:0:0:
460,192,52506,1,0,0:0:0:0:
153,192,52669,1,8,0:0:0:0:
51,192,52669,1,0,0:0:0:0:
256,192,52832,1,2,0:0:0:0:
358,192,52914,1,2,0:0:0:0:
460,192,52995,1,2,0:0:0:0:
256,192,53077,1,2,0:0:0:0:
153,192,53158,1,2,0:0:0:0:
51,192,53240,1,2,0:0:0:0:
256,192,53321,1,2,0:0:0:0:
358,192,53403,1,2,0:0:0:0:
460,192,53484,1,2,0:0:0:0:
153,192,53484,1,0,0:0:0:0:
256,192,53810,1,2,0:0:0:0:
51,192,53810,1,0,0:0:0:0:
153,192,53974,1,2,0:0:0:0:
358,192,53974,1,0,0:0:0:0:
460,192,54137,1,8,0:0:0:0:
51,192,54300,1,8,0:0:0:0:
358,192,54463,1,2,0:0:0:0:
256,192,54463,1,0,0:0:0:0:
153,192,54626,1,8,0:0:0:0:
51,192,54626,1,0,0:0:0:0:
153,192,54952,1,8,0:0:0:0:
256,192,54952,1,0,0:0:0:0:
358,192,55115,1,2,0:0:0:0:
460,192,55115,1,0,0:0:0:0:
358,192,55441,1,8,0:0:0:0:
51,192,55441,1,0,0:0:0:0:
460,192,55604,1,8,0:0:0:0:
153,192,55604,1,0,0:0:0:0:
51,192,55767,1,2,0:0:0:0:
358,192,55767,1,0,0:0:0:0:
256,192,55930,1,0,0:0:0:0:
51,192,56093,1,0,0:0:0:0:
460,192,56093,1,0,0:0:0:0:
358,192,56419,1,2,0:0:0:0:
153,192,56419,1,0,0:0:0:0:
256,192,56582,1,2,0:0:0:0:
51,192,56582,1,0,0:0:0:0:
358,192,56745,1,8,0:0:0:0:
153,192,56908,1,8,0:0:0:0:
256,192,57071,1,2,0:0:0:0:
460,192,57071,1,0,0:0:0:0:
153,192,57234,1,8,0:0:0:0:
51,192,57234,1,0,0:0:0:0:
153,192,57560,1,8,0:0:0:0:
460,192,57560,1,0,0:0:0:0:
358,192,57724,1,2,0:0:0:0:
51,192,57724,1,0,0:0:0:0:
153,192,57887,1,2,0:0:0:0:
460,192,57887,1,0,0:0:0:0:
358,192,57968,1,8,0:0:0:0:
51,192,58050,1,8,0:0:0:0:
256,192,58050,1,0,0:0:0:0:
358,192,58213,1,8,0:0:0:0:
460,192,58213,1,0,0:0:0:0:
256,192,58294,1,8,0:0:0:0:
51,192,58376,1,2,0:0:0:0:
153,192,58376,1,0,0:0:0:0:
460,192,58539,1,2,0:0:0:0:
256,192,58539,1,0,0:0:0:0:
153,192,58620,1,8,0:0:0:0:
358,192,58702,1,2,0:0:0:0:
51,192,58702,1,0,0:0:0:0:
51,192,59028,1,2,0:0:0:0:
460,192,59028,1,0,0:0:0:0:
358,192,59191,1,2,0:0:0:0:
153,192,59191,1,0,0:0:0:0:
256,192,59354,1,8,0:0:0:0:
153,192,59517,1,0,0:0:0:0:
460,192,59680,1,2,0:0:0:0:
358,192,59680,1,0,0:0:0:0:
256,192,59843,1,8,0:0:0:0:
51,192,59843,128,0,60332:0:0:0:0:
153,192,60169,1,8,0:0:0:0:
256,192,60332,1,2,0:0:0:0:
460,192,60332,128,0,60658:0:0:0:0:
358,192,60495,1,0,0:0:0:0:
51,192,60658,1,8,0:0:0:0:
153,192,60658,128,0,60984:0:0:0:0:
256,192,60821,1,8,0:0:0:0:
460,192,60984,1,2,0:0:0:0:
358,192,60984,128,0,61310:0:0:0:0:
256,192,61310,1,2,0:0:0:0:
51,192,61310,1,0,0:0:0:0:
460,192,61474,1,8,0:0:0:0:
256,192,61637,1,2,0:0:0:0:
51,192,61637,1,0,0:0:0:0:
460,192,61800,1,8,0:0:0:0:
256,192,61963,1,2,0:0:0:0:
51,192,61963,1,0,0:0:0:0:
460,192,62126,1,8,0:0:0:0:
256,192,62289,1,2,0:0:0:0:
51,192,62289,1,0,0:0:0:0:
358,192,62289,128,0,62452:0:0:0:0:
460,192,62452,1,8,0:0:0:0:
358,192,62615,128,2,62778:0:0:0:0:
256,192,62615,1,0,0:0:0:0:
51,192,62615,1,0,0:0:0:0:
460,192,62778,1,8,0:0:0:0:
51,192,62941,1,2,0:0:0:0:
153,192,62941,1,0,0:0:0:0:
256,192,63104,128,8,63267:0:0:0:0:
460,192,63104,1,0,0:0:0:0:
51,192,63267,1,2,0:0:0:0:
358,192,63267,1,0,0:0:0:0:
153,192,63430,1,8,0:0:0:0:
460,192,63593,1,8,0:0:0:0:
358,192,63675,1,8,0:0:0:0:
256,192,63756,1,8,0:0:0:0:
153,192,63838,1,8,0:0:0:0:
460,192,63919,1,4,0:0:0:0:
51,192,63919,128,2,64245:0:0:0:0:
153,192,64245,1,2,0:0:0:0:
256,192,64327,1,0,0:0:0:0:
358,192,64408,1,4,0:0:0:0:
460,192,64408,128,0,64734:0:0:0:0:
153,192,64734,1,8,0:0:0:0:
51,192,64734,1,0,0:0:0:0:
358,192,64897,1,4,0:0:0:0:
256,192,64897,128,0,65224:0:0:0:0:
51,192,65224,1,0,0:0:0:0:
460,192,65224,1,0,0:0:0:0:
153,192,65550,128,4,65713:0:0:0:0:
358,192,65550,128,8,65876:0:0:0:0:
460,192,65876,128,8,66202:0:0:0:0:
51,192,65876,128,4,66039:0:0:0:0:
153,192,66202,128,8,66528:0:0:0:0:
358,192,66202,128,4,66365:0:0:0:0:
256,192,66528,1,4,0:0:0:0:
51,192,66528,1,8,0:0:0:0:
460,192,66528,128,0,67832:0:0:0:0:
153,192,66854,1,2,0:0:0:0:
358,192,66854,1,0,0:0:0:0:
51,192,67180,1,8,0:0:0:0:
153,192,67343,1,8,0:0:0:0:
256,192,67506,1,2,0:0:0:0:
358,192,67506,1,0,0:0:0:0:
153,192,67669,1,0,0:0:0:0:
358,192,67832,1,0,0:0:0:0:
51,192,67832,128,0,69137:0:0:0:0:
256,192,67995,1,8,0:0:0:0:
153,192,68158,1,2,0:0:0:0:
460,192,68158,1,0,0:0:0:0:
256,192,68484,1,8,0:0:0:0:
358,192,68647,1,8,0:0:0:0:
460,192,68810,1,2,0:0:0:0:
256,192,68810,1,0,0:0:0:0:
153,192,68974,1,8,0:0:0:0:
460,192,69137,1,0,0:0:0:0:
358,192,69137,128,0,70441:0:0:0:0:
256,192,69300,1,8,0:0:0:0:
153,192,69463,1,2,0:0:0:0:
51,192,69463,1,0,0:0:0:0:
256,192,69789,1,8,0:0:0:0:
51,192,69952,1,8,0:0:0:0:
460,192,70115,1,2,0:0:0:0:
153,192,70115,1,0,0:0:0:0:
256,192,70278,1,8,0:0:0:0:
51,192,70441,1,0,0:0:0:0:
153,192,70441,128,0,71745:0:0:0:0:
460,192,70604,1,8,0:0:0:0:
256,192,70767,1,2,0:0:0:0:
51,192,70767,1,0,0:0:0:0:
358,192,71093,1,8,0:0:0:0:
256,192,71419,1,2,0:0:0:0:
460,192,71419,1,0,0:0:0:0:
51,192,71582,1,8,0:0:0:0:
358,192,71745,1,0,0:0:0:0:
256,192,71745,128,0,73050:0:0:0:0:
460,192,72071,1,2,0:0:0:0:
51,192,72071,1,0,0:0:0:0:
153,192,72397,1,8,0:0:0:0:
460,192,72560,1,8,0:0:0:0:
358,192,72724,1,2,0:0:0:0:
51,192,72724,1,0,0:0:0:0:
153,192,73050,1,8,0:0:0:0:
460,192,73050,128,0,74354:0:0:0:0:
358,192,73213,1,8,0:0:0:0:
256,192,73376,1,2,0:0:0:0:
51,192,73376,1,0,0:0:0:0:
153,192,73702,1,8,0:0:0:0:
51,192,73865,1,8,0:0:0:0:
256,192,74028,1,2,0:0:0:0:
358,192,74028,1,0,0:0:0:0:
153,192,74354,1,8,0:0:0:0:
51,192,74354,128,0,75495:0:0:0:0:
460,192,74680,1,2,0:0:0:0:
358,192,74680,1,0,0:0:0:0:
256,192,75006,1,8,0:0:0:0:
460,192,75169,1,8,0:0:0:0:
358,192,75332,1,2,0:0:0:0:
153,192,75332,1,0,0:0:0:0:
256,192,75495,128,8,75658:0:0:0:0:
460,192,75658,128,0,75821:0:0:0:0:
51,192,75821,128,8,75984:0:0:0:0:
358,192,75984,128,2,76147:0:0:0:0:
153,192,75984,128,0,76310:0:0:0:0:
51,192,76310,128,8,76637:0:0:0:0:
460,192,76310,128,0,76474:0:0:0:0:
358,192,76637,128,2,76963:0:0:0:0:
153,192,76637,128,0,76800:0:0:0:0:
256,192,76963,1,4,0:0:0:0:
51,192,76963,128,0,78267:0:0:0:0:
460,192,76963,1,8,0:0:0:0:
358,192,77289,1,2,0:0:0:0:
153,192,77289,1,0,0:0:0:0:
460,192,77615,1,8,0:0:0:0:
358,192,77778,1,8,0:0:0:0:
256,192,77941,1,2,0:0:0:0:
153,192,77941,1,0,0:0:0:0:
358,192,78104,1,0,0:0:0:0:
460,192,78267,128,0,79571:0:0:0:0:
153,192,78267,1,0,0:0:0:0:
256,192,78430,1,8,0:0:0:0:
358,192,78593,1,2,0:0:0:0:
51,192,78593,1,0,0:0:0:0:
256,192,78919,1,8,0:0:0:0:
153,192,78919,1,0,0:0:0:0:
51,192,79082,1,0,0:0:0:0:
358,192,79245,1,2,0:0:0:0:
256,192,79408,1,8,0:0:0:0:
51,192,79571,1,0,0:0:0:0:
153,192,79571,128,0,80876:0:0:0:0:
358,192,79734,1,8,0:0:0:0:
256,192,79897,1,2,0:0:0:0:
460,192,79897,1,0,0:0:0:0:
51,192,80224,1,8,0:0:0:0:
460,192,80387,1,8,0:0:0:0:
358,192,80550,1,2,0:0:0:0:
256,192,80550,1,0,0:0:0:0:
51,192,80713,1,8,0:0:0:0:
460,192,80876,1,0,0:0:0:0:
358,192,80876,128,0,81854:0:0:0:0:
256,192,81039,1,8,0:0:0:0:
51,192,81202,1,2,0:0:0:0:
460,192,81202,1,0,0:0:0:0:
153,192,81528,1,8,0:0:0:0:
460,192,81691,1,8,0:0:0:0:
256,192,81854,1,2,0:0:0:0:
51,192,81854,1,0,0:0:0:0:
460,192,82180,1,8,0:0:0:0:
460,192,82506,1,8,0:0:0:0:
358,192,82832,1,2,0:0:0:0:
51,192,82832,128,0,83484:0:0:0:0:
256,192,83158,1,8,0:0:0:0:
358,192,83321,1,2,0:0:0:0:
460,192,83321,1,0,0:0:0:0:
153,192,83484,128,0,84137:0:0:0:0:
460,192,83647,1,2,0:0:0:0:
358,192,83647,1,0,0:0:0:0:
256,192,83810,1,8,0:0:0:0:
358,192,84137,128,2,84463:0:0:0:0:
51,192,84137,1,0,0:0:0:0:
460,192,84463,1,8,0:0:0:0:
256,192,84626,1,8,0:0:0:0:
153,192,84707,1,8,0:0:0:0:
51,192,84789,1,8,0:0:0:0:
460,192,84789,128,0,85767:0:0:0:0:
51,192,85115,1,0,0:0:0:0:
256,192,85441,1,8,0:0:0:0:
153,192,85441,1,2,0:0:0:0:
358,192,85767,1,8,0:0:0:0:
153,192,85930,1,2,0:0:0:0:
51,192,85930,1,0,0:0:0:0:
460,192,86093,1,8,0:0:0:0:
153,192,86256,1,2,0:0:0:0:
51,192,86256,1,0,0:0:0:0:
358,192,86419,1,8,0:0:0:0:
51,192,86745,128,2,87397:0:0:0:0:
256,192,86745,1,0,0:0:0:0:
460,192,87071,128,8,87397:0:0:0:0:
358,192,87397,1,4,0:0:0:0:
153,192,87397,128,0,87560:0:0:0:0:
256,192,87560,128,0,87724:0:0:0:0:
460,192,87724,128,2,87887:0:0:0:0:
51,192,87724,1,0,0:0:0:0:
358,192,87887,128,0,88050:0:0:0:0:
153,192,88050,128,8,88376:0:0:0:0:
256,192,88050,1,0,0:0:0:0:
51,192,88376,1,2,0:0:0:0:
460,192,88376,1,0,0:0:0:0:
256,192,88539,128,0,88702:0:0:0:0:
358,192,88702,128,8,89028:0:0:0:0:
153,192,88702,1,0,0:0:0:0:
256,192,89028,1,2,0:0:0:0:
51,192,89028,1,0,0:0:0:0:
460,192,89191,128,0,89354:0:0:0:0:
153,192,89354,128,8,89517:0:0:0:0:
256,192,89354,1,0,0:0:0:0:
358,192,89517,128,0,89680:0:0:0:0:
51,192,89680,128,2,89843:0:0:0:0:
460,192,89680,1,0,0:0:0:0:
256,192,89843,128,0,90006:0:0:0:0:
153,192,90006,128,8,90169:0:0:0:0:
358,192,90006,1,0,0:0:0:0:
460,192,90169,128,0,90332:0:0:0:0:
358,192,90332,128,2,90495:0:0:0:0:
256,192,90332,1,0,0:0:0:0:
51,192,90495,128,0,90658:0:0:0:0:
153,192,90658,128,8,90984:0:0:0:0:
460,192,90658,1,0,0:0:0:0:
358,192,90984,1,2,0:0:0:0:
256,192,90984,1,0,0:0:0:0:
460,192,91147,128,0,91310:0:0:0:0:
51,192,91310,128,8,91637:0:0:0:0:
153,192,91310,1,0,0:0:0:0:
358,192,91637,1,2,0:0:0:0:
460,192,91637,1,0,0:0:0:0:
256,192,91800,128,0,91963:0:0:0:0:
153,192,91963,128,8,92289:0:0:0:0:
51,192,91963,1,0,0:0:0:0:
460,192,92126,128,0,92289:0:0:0:0:
358,192,92289,128,2,92615:0:0:0:0:
256,192,92289,1,0,0:0:0:0:
51,192,92452,128,0,92615:0:0:0:0:
460,192,92615,1,8,0:0:0:0:
256,192,92615,128,4,92778:0:0:0:0:
153,192,92778,128,0,92941:0:0:0:0:
460,192,92941,128,2,93104:0:0:0:0:
358,192,92941,1,0,0:0:0:0:
51,192,93104,128,0,93267:0:0:0:0:
358,192,93267,128,8,93593:0:0:0:0:
256,192,93267,1,0,0:0:0:0:
153,192,93593,1,2,0:0:0:0:
460,192,93593,1,0,0:0:0:0:
256,192,93756,128,0,93919:0:0:0:0:
51,192,93919,128,8,94245:0:0:0:0:
358,192,93919,1,0,0:0:0:0:
153,192,94245,1,2,0:0:0:0:
460,192,94245,1,0,0:0:0:0:
358,192,94408,128,0,94571:0:0:0:0:
256,192,94571,128,8,94734:0:0:0:0:
51,192,94571,1,0,0:0:0:0:
153,192,94734,128,0,94897:0:0:0:0:
460,192,94897,128,2,95060:0:0:0:0:
358,192,94897,1,0,0:0:0:0:
51,192,95060,128,0,95224:0:0:0:0:
256,192,95224,128,8,95387:0:0:0:0:
153,192,95224,1,0,0:0:0:0:
358,192,95387,128,0,95550:0:0:0:0:
51,192,95550,1,2,0:0:0:0:
460,192,95550,128,0,95876:0:0:0:0:
358,192,95876,1,8,0:0:0:0:
153,192,95876,128,0,96202:0:0:0:0:
256,192,96039,1,2,0:0:0:0:
358,192,96120,1,2,0:0:0:0:
460,192,96202,1,2,0:0:0:0:
51,192,96202,128,0,96528:0:0:0:0:
358,192,96365,1,2,0:0:0:0:
256,192,96446,1,2,0:0:0:0:
153,192,96528,1,2,0:0:0:0:
460,192,96528,128,0,96854:0:0:0:0:
358,192,96854,1,2,0:0:0:0:
153,192,96854,1,8,0:0:0:0:
256,192,96854,128,4,97180:0:0:0:0:
153,192,97180,128,4,97506:0:0:0:0:
51,192,97180,1,8,0:0:0:0:
358,192,97180,1,2,0:0:0:0:
358,192,97506,128,4,97832:0:0:0:0:
460,192,97506,1,2,0:0:0:0:
256,192,97506,1,8,0:0:0:0:
51,192,97832,128,0,97995:0:0:0:0:
460,192,97995,128,0,98158:0:0:0:0:
153,192,98158,128,0,98484:0:0:0:0:
358,192,98321,128,0,98484:0:0:0:0:
256,192,98484,128,0,98647:0:0:0:0:
51,192,98647,128,0,98974:0:0:0:0:
460,192,98810,128,0,98974:0:0:0:0:
153,192,98974,128,0,99137:0:0:0:0:
358,192,99137,128,0,99300:0:0:0:0:
256,192,99300,128,0,99626:0:0:0:0:
460,192,99463,128,0,99626:0:0:0:0:
51,192,99626,128,0,99789:0:0:0:0:
358,192,99789,128,0,99952:0:0:0:0:
153,192,99952,128,0,100115:0:0:0:0:
460,192,100115,128,0,100441:0:0:0:0:
51,192,100278,128,0,100441:0:0:0:0:
256,192,100441,128,0,100604:0:0:0:0:
358,192,100604,128,0,100767:0:0:0:0:
153,192,100767,128,0,101093:0:0:0:0:
460,192,100930,128,0,101093:0:0:0:0:
256,192,101093,128,0,101256:0:0:0:0:
358,192,101256,128,0,101582:0:0:0:0:
51,192,101419,128,0,101582:0:0:0:0:
153,192,101582,128,0,101745:0:0:0:0:
460,192,101745,128,0,101908:0:0:0:0:
256,192,101908,128,0,102234:0:0:0:0:
51,192,102071,128,0,102234:0:0:0:0:
358,192,102234,128,0,102397:0:0:0:0:
153,192,102397,128,0,102560:0:0:0:0:
460,192,102560,128,0,102724:0:0:0:0:
358,192,102724,1,8,0:0:0:0:
256,192,102724,1,0,0:0:0:0:
51,192,102724,1,0,0:0:0:0:
460,192,102887,128,8,108919:0:0:0:0:
153,192,102887,128,4,108919:0:0:0:0:
51,192,102887,128,0,108919:0:0:0:0:
