osu file format v14

[General]
AudioFilename: audio.mp3
AudioLeadIn: 0
PreviewTime: 65550
Countdown: 0
SampleSet: Soft
StackLeniency: 0.7
Mode: 3
LetterboxInBreaks: 0
SpecialStyle: 0
WidescreenStoryboard: 0

[Editor]
DistanceSpacing: 0.5
BeatDivisor: 2
GridSize: 32
TimelineZoom: 1

[Metadata]
Title:Yuki no Youni
TitleUnicode:雪のように
Artist:AKINO with bless4
ArtistUnicode:AKINO with bless4
Creator:Maxus
Version:CS' 7K Normal
Source:
Tags:2nd album decennia short ver Critical_Star Dellvangel
BeatmapID:1126817
BeatmapSetID:531713

[Difficulty]
HPDrainRate:7
CircleSize:7
OverallDifficulty:7
ApproachRate:5
SliderMultiplier:1.4
SliderTickRate:1

[Events]
//Background and Video events
0,0,"BG3(Normal).jpg",0,0
//Break Periods
//Storyboard Layer 0 (Background)
//Storyboard Layer 1 (Fail)
//Storyboard Layer 2 (Pass)
//Storyboard Layer 3 (Foreground)
//Storyboard Sound Samples

[TimingPoints]
1311,326.086956521739,4,2,1,40,1,0
10930,-100,4,2,1,50,0,0
66528,-100,4,2,1,50,0,1
75495,-100,4,2,1,50,0,0
76963,-100,4,2,1,50,0,1
82180,-100,4,2,1,50,0,0

[HitObjects]
36,192,1311,128,0,2615:0:0:0:0:
329,192,2615,128,0,3919:0:0:0:0:
475,192,3919,128,0,5224:0:0:0:0:
182,192,5224,128,0,6528:0:0:0:0:
36,192,6202,128,0,6528:0:0:0:0:
329,192,6528,128,0,7832:0:0:0:0:
402,192,7832,128,0,8810:0:0:0:0:
182,192,8810,128,0,9137:0:0:0:0:
36,192,9137,128,0,10441:0:0:0:0:
329,192,10441,128,0,10930:0:0:0:0:
36,192,10930,1,8,0:0:0:0:
182,192,11012,1,8,0:0:0:0:
329,192,11093,1,2,0:0:0:0:
475,192,11093,1,0,0:0:0:0:
256,192,11745,1,12,0:0:0:0:
36,192,11745,128,0,13050:0:0:0:0:
329,192,12397,1,0,0:0:0:0:
182,192,13050,128,8,14354:0:0:0:0:
402,192,13050,1,4,0:0:0:0:
256,192,13702,1,0,0:0:0:0:
329,192,14354,128,8,15658:0:0:0:0:
475,192,14354,1,4,0:0:0:0:
182,192,15006,1,0,0:0:0:0:
475,192,15658,128,4,16963:0:0:0:0:
109,192,15658,1,8,0:0:0:0:
182,192,16310,1,0,0:0:0:0:
256,192,16963,128,4,18267:0:0:0:0:
36,192,16963,1,8,0:0:0:0:
329,192,17615,1,0,0:0:0:0:
109,192,18267,128,4,19571:0:0:0:0:
402,192,18267,1,8,0:0:0:0:
329,192,18919,1,0,0:0:0:0:
256,192,19571,1,4,0:0:0:0:
475,192,19571,1,8,0:0:0:0:
402,192,19897,1,0,0:0:0:0:
329,192,20224,1,4,0:0:0:0:
182,192,20224,1,0,0:0:0:0:
109,192,20550,1,8,0:0:0:0:
36,192,20876,1,4,0:0:0:0:
475,192,20876,128,8,21202:0:0:0:0:
329,192,21202,128,12,21528:0:0:0:0:
182,192,21528,128,6,21854:0:0:0:0:
36,192,21854,128,12,22180:0:0:0:0:
475,192,22180,1,4,0:0:0:0:
256,192,22180,1,8,0:0:0:0:
256,192,22506,1,0,0:0:0:0:
475,192,22506,1,2,0:0:0:0:
182,192,22832,1,8,0:0:0:0:
36,192,22832,1,0,0:0:0:0:
36,192,23158,1,2,0:0:0:0:
182,192,23158,1,0,0:0:0:0:
475,192,23484,1,8,0:0:0:0:
402,192,23484,1,0,0:0:0:0:
402,192,23810,1,2,0:0:0:0:
475,192,23810,1,0,0:0:0:0:
109,192,24137,1,8,0:0:0:0:
36,192,24137,1,0,0:0:0:0:
109,192,24463,1,2,0:0:0:0:
36,192,24463,1,0,0:0:0:0:
256,192,24789,1,8,0:0:0:0:
475,192,24789,1,0,0:0:0:0:
475,192,25115,1,2,0:0:0:0:
256,192,25115,1,0,0:0:0:0:
402,192,25441,1,8,0:0:0:0:
109,192,25441,1,0,0:0:0:0:
109,192,25767,1,2,0:0:0:0:
402,192,25767,1,0,0:0:0:0:
475,192,26093,1,8,0:0:0:0:
329,192,26093,1,0,0:0:0:0:
475,192,26419,1,2,0:0:0:0:
329,192,26419,1,0,0:0:0:0:
36,192,26745,128,8,26908:0:0:0:0:
182,192,26908,128,0,27071:0:0:0:0:
329,192,27071,128,2,27234:0:0:0:0:
475,192,27234,128,0,27397:0:0:0:0:
182,192,27397,1,4,0:0:0:0:
36,192,27397,1,8,0:0:0:0:
36,192,27724,1,2,0:0:0:0:
182,192,27724,1,0,0:0:0:0:
256,192,28050,1,8,0:0:0:0:
475,192,28050,1,0,0:0:0:0:
475,192,28376,1,2,0:0:0:0:
256,192,28376,1,0,0:0:0:0:
329,192,28702,1,8,0:0:0:0:
109,192,28702,1,0,0:0:0:0:
329,192,29028,1,0,0:0:0:0:
109,192,29028,1,2,0:0:0:0:
475,192,29354,1,8,0:0:0:0:
182,192,29354,1,0,0:0:0:0:
182,192,29680,1,2,0:0:0:0:
475,192,29680,1,0,0:0:0:0:
36,192,30006,1,8,0:0:0:0:
256,192,30006,1,0,0:0:0:0:
36,192,30332,1,2,0:0:0:0:
256,192,30332,1,0,0:0:0:0:
329,192,30658,1,2,0:0:0:0:
182,192,30658,1,0,0:0:0:0:
475,192,30821,1,2,0:0:0:0:
182,192,30984,1,2,0:0:0:0:
329,192,30984,1,0,0:0:0:0:
475,192,31147,1,2,0:0:0:0:
36,192,31310,1,2,0:0:0:0:
109,192,31310,1,0,0:0:0:0:
256,192,31637,1,4,0:0:0:0:
402,192,31637,1,8,0:0:0:0:
329,192,31963,1,4,0:0:0:0:
182,192,31963,1,8,0:0:0:0:
256,192,32289,1,2,0:0:0:0:
109,192,32289,1,4,0:0:0:0:
36,192,32615,1,4,0:0:0:0:
475,192,32615,1,8,0:0:0:0:
329,192,32941,1,8,0:0:0:0:
475,192,33267,1,8,0:0:0:0:
109,192,33593,1,2,0:0:0:0:
36,192,33593,1,0,0:0:0:0:
329,192,33919,1,8,0:0:0:0:
182,192,34245,1,8,0:0:0:0:
329,192,34571,1,8,0:0:0:0:
182,192,34897,1,8,0:0:0:0:
402,192,35224,1,8,0:0:0:0:
109,192,35550,1,2,0:0:0:0:
36,192,35550,1,0,0:0:0:0:
402,192,35876,1,8,0:0:0:0:
109,192,36202,1,8,0:0:0:0:
475,192,36528,1,8,0:0:0:0:
329,192,36854,1,8,0:0:0:0:
182,192,37180,1,8,0:0:0:0:
36,192,37180,1,0,0:0:0:0:
109,192,37506,1,2,0:0:0:0:
256,192,37506,1,0,0:0:0:0:
329,192,37832,1,8,0:0:0:0:
402,192,37832,128,4,39137:0:0:0:0:
182,192,38158,1,8,0:0:0:0:
36,192,38484,1,8,0:0:0:0:
182,192,38810,1,8,0:0:0:0:
109,192,39137,128,8,40441:0:0:0:0:
329,192,39137,1,0,0:0:0:0:
475,192,39463,1,2,0:0:0:0:
256,192,39463,1,0,0:0:0:0:
329,192,39789,1,8,0:0:0:0:
182,192,40115,1,8,0:0:0:0:
329,192,40441,128,8,41419:0:0:0:0:
402,192,40441,1,0,0:0:0:0:
256,192,40767,1,8,0:0:0:0:
109,192,41093,1,8,0:0:0:0:
475,192,41419,1,2,0:0:0:0:
182,192,41419,1,0,0:0:0:0:
109,192,41745,1,8,0:0:0:0:
329,192,41908,1,2,0:0:0:0:
402,192,41908,1,0,0:0:0:0:
36,192,42071,1,8,0:0:0:0:
182,192,42397,1,8,0:0:0:0:
329,192,42560,1,8,0:0:0:0:
475,192,42724,128,2,43050:0:0:0:0:
256,192,43050,1,4,0:0:0:0:
109,192,43050,1,8,0:0:0:0:
402,192,43376,1,2,0:0:0:0:
475,192,43376,1,0,0:0:0:0:
36,192,43702,1,8,0:0:0:0:
182,192,43865,1,0,0:0:0:0:
402,192,44028,1,2,0:0:0:0:
475,192,44028,1,0,0:0:0:0:
182,192,44354,1,8,0:0:0:0:
36,192,44517,1,0,0:0:0:0:
402,192,44680,1,2,0:0:0:0:
475,192,44680,1,0,0:0:0:0:
36,192,45006,1,8,0:0:0:0:
182,192,45169,1,0,0:0:0:0:
402,192,45332,1,2,0:0:0:0:
475,192,45332,1,0,0:0:0:0:
329,192,45658,1,8,0:0:0:0:
182,192,45658,1,0,0:0:0:0:
109,192,45984,1,2,0:0:0:0:
36,192,45984,1,0,0:0:0:0:
475,192,46310,1,8,0:0:0:0:
329,192,46474,1,0,0:0:0:0:
109,192,46637,1,2,0:0:0:0:
36,192,46637,1,0,0:0:0:0:
182,192,46963,1,8,0:0:0:0:
329,192,46963,1,0,0:0:0:0:
402,192,47289,1,2,0:0:0:0:
475,192,47289,1,0,0:0:0:0:
256,192,47452,1,0,0:0:0:0:
109,192,47615,128,8,47941:0:0:0:0:
329,192,47941,128,2,48267:0:0:0:0:
475,192,48267,128,12,49571:0:0:0:0:
182,192,48267,1,0,0:0:0:0:
36,192,48593,1,2,0:0:0:0:
109,192,48593,1,0,0:0:0:0:
329,192,48756,1,8,0:0:0:0:
329,192,49082,1,8,0:0:0:0:
109,192,49245,1,2,0:0:0:0:
36,192,49245,1,0,0:0:0:0:
182,192,49571,128,12,50550:0:0:0:0:
256,192,49571,1,0,0:0:0:0:
402,192,49897,1,2,0:0:0:0:
475,192,49897,1,0,0:0:0:0:
36,192,50060,1,8,0:0:0:0:
36,192,50387,1,8,0:0:0:0:
402,192,50550,1,2,0:0:0:0:
475,192,50550,1,0,0:0:0:0:
36,192,50876,1,12,0:0:0:0:
256,192,50876,1,0,0:0:0:0:
109,192,51202,1,2,0:0:0:0:
475,192,51365,1,8,0:0:0:0:
182,192,51528,1,8,0:0:0:0:
329,192,51691,1,8,0:0:0:0:
36,192,51854,1,2,0:0:0:0:
109,192,51854,1,0,0:0:0:0:
402,192,52180,1,8,0:0:0:0:
109,192,52343,1,0,0:0:0:0:
402,192,52506,1,8,0:0:0:0:
109,192,52669,1,8,0:0:0:0:
256,192,52832,128,2,53484:0:0:0:0:
329,192,53484,1,2,0:0:0:0:
475,192,53484,1,0,0:0:0:0:
36,192,53810,1,2,0:0:0:0:
109,192,53810,1,0,0:0:0:0:
402,192,53974,1,2,0:0:0:0:
475,192,53974,1,0,0:0:0:0:
182,192,54137,1,8,0:0:0:0:
256,192,54300,1,8,0:0:0:0:
329,192,54463,1,2,0:0:0:0:
402,192,54463,1,0,0:0:0:0:
109,192,54626,1,8,0:0:0:0:
329,192,54952,1,8,0:0:0:0:
256,192,55115,1,2,0:0:0:0:
182,192,55278,1,0,0:0:0:0:
402,192,55441,1,8,0:0:0:0:
329,192,55604,1,8,0:0:0:0:
36,192,55767,1,2,0:0:0:0:
109,192,55930,1,0,0:0:0:0:
182,192,56093,1,0,0:0:0:0:
475,192,56093,1,0,0:0:0:0:
402,192,56419,1,2,0:0:0:0:
475,192,56419,1,0,0:0:0:0:
109,192,56582,1,2,0:0:0:0:
36,192,56582,1,0,0:0:0:0:
329,192,56745,1,8,0:0:0:0:
256,192,56908,1,8,0:0:0:0:
182,192,57071,1,2,0:0:0:0:
36,192,57071,1,0,0:0:0:0:
475,192,57234,1,8,0:0:0:0:
182,192,57560,1,8,0:0:0:0:
329,192,57724,1,2,0:0:0:0:
475,192,57887,1,2,0:0:0:0:
109,192,58050,1,8,0:0:0:0:
256,192,58213,1,8,0:0:0:0:
402,192,58376,1,2,0:0:0:0:
182,192,58539,1,2,0:0:0:0:
36,192,58702,1,2,0:0:0:0:
475,192,58702,1,0,0:0:0:0:
402,192,59028,1,2,0:0:0:0:
109,192,59028,1,0,0:0:0:0:
182,192,59191,1,2,0:0:0:0:
329,192,59191,1,0,0:0:0:0:
36,192,59354,1,8,0:0:0:0:
109,192,59517,1,0,0:0:0:0:
182,192,59680,1,2,0:0:0:0:
329,192,59680,1,0,0:0:0:0:
475,192,59843,128,8,60332:0:0:0:0:
329,192,60332,128,2,60658:0:0:0:0:
182,192,60658,128,8,60984:0:0:0:0:
36,192,60984,128,2,61310:0:0:0:0:
475,192,61310,1,2,0:0:0:0:
402,192,61310,1,0,0:0:0:0:
402,192,61637,1,2,0:0:0:0:
475,192,61637,1,0,0:0:0:0:
402,192,61963,1,2,0:0:0:0:
475,192,61963,1,0,0:0:0:0:
182,192,62289,1,2,0:0:0:0:
329,192,62289,1,0,0:0:0:0:
182,192,62615,1,2,0:0:0:0:
329,192,62615,1,0,0:0:0:0:
109,192,62941,1,2,0:0:0:0:
36,192,62941,1,0,0:0:0:0:
109,192,63267,1,2,0:0:0:0:
36,192,63267,1,0,0:0:0:0:
402,192,63593,128,8,63919:0:0:0:0:
36,192,63919,128,4,64245:0:0:0:0:
182,192,63919,1,2,0:0:0:0:
329,192,64245,1,2,0:0:0:0:
182,192,64408,128,4,64734:0:0:0:0:
36,192,64408,1,0,0:0:0:0:
475,192,64734,1,8,0:0:0:0:
329,192,64897,128,4,65224:0:0:0:0:
182,192,64897,1,0,0:0:0:0:
36,192,65224,1,0,0:0:0:0:
182,192,65224,1,0,0:0:0:0:
256,192,65550,1,4,0:0:0:0:
109,192,65550,1,8,0:0:0:0:
182,192,65876,1,8,0:0:0:0:
329,192,65876,1,4,0:0:0:0:
256,192,66202,1,8,0:0:0:0:
402,192,66202,1,4,0:0:0:0:
36,192,66528,1,4,0:0:0:0:
475,192,66528,128,8,66854:0:0:0:0:
182,192,66854,1,2,0:0:0:0:
329,192,66854,1,0,0:0:0:0:
109,192,67180,128,8,67832:0:0:0:0:
402,192,67180,1,0,0:0:0:0:
329,192,67343,1,8,0:0:0:0:
475,192,67506,1,2,0:0:0:0:
182,192,67832,1,0,0:0:0:0:
256,192,67995,1,8,0:0:0:0:
329,192,68158,1,2,0:0:0:0:
475,192,68158,1,0,0:0:0:0:
329,192,68484,1,8,0:0:0:0:
256,192,68647,1,8,0:0:0:0:
182,192,68810,1,2,0:0:0:0:
36,192,68810,1,0,0:0:0:0:
329,192,68974,1,8,0:0:0:0:
109,192,69137,1,0,0:0:0:0:
256,192,69300,1,8,0:0:0:0:
402,192,69463,1,2,0:0:0:0:
475,192,69463,1,0,0:0:0:0:
402,192,69789,1,8,0:0:0:0:
256,192,69952,1,8,0:0:0:0:
36,192,70115,1,2,0:0:0:0:
109,192,70115,1,0,0:0:0:0:
182,192,70441,1,0,0:0:0:0:
475,192,70767,1,2,0:0:0:0:
329,192,71093,1,8,0:0:0:0:
182,192,71419,1,2,0:0:0:0:
36,192,71745,128,0,73050:0:0:0:0:
475,192,72071,1,2,0:0:0:0:
182,192,72397,1,8,0:0:0:0:
402,192,72560,1,8,0:0:0:0:
109,192,72724,1,2,0:0:0:0:
256,192,73050,128,8,74354:0:0:0:0:
402,192,73050,1,0,0:0:0:0:
109,192,73213,1,8,0:0:0:0:
475,192,73376,1,2,0:0:0:0:
109,192,73702,1,8,0:0:0:0:
402,192,73865,1,8,0:0:0:0:
36,192,74028,1,2,0:0:0:0:
475,192,74354,128,8,75332:0:0:0:0:
182,192,74354,1,0,0:0:0:0:
329,192,74680,1,2,0:0:0:0:
109,192,75006,1,8,0:0:0:0:
182,192,75169,1,8,0:0:0:0:
256,192,75332,1,2,0:0:0:0:
402,192,75332,1,0,0:0:0:0:
36,192,75495,1,8,0:0:0:0:
182,192,75658,1,0,0:0:0:0:
329,192,75821,1,8,0:0:0:0:
475,192,75984,1,2,0:0:0:0:
256,192,76147,1,0,0:0:0:0:
402,192,76310,1,8,0:0:0:0:
182,192,76474,1,8,0:0:0:0:
329,192,76637,1,2,0:0:0:0:
109,192,76800,1,0,0:0:0:0:
256,192,76963,1,4,0:0:0:0:
475,192,76963,1,8,0:0:0:0:
109,192,77289,1,2,0:0:0:0:
36,192,77289,1,0,0:0:0:0:
329,192,77615,1,8,0:0:0:0:
182,192,77778,1,8,0:0:0:0:
402,192,77941,1,2,0:0:0:0:
475,192,77941,1,0,0:0:0:0:
182,192,78104,1,0,0:0:0:0:
182,192,78430,1,8,0:0:0:0:
402,192,78593,1,2,0:0:0:0:
475,192,78593,1,0,0:0:0:0:
256,192,78919,1,8,0:0:0:0:
109,192,79245,1,2,0:0:0:0:
36,192,79245,1,0,0:0:0:0:
256,192,79408,1,8,0:0:0:0:
402,192,79571,1,0,0:0:0:0:
182,192,79734,1,8,0:0:0:0:
329,192,79897,1,2,0:0:0:0:
475,192,79897,1,0,0:0:0:0:
109,192,80224,1,8,0:0:0:0:
182,192,80387,1,8,0:0:0:0:
256,192,80550,1,2,0:0:0:0:
329,192,80713,128,8,81854:0:0:0:0:
109,192,81039,1,8,0:0:0:0:
475,192,81202,1,2,0:0:0:0:
36,192,81528,1,8,0:0:0:0:
109,192,81691,1,8,0:0:0:0:
182,192,81854,1,2,0:0:0:0:
475,192,81854,1,0,0:0:0:0:
402,192,82180,1,8,0:0:0:0:
402,192,82506,1,8,0:0:0:0:
36,192,82832,1,2,0:0:0:0:
182,192,82832,1,0,0:0:0:0:
402,192,83158,1,8,0:0:0:0:
36,192,83321,1,2,0:0:0:0:
182,192,83321,1,0,0:0:0:0:
402,192,83484,1,0,0:0:0:0:
182,192,83647,1,2,0:0:0:0:
36,192,83647,1,0,0:0:0:0:
402,192,83810,1,8,0:0:0:0:
475,192,84137,1,2,0:0:0:0:
36,192,84137,1,0,0:0:0:0:
256,192,84463,1,8,0:0:0:0:
402,192,84789,1,8,0:0:0:0:
109,192,84789,1,0,0:0:0:0:
109,192,85115,1,0,0:0:0:0:
329,192,85441,1,8,0:0:0:0:
475,192,85441,1,2,0:0:0:0:
109,192,85767,1,8,0:0:0:0:
329,192,85930,1,2,0:0:0:0:
475,192,85930,1,0,0:0:0:0:
109,192,86093,1,8,0:0:0:0:
475,192,86256,1,2,0:0:0:0:
329,192,86256,1,0,0:0:0:0:
109,192,86419,1,8,0:0:0:0:
256,192,86745,128,2,87397:0:0:0:0:
475,192,87397,1,4,0:0:0:0:
36,192,87397,1,0,0:0:0:0:
475,192,87724,1,2,0:0:0:0:
36,192,87724,1,0,0:0:0:0:
109,192,88050,1,8,0:0:0:0:
256,192,88050,1,0,0:0:0:0:
256,192,88376,1,2,0:0:0:0:
109,192,88376,1,0,0:0:0:0:
475,192,88702,1,8,0:0:0:0:
329,192,88702,1,0,0:0:0:0:
329,192,89028,1,2,0:0:0:0:
475,192,89028,1,0,0:0:0:0:
36,192,89354,1,8,0:0:0:0:
182,192,89354,1,0,0:0:0:0:
36,192,89680,1,2,0:0:0:0:
182,192,89680,1,0,0:0:0:0:
402,192,90006,1,8,0:0:0:0:
475,192,90006,1,0,0:0:0:0:
402,192,90332,1,2,0:0:0:0:
475,192,90332,1,0,0:0:0:0:
109,192,90658,1,8,0:0:0:0:
36,192,90658,1,0,0:0:0:0:
109,192,90984,1,2,0:0:0:0:
36,192,90984,1,0,0:0:0:0:
475,192,91310,1,0,0:0:0:0:
256,192,91310,1,8,0:0:0:0:
475,192,91637,1,2,0:0:0:0:
256,192,91637,1,0,0:0:0:0:
36,192,91963,128,8,92126:0:0:0:0:
182,192,92126,128,0,92289:0:0:0:0:
475,192,92289,128,2,92452:0:0:0:0:
329,192,92452,128,0,92615:0:0:0:0:
182,192,92615,1,8,0:0:0:0:
36,192,92615,1,4,0:0:0:0:
182,192,92941,1,2,0:0:0:0:
36,192,92941,1,0,0:0:0:0:
475,192,93267,1,8,0:0:0:0:
329,192,93267,1,0,0:0:0:0:
329,192,93593,1,2,0:0:0:0:
475,192,93593,1,0,0:0:0:0:
182,192,93919,1,8,0:0:0:0:
109,192,93919,1,0,0:0:0:0:
182,192,94245,1,2,0:0:0:0:
109,192,94245,1,0,0:0:0:0:
329,192,94571,1,8,0:0:0:0:
402,192,94571,1,0,0:0:0:0:
402,192,94897,1,2,0:0:0:0:
329,192,94897,1,0,0:0:0:0:
182,192,95224,1,8,0:0:0:0:
36,192,95224,1,0,0:0:0:0:
475,192,95550,1,2,0:0:0:0:
329,192,95550,1,0,0:0:0:0:
402,192,95876,1,8,0:0:0:0:
256,192,95876,1,0,0:0:0:0:
329,192,96202,1,2,0:0:0:0:
182,192,96202,1,0,0:0:0:0:
256,192,96528,1,2,0:0:0:0:
109,192,96528,1,0,0:0:0:0:
182,192,96854,128,6,97180:0:0:0:0:
475,192,96854,1,8,0:0:0:0:
109,192,97180,128,6,97506:0:0:0:0:
402,192,97180,1,8,0:0:0:0:
36,192,97506,128,12,97832:0:0:0:0:
329,192,97506,1,2,0:0:0:0:
256,192,97832,1,0,0:0:0:0:
109,192,98158,1,0,0:0:0:0:
329,192,98484,128,0,98974:0:0:0:0:
182,192,98974,1,0,0:0:0:0:
402,192,99137,128,0,99626:0:0:0:0:
329,192,99626,1,0,0:0:0:0:
475,192,99789,1,0,0:0:0:0:
329,192,99952,1,0,0:0:0:0:
182,192,100115,1,0,0:0:0:0:
36,192,100278,1,0,0:0:0:0:
475,192,100441,1,0,0:0:0:0:
256,192,100767,1,0,0:0:0:0:
109,192,101093,128,0,101582:0:0:0:0:
329,192,101582,1,0,0:0:0:0:
182,192,101745,128,0,102234:0:0:0:0:
402,192,102234,1,0,0:0:0:0:
329,192,102397,1,0,0:0:0:0:
256,192,102560,1,0,0:0:0:0:
182,192,102724,1,8,0:0:0:0:
36,192,102724,1,0,0:0:0:0:
329,192,102887,128,8,108919:0:0:0:0:
475,192,102887,128,4,108919:0:0:0:0:
