osu file format v14

[General]
AudioFilename: audio.mp3
AudioLeadIn: 0
PreviewTime: 65550
Countdown: 0
SampleSet: Soft
StackLeniency: 0.7
Mode: 3
LetterboxInBreaks: 0
SpecialStyle: 0
WidescreenStoryboard: 0

[Editor]
Bookmarks: 87724
DistanceSpacing: 0.5
BeatDivisor: 4
GridSize: 32
TimelineZoom: 1.1

[Metadata]
Title:Yuki no Youni
TitleUnicode:雪のように
Artist:AKINO with bless4
ArtistUnicode:AKINO with bless4
Creator:Maxus
Version:CS' 7K Angelic Angel
Source:
Tags:2nd album decennia short ver Critical_Star Dellvangel
BeatmapID:1126816
BeatmapSetID:531713

[Difficulty]
HPDrainRate:8.5
CircleSize:7
OverallDifficulty:8.5
ApproachRate:5
SliderMultiplier:1.4
SliderTickRate:1

[Events]
//Background and Video events
0,0,"konachan191851 .jpg",0,0
//Break Periods
//Storyboard Layer 0 (Background)
//Storyboard Layer 1 (Fail)
//Storyboard Layer 2 (Pass)
//Storyboard Layer 3 (Foreground)
//Storyboard Sound Samples

[TimingPoints]
1311,326.086956521739,4,2,1,40,1,0
10930,-100,4,2,1,50,0,0
66528,-100,4,2,1,50,0,1
75495,-100,4,2,1,50,0,0
76963,-100,4,2,1,50,0,1
82180,-100,4,2,1,50,0,0

[HitObjects]
36,192,1311,128,0,1963:0:0:0:0:
182,192,1637,1,0,0:0:0:0:
329,192,1800,1,0,0:0:0:0:
475,192,1963,128,0,2615:0:0:0:0:
329,192,2289,1,0,0:0:0:0:
182,192,2452,1,0,0:0:0:0:
36,192,2615,128,0,3267:0:0:0:0:
182,192,2941,1,0,0:0:0:0:
329,192,3104,1,0,0:0:0:0:
475,192,3267,128,0,3919:0:0:0:0:
329,192,3593,1,0,0:0:0:0:
182,192,3756,1,0,0:0:0:0:
36,192,3919,128,0,4408:0:0:0:0:
182,192,4082,128,0,4571:0:0:0:0:
329,192,4245,128,0,4734:0:0:0:0:
475,192,4408,128,0,4897:0:0:0:0:
36,192,4571,128,0,5060:0:0:0:0:
182,192,4734,128,0,5224:0:0:0:0:
329,192,4897,128,0,5387:0:0:0:0:
475,192,5060,128,0,5550:0:0:0:0:
36,192,5224,1,0,0:0:0:0:
182,192,5387,1,0,0:0:0:0:
329,192,5550,1,0,0:0:0:0:
475,192,5713,1,0,0:0:0:0:
109,192,5876,128,0,6528:0:0:0:0:
256,192,6039,128,0,6528:0:0:0:0:
402,192,6202,128,0,6528:0:0:0:0:
475,192,6528,128,0,7832:0:0:0:0:
36,192,6528,1,0,0:0:0:0:
109,192,6854,1,0,0:0:0:0:
182,192,7017,1,0,0:0:0:0:
329,192,7180,1,0,0:0:0:0:
109,192,7506,1,0,0:0:0:0:
329,192,7669,1,0,0:0:0:0:
256,192,7832,128,0,8810:0:0:0:0:
402,192,8158,1,0,0:0:0:0:
329,192,8321,1,0,0:0:0:0:
109,192,8484,1,0,0:0:0:0:
182,192,8810,128,0,8974:0:0:0:0:
329,192,8810,1,0,0:0:0:0:
109,192,8974,128,0,9137:0:0:0:0:
475,192,9137,1,0,0:0:0:0:
36,192,9137,128,0,10441:0:0:0:0:
329,192,9300,1,0,0:0:0:0:
109,192,9463,1,0,0:0:0:0:
182,192,9626,1,0,0:0:0:0:
475,192,9789,1,0,0:0:0:0:
329,192,9952,1,0,0:0:0:0:
109,192,10115,1,0,0:0:0:0:
182,192,10278,1,0,0:0:0:0:
475,192,10441,1,0,0:0:0:0:
36,192,10604,1,0,0:0:0:0:
182,192,10685,1,0,0:0:0:0:
329,192,10767,1,0,0:0:0:0:
475,192,10849,1,0,0:0:0:0:
109,192,10930,1,8,0:0:0:0:
402,192,10930,1,0,0:0:0:0:
182,192,11012,1,0,0:0:0:0:
329,192,11012,1,8,0:0:0:0:
475,192,11093,1,2,0:0:0:0:
256,192,11093,1,0,0:0:0:0:
36,192,11093,1,0,0:0:0:0:
36,192,11419,1,0,0:0:0:0:
109,192,11460,1,0,0:0:0:0:
182,192,11501,1,0,0:0:0:0:
256,192,11541,1,0,0:0:0:0:
475,192,11582,1,0,0:0:0:0:
402,192,11623,1,0,0:0:0:0:
329,192,11664,1,0,0:0:0:0:
256,192,11705,1,0,0:0:0:0:
36,192,11745,128,12,13050:0:0:0:0:
182,192,11745,1,0,0:0:0:0:
109,192,11745,1,0,0:0:0:0:
182,192,12397,1,0,0:0:0:0:
329,192,12397,128,0,13050:0:0:0:0:
475,192,12397,1,0,0:0:0:0:
182,192,13050,128,8,14354:0:0:0:0:
475,192,13050,1,4,0:0:0:0:
402,192,13050,1,0,0:0:0:0:
256,192,13050,1,0,0:0:0:0:
109,192,13213,1,8,0:0:0:0:
36,192,13213,1,0,0:0:0:0:
109,192,13539,1,8,0:0:0:0:
36,192,13539,1,0,0:0:0:0:
475,192,13702,128,0,14354:0:0:0:0:
402,192,13702,1,0,0:0:0:0:
36,192,13865,1,8,0:0:0:0:
109,192,13865,1,0,0:0:0:0:
109,192,14028,1,8,0:0:0:0:
36,192,14028,1,0,0:0:0:0:
329,192,14354,128,8,15658:0:0:0:0:
256,192,14354,1,4,0:0:0:0:
36,192,14354,1,0,0:0:0:0:
109,192,14354,1,0,0:0:0:0:
109,192,14843,1,2,0:0:0:0:
182,192,14843,1,0,0:0:0:0:
475,192,14843,1,0,0:0:0:0:
109,192,15006,1,2,0:0:0:0:
182,192,15006,128,0,15658:0:0:0:0:
475,192,15006,1,0,0:0:0:0:
475,192,15658,128,4,16963:0:0:0:0:
402,192,15658,1,8,0:0:0:0:
36,192,15658,1,0,0:0:0:0:
256,192,15658,1,0,0:0:0:0:
329,192,15821,1,2,0:0:0:0:
182,192,15821,1,0,0:0:0:0:
36,192,15821,1,0,0:0:0:0:
256,192,16147,1,0,0:0:0:0:
182,192,16229,1,0,0:0:0:0:
36,192,16310,128,0,16963:0:0:0:0:
109,192,16310,1,0,0:0:0:0:
329,192,16474,1,2,0:0:0:0:
402,192,16474,1,0,0:0:0:0:
256,192,16637,1,8,0:0:0:0:
109,192,16637,1,0,0:0:0:0:
256,192,16800,1,8,0:0:0:0:
109,192,16800,1,0,0:0:0:0:
329,192,16963,128,4,18267:0:0:0:0:
182,192,16963,1,8,0:0:0:0:
109,192,16963,1,0,0:0:0:0:
402,192,16963,1,0,0:0:0:0:
36,192,17615,128,0,17941:0:0:0:0:
402,192,17615,1,0,0:0:0:0:
475,192,17941,128,8,18267:0:0:0:0:
182,192,17941,1,0,0:0:0:0:
109,192,17941,1,0,0:0:0:0:
182,192,18267,128,4,19571:0:0:0:0:
109,192,18267,1,8,0:0:0:0:
36,192,18267,1,0,0:0:0:0:
256,192,18267,1,0,0:0:0:0:
402,192,18756,1,8,0:0:0:0:
475,192,18756,1,0,0:0:0:0:
36,192,18919,128,0,19571:0:0:0:0:
256,192,18919,1,0,0:0:0:0:
402,192,19082,1,8,0:0:0:0:
475,192,19082,1,0,0:0:0:0:
402,192,19245,1,8,0:0:0:0:
475,192,19245,1,0,0:0:0:0:
329,192,19571,1,4,0:0:0:0:
475,192,19571,1,8,0:0:0:0:
109,192,19571,1,0,0:0:0:0:
36,192,19897,128,0,20876:0:0:0:0:
182,192,19897,1,0,0:0:0:0:
109,192,20224,128,4,20876:0:0:0:0:
256,192,20224,1,0,0:0:0:0:
402,192,20224,1,0,0:0:0:0:
475,192,20224,1,0,0:0:0:0:
182,192,20550,128,8,20876:0:0:0:0:
329,192,20550,1,0,0:0:0:0:
402,192,20550,1,0,0:0:0:0:
475,192,20876,128,4,21202:0:0:0:0:
256,192,20876,1,8,0:0:0:0:
402,192,20876,1,0,0:0:0:0:
109,192,21039,1,8,0:0:0:0:
36,192,21039,1,0,0:0:0:0:
329,192,21202,128,4,21528:0:0:0:0:
256,192,21202,1,8,0:0:0:0:
182,192,21202,1,0,0:0:0:0:
475,192,21365,1,8,0:0:0:0:
36,192,21365,1,0,0:0:0:0:
182,192,21528,128,2,21854:0:0:0:0:
109,192,21528,1,4,0:0:0:0:
402,192,21528,1,0,0:0:0:0:
256,192,21691,1,8,0:0:0:0:
329,192,21772,1,8,0:0:0:0:
475,192,21854,1,4,0:0:0:0:
36,192,21854,128,8,22180:0:0:0:0:
402,192,21854,1,0,0:0:0:0:
329,192,22017,1,8,0:0:0:0:
256,192,22099,1,8,0:0:0:0:
182,192,22180,1,4,0:0:0:0:
109,192,22180,1,8,0:0:0:0:
475,192,22180,1,0,0:0:0:0:
402,192,22180,1,0,0:0:0:0:
475,192,22506,128,2,22669:0:0:0:0:
329,192,22506,128,0,22669:0:0:0:0:
256,192,22506,1,0,0:0:0:0:
36,192,22506,1,0,0:0:0:0:
109,192,22669,1,0,0:0:0:0:
329,192,22832,128,8,22995:0:0:0:0:
475,192,22832,128,0,22995:0:0:0:0:
182,192,22832,128,0,23158:0:0:0:0:
36,192,22832,1,0,0:0:0:0:
329,192,23158,128,2,23321:0:0:0:0:
475,192,23158,128,0,23321:0:0:0:0:
36,192,23158,1,0,0:0:0:0:
109,192,23158,1,0,0:0:0:0:
182,192,23321,1,0,0:0:0:0:
329,192,23484,128,8,23647:0:0:0:0:
475,192,23484,128,0,23647:0:0:0:0:
36,192,23484,128,0,23810:0:0:0:0:
256,192,23484,1,0,0:0:0:0:
475,192,23810,128,2,23974:0:0:0:0:
329,192,23810,128,0,23974:0:0:0:0:
109,192,23810,1,0,0:0:0:0:
256,192,23810,1,0,0:0:0:0:
182,192,23974,1,0,0:0:0:0:
36,192,24137,128,0,24300:0:0:0:0:
329,192,24137,128,8,24300:0:0:0:0:
475,192,24137,128,0,24300:0:0:0:0:
182,192,24300,128,0,24463:0:0:0:0:
329,192,24463,128,2,24626:0:0:0:0:
475,192,24463,128,0,24626:0:0:0:0:
109,192,24463,128,0,24626:0:0:0:0:
256,192,24463,1,0,0:0:0:0:
182,192,24626,128,0,24789:0:0:0:0:
329,192,24789,128,8,24952:0:0:0:0:
475,192,24789,128,0,24952:0:0:0:0:
36,192,24789,128,0,25115:0:0:0:0:
109,192,24789,1,0,0:0:0:0:
329,192,25115,128,2,25278:0:0:0:0:
475,192,25115,128,0,25278:0:0:0:0:
256,192,25115,1,0,0:0:0:0:
109,192,25115,1,0,0:0:0:0:
182,192,25278,1,0,0:0:0:0:
329,192,25441,128,8,25604:0:0:0:0:
475,192,25441,128,0,25604:0:0:0:0:
109,192,25441,128,0,25767:0:0:0:0:
36,192,25441,1,0,0:0:0:0:
475,192,25767,128,2,25930:0:0:0:0:
329,192,25767,128,0,25930:0:0:0:0:
36,192,25767,1,0,0:0:0:0:
182,192,25767,1,0,0:0:0:0:
256,192,25930,1,0,0:0:0:0:
329,192,26093,128,8,26256:0:0:0:0:
475,192,26093,128,0,26256:0:0:0:0:
182,192,26093,128,0,26419:0:0:0:0:
109,192,26093,1,0,0:0:0:0:
329,192,26419,128,2,26582:0:0:0:0:
475,192,26419,128,0,26582:0:0:0:0:
36,192,26419,1,0,0:0:0:0:
109,192,26419,1,0,0:0:0:0:
256,192,26582,1,0,0:0:0:0:
182,192,26745,128,8,27071:0:0:0:0:
329,192,26745,128,0,27071:0:0:0:0:
36,192,26908,128,0,27071:0:0:0:0:
475,192,26908,128,0,27071:0:0:0:0:
109,192,27071,128,0,27397:0:0:0:0:
402,192,27071,128,2,27397:0:0:0:0:
182,192,27234,128,0,27397:0:0:0:0:
329,192,27234,128,0,27397:0:0:0:0:
256,192,27397,1,4,0:0:0:0:
36,192,27397,1,8,0:0:0:0:
475,192,27397,1,0,0:0:0:0:
182,192,27724,128,2,27887:0:0:0:0:
36,192,27724,128,0,27887:0:0:0:0:
256,192,27724,1,0,0:0:0:0:
475,192,27724,1,0,0:0:0:0:
329,192,27887,1,0,0:0:0:0:
36,192,28050,128,8,28213:0:0:0:0:
182,192,28050,128,0,28213:0:0:0:0:
402,192,28050,128,0,28376:0:0:0:0:
475,192,28050,1,0,0:0:0:0:
182,192,28376,128,2,28539:0:0:0:0:
36,192,28376,128,0,28539:0:0:0:0:
256,192,28376,1,0,0:0:0:0:
475,192,28376,1,0,0:0:0:0:
402,192,28539,1,0,0:0:0:0:
182,192,28702,128,8,28865:0:0:0:0:
36,192,28702,128,0,28865:0:0:0:0:
329,192,28702,128,0,29028:0:0:0:0:
475,192,28702,1,0,0:0:0:0:
182,192,29028,128,2,29191:0:0:0:0:
36,192,29028,128,0,29191:0:0:0:0:
402,192,29028,1,0,0:0:0:0:
475,192,29028,1,0,0:0:0:0:
329,192,29191,1,0,0:0:0:0:
182,192,29354,128,8,29517:0:0:0:0:
36,192,29354,128,0,29517:0:0:0:0:
256,192,29354,1,0,0:0:0:0:
475,192,29354,128,0,29517:0:0:0:0:
402,192,29517,128,0,29680:0:0:0:0:
182,192,29680,128,2,29843:0:0:0:0:
36,192,29680,128,0,29843:0:0:0:0:
329,192,29680,128,0,29843:0:0:0:0:
256,192,29680,1,0,0:0:0:0:
402,192,29843,128,0,30006:0:0:0:0:
182,192,30006,128,8,30169:0:0:0:0:
36,192,30006,128,0,30169:0:0:0:0:
475,192,30006,128,0,30332:0:0:0:0:
256,192,30006,1,0,0:0:0:0:
182,192,30332,128,2,30495:0:0:0:0:
36,192,30332,128,0,30495:0:0:0:0:
256,192,30332,1,0,0:0:0:0:
402,192,30332,1,0,0:0:0:0:
329,192,30495,1,0,0:0:0:0:
475,192,30658,1,2,0:0:0:0:
36,192,30658,1,0,0:0:0:0:
182,192,30658,1,0,0:0:0:0:
36,192,30821,1,2,0:0:0:0:
256,192,30821,1,0,0:0:0:0:
109,192,30903,1,2,0:0:0:0:
329,192,30903,1,0,0:0:0:0:
402,192,30984,1,2,0:0:0:0:
182,192,30984,1,0,0:0:0:0:
475,192,30984,1,0,0:0:0:0:
475,192,31147,1,2,0:0:0:0:
256,192,31147,1,0,0:0:0:0:
402,192,31229,1,2,0:0:0:0:
182,192,31229,1,0,0:0:0:0:
109,192,31310,1,2,0:0:0:0:
329,192,31310,1,0,0:0:0:0:
36,192,31310,1,0,0:0:0:0:
402,192,31637,128,4,31963:0:0:0:0:
36,192,31637,1,8,0:0:0:0:
182,192,31637,1,2,0:0:0:0:
475,192,31637,1,0,0:0:0:0:
256,192,31963,128,4,32289:0:0:0:0:
475,192,31963,1,8,0:0:0:0:
109,192,31963,1,2,0:0:0:0:
36,192,31963,1,0,0:0:0:0:
109,192,32289,128,2,32615:0:0:0:0:
402,192,32289,1,4,0:0:0:0:
475,192,32289,1,8,0:0:0:0:
36,192,32289,1,0,0:0:0:0:
329,192,32615,128,4,33919:0:0:0:0:
256,192,32615,1,8,0:0:0:0:
36,192,32615,1,0,0:0:0:0:
475,192,32615,1,0,0:0:0:0:
109,192,32778,1,0,0:0:0:0:
36,192,32941,1,8,0:0:0:0:
402,192,32941,1,0,0:0:0:0:
182,192,33104,1,0,0:0:0:0:
36,192,33267,1,8,0:0:0:0:
475,192,33267,1,0,0:0:0:0:
109,192,33430,1,0,0:0:0:0:
36,192,33593,1,2,0:0:0:0:
402,192,33593,1,0,0:0:0:0:
475,192,33593,1,0,0:0:0:0:
182,192,33756,1,0,0:0:0:0:
36,192,33919,1,8,0:0:0:0:
256,192,33919,1,0,0:0:0:0:
475,192,34082,1,0,0:0:0:0:
36,192,34245,1,8,0:0:0:0:
182,192,34245,1,0,0:0:0:0:
329,192,34408,1,0,0:0:0:0:
36,192,34571,1,8,0:0:0:0:
256,192,34571,1,0,0:0:0:0:
402,192,34734,1,0,0:0:0:0:
36,192,34897,1,8,0:0:0:0:
329,192,34897,1,0,0:0:0:0:
182,192,35060,1,0,0:0:0:0:
36,192,35224,1,8,0:0:0:0:
329,192,35224,128,0,35550:0:0:0:0:
109,192,35387,1,0,0:0:0:0:
36,192,35550,1,2,0:0:0:0:
402,192,35550,1,0,0:0:0:0:
475,192,35550,1,0,0:0:0:0:
182,192,35713,1,0,0:0:0:0:
36,192,35876,1,8,0:0:0:0:
475,192,35876,1,0,0:0:0:0:
329,192,36039,1,0,0:0:0:0:
36,192,36202,1,8,0:0:0:0:
475,192,36202,1,0,0:0:0:0:
329,192,36365,1,0,0:0:0:0:
36,192,36528,1,8,0:0:0:0:
475,192,36528,1,0,0:0:0:0:
256,192,36528,128,0,36854:0:0:0:0:
182,192,36691,1,0,0:0:0:0:
36,192,36854,1,8,0:0:0:0:
402,192,36854,128,0,37180:0:0:0:0:
182,192,37017,1,0,0:0:0:0:
36,192,37180,1,8,0:0:0:0:
329,192,37180,128,0,37506:0:0:0:0:
475,192,37180,1,0,0:0:0:0:
109,192,37343,1,0,0:0:0:0:
182,192,37506,128,2,37832:0:0:0:0:
36,192,37506,1,0,0:0:0:0:
402,192,37506,1,0,0:0:0:0:
256,192,37669,1,0,0:0:0:0:
475,192,37832,128,8,39137:0:0:0:0:
402,192,37832,1,4,0:0:0:0:
36,192,37832,1,0,0:0:0:0:
109,192,37832,1,0,0:0:0:0:
329,192,37995,1,0,0:0:0:0:
36,192,38158,1,8,0:0:0:0:
182,192,38158,1,0,0:0:0:0:
256,192,38321,1,0,0:0:0:0:
36,192,38484,1,8,0:0:0:0:
402,192,38484,1,0,0:0:0:0:
182,192,38647,1,0,0:0:0:0:
36,192,38810,1,8,0:0:0:0:
256,192,38810,128,0,39137:0:0:0:0:
109,192,38974,1,0,0:0:0:0:
329,192,39137,128,8,40441:0:0:0:0:
36,192,39137,1,0,0:0:0:0:
182,192,39300,1,0,0:0:0:0:
36,192,39463,1,2,0:0:0:0:
475,192,39463,1,0,0:0:0:0:
402,192,39463,1,0,0:0:0:0:
256,192,39626,1,0,0:0:0:0:
36,192,39789,1,8,0:0:0:0:
182,192,39789,1,0,0:0:0:0:
402,192,39952,1,0,0:0:0:0:
36,192,40115,1,8,0:0:0:0:
256,192,40115,1,0,0:0:0:0:
475,192,40278,1,0,0:0:0:0:
182,192,40441,128,8,41745:0:0:0:0:
36,192,40441,1,0,0:0:0:0:
402,192,40441,1,0,0:0:0:0:
256,192,40604,1,0,0:0:0:0:
36,192,40767,1,8,0:0:0:0:
329,192,40767,1,0,0:0:0:0:
475,192,40930,1,0,0:0:0:0:
36,192,41093,1,8,0:0:0:0:
256,192,41093,1,0,0:0:0:0:
329,192,41256,1,0,0:0:0:0:
36,192,41419,1,2,0:0:0:0:
402,192,41419,1,0,0:0:0:0:
475,192,41419,1,0,0:0:0:0:
256,192,41582,1,0,0:0:0:0:
475,192,41745,1,8,0:0:0:0:
329,192,41745,1,0,0:0:0:0:
36,192,41745,128,0,42397:0:0:0:0:
109,192,41908,1,2,0:0:0:0:
256,192,41908,1,0,0:0:0:0:
402,192,41908,1,0,0:0:0:0:
329,192,42071,1,8,0:0:0:0:
475,192,42071,1,0,0:0:0:0:
182,192,42234,1,0,0:0:0:0:
256,192,42397,128,8,43050:0:0:0:0:
475,192,42397,1,0,0:0:0:0:
109,192,42397,1,0,0:0:0:0:
402,192,42479,1,8,0:0:0:0:
329,192,42560,1,8,0:0:0:0:
182,192,42560,1,0,0:0:0:0:
109,192,42642,1,8,0:0:0:0:
475,192,42724,1,2,0:0:0:0:
402,192,42724,1,0,0:0:0:0:
36,192,42724,1,0,0:0:0:0:
109,192,42805,1,0,0:0:0:0:
182,192,42887,1,8,0:0:0:0:
329,192,42887,1,0,0:0:0:0:
402,192,42968,1,8,0:0:0:0:
475,192,43050,1,4,0:0:0:0:
109,192,43050,1,8,0:0:0:0:
36,192,43050,1,0,0:0:0:0:
182,192,43050,1,0,0:0:0:0:
475,192,43376,1,2,0:0:0:0:
329,192,43376,1,0,0:0:0:0:
36,192,43376,1,0,0:0:0:0:
256,192,43539,1,0,0:0:0:0:
109,192,43702,1,8,0:0:0:0:
402,192,43702,1,0,0:0:0:0:
329,192,43865,1,0,0:0:0:0:
182,192,44028,1,2,0:0:0:0:
36,192,44028,1,0,0:0:0:0:
475,192,44028,1,0,0:0:0:0:
256,192,44191,1,0,0:0:0:0:
402,192,44354,1,8,0:0:0:0:
109,192,44354,1,0,0:0:0:0:
182,192,44517,1,0,0:0:0:0:
475,192,44680,1,0,0:0:0:0:
36,192,44680,1,0,0:0:0:0:
329,192,44680,1,2,0:0:0:0:
256,192,44843,1,0,0:0:0:0:
109,192,45006,1,8,0:0:0:0:
402,192,45006,1,0,0:0:0:0:
182,192,45169,1,0,0:0:0:0:
329,192,45332,1,2,0:0:0:0:
36,192,45332,1,0,0:0:0:0:
475,192,45332,1,0,0:0:0:0:
256,192,45495,1,0,0:0:0:0:
475,192,45658,1,8,0:0:0:0:
36,192,45658,1,0,0:0:0:0:
182,192,45658,128,0,45984:0:0:0:0:
329,192,45658,128,0,45984:0:0:0:0:
475,192,45984,1,2,0:0:0:0:
256,192,45984,1,0,0:0:0:0:
36,192,45984,1,0,0:0:0:0:
402,192,46147,1,0,0:0:0:0:
329,192,46310,1,8,0:0:0:0:
36,192,46310,1,0,0:0:0:0:
109,192,46474,1,0,0:0:0:0:
182,192,46637,1,2,0:0:0:0:
402,192,46637,1,0,0:0:0:0:
475,192,46637,1,0,0:0:0:0:
329,192,46800,1,0,0:0:0:0:
475,192,46963,1,8,0:0:0:0:
36,192,46963,128,0,47289:0:0:0:0:
182,192,46963,128,0,47289:0:0:0:0:
256,192,46963,1,0,0:0:0:0:
402,192,47289,1,2,0:0:0:0:
329,192,47289,1,0,0:0:0:0:
109,192,47289,1,0,0:0:0:0:
256,192,47452,1,0,0:0:0:0:
475,192,47615,128,8,48267:0:0:0:0:
36,192,47615,1,0,0:0:0:0:
182,192,47778,1,0,0:0:0:0:
402,192,47941,128,2,48267:0:0:0:0:
109,192,47941,1,0,0:0:0:0:
36,192,47941,1,0,0:0:0:0:
256,192,48104,1,0,0:0:0:0:
36,192,48267,128,12,49408:0:0:0:0:
329,192,48267,1,0,0:0:0:0:
182,192,48267,1,0,0:0:0:0:
109,192,48593,1,2,0:0:0:0:
475,192,48593,1,0,0:0:0:0:
182,192,48593,1,0,0:0:0:0:
256,192,48756,1,8,0:0:0:0:
402,192,48756,1,0,0:0:0:0:
109,192,48919,128,0,49408:0:0:0:0:
329,192,48919,1,0,0:0:0:0:
256,192,49082,1,8,0:0:0:0:
402,192,49082,1,0,0:0:0:0:
475,192,49245,1,2,0:0:0:0:
182,192,49245,1,0,0:0:0:0:
329,192,49408,1,0,0:0:0:0:
256,192,49571,128,12,50713:0:0:0:0:
475,192,49571,1,0,0:0:0:0:
36,192,49571,1,0,0:0:0:0:
109,192,49571,1,0,0:0:0:0:
475,192,49897,1,2,0:0:0:0:
402,192,49897,1,0,0:0:0:0:
36,192,49897,1,0,0:0:0:0:
182,192,50060,1,8,0:0:0:0:
329,192,50060,1,0,0:0:0:0:
36,192,50224,128,0,50713:0:0:0:0:
402,192,50224,1,0,0:0:0:0:
182,192,50387,1,8,0:0:0:0:
329,192,50387,1,0,0:0:0:0:
475,192,50550,1,2,0:0:0:0:
109,192,50550,1,0,0:0:0:0:
329,192,50713,1,0,0:0:0:0:
402,192,50794,1,0,0:0:0:0:
256,192,50876,1,12,0:0:0:0:
36,192,50876,1,0,0:0:0:0:
182,192,50876,1,0,0:0:0:0:
475,192,50876,1,0,0:0:0:0:
402,192,51202,1,2,0:0:0:0:
475,192,51202,1,0,0:0:0:0:
36,192,51202,1,0,0:0:0:0:
329,192,51365,1,8,0:0:0:0:
182,192,51365,128,0,51854:0:0:0:0:
256,192,51528,1,8,0:0:0:0:
329,192,51691,1,8,0:0:0:0:
109,192,51691,1,0,0:0:0:0:
475,192,51854,1,2,0:0:0:0:
402,192,51854,1,0,0:0:0:0:
36,192,51854,1,0,0:0:0:0:
329,192,52017,1,0,0:0:0:0:
182,192,52017,1,0,0:0:0:0:
36,192,52180,1,0,0:0:0:0:
475,192,52180,1,0,0:0:0:0:
402,192,52343,1,0,0:0:0:0:
109,192,52343,1,0,0:0:0:0:
36,192,52506,1,0,0:0:0:0:
475,192,52506,1,0,0:0:0:0:
182,192,52669,1,8,0:0:0:0:
329,192,52669,1,0,0:0:0:0:
36,192,52832,1,0,0:0:0:0:
475,192,52832,1,2,0:0:0:0:
182,192,52914,1,2,0:0:0:0:
329,192,52914,1,0,0:0:0:0:
36,192,52995,1,0,0:0:0:0:
475,192,52995,1,2,0:0:0:0:
182,192,53077,1,2,0:0:0:0:
329,192,53077,1,0,0:0:0:0:
475,192,53158,1,2,0:0:0:0:
36,192,53158,1,0,0:0:0:0:
402,192,53240,1,2,0:0:0:0:
109,192,53240,1,2,0:0:0:0:
182,192,53321,1,0,0:0:0:0:
329,192,53321,1,0,0:0:0:0:
402,192,53403,1,2,0:0:0:0:
109,192,53403,1,0,0:0:0:0:
36,192,53484,1,2,0:0:0:0:
475,192,53484,1,0,0:0:0:0:
256,192,53484,1,0,0:0:0:0:
36,192,53810,128,2,53974:0:0:0:0:
109,192,53810,128,0,53974:0:0:0:0:
329,192,53810,1,0,0:0:0:0:
475,192,53810,1,0,0:0:0:0:
329,192,53974,1,2,0:0:0:0:
475,192,53974,1,0,0:0:0:0:
182,192,54137,1,8,0:0:0:0:
36,192,54137,1,0,0:0:0:0:
109,192,54300,1,8,0:0:0:0:
256,192,54300,1,0,0:0:0:0:
182,192,54463,1,2,0:0:0:0:
329,192,54463,1,0,0:0:0:0:
475,192,54463,1,0,0:0:0:0:
36,192,54626,1,8,0:0:0:0:
109,192,54626,1,0,0:0:0:0:
475,192,54626,128,0,56093:0:0:0:0:
402,192,54952,1,8,0:0:0:0:
329,192,54952,1,0,0:0:0:0:
36,192,55115,128,2,55441:0:0:0:0:
182,192,55278,128,0,55604:0:0:0:0:
329,192,55441,128,8,55767:0:0:0:0:
36,192,55604,128,8,55930:0:0:0:0:
182,192,55767,128,2,56093:0:0:0:0:
329,192,55930,128,0,56093:0:0:0:0:
402,192,56093,1,0,0:0:0:0:
109,192,56093,1,0,0:0:0:0:
36,192,56093,1,0,0:0:0:0:
36,192,56419,1,0,0:0:0:0:
402,192,56419,128,2,56582:0:0:0:0:
475,192,56419,128,0,56582:0:0:0:0:
182,192,56419,1,0,0:0:0:0:
36,192,56582,1,2,0:0:0:0:
182,192,56582,1,0,0:0:0:0:
329,192,56745,1,8,0:0:0:0:
475,192,56745,1,0,0:0:0:0:
402,192,56908,1,8,0:0:0:0:
256,192,56908,1,0,0:0:0:0:
329,192,57071,1,2,0:0:0:0:
182,192,57071,1,0,0:0:0:0:
36,192,57071,1,0,0:0:0:0:
36,192,57234,128,8,58702:0:0:0:0:
475,192,57234,1,0,0:0:0:0:
402,192,57234,1,0,0:0:0:0:
182,192,57560,1,8,0:0:0:0:
402,192,57560,1,0,0:0:0:0:
109,192,57724,1,2,0:0:0:0:
329,192,57724,1,0,0:0:0:0:
475,192,57724,1,0,0:0:0:0:
182,192,57887,1,2,0:0:0:0:
256,192,57887,1,0,0:0:0:0:
329,192,57968,1,8,0:0:0:0:
402,192,58050,1,8,0:0:0:0:
109,192,58050,1,0,0:0:0:0:
475,192,58213,1,8,0:0:0:0:
256,192,58213,1,0,0:0:0:0:
182,192,58294,1,8,0:0:0:0:
402,192,58376,1,2,0:0:0:0:
109,192,58376,1,0,0:0:0:0:
329,192,58539,1,2,0:0:0:0:
182,192,58539,1,0,0:0:0:0:
402,192,58620,1,8,0:0:0:0:
256,192,58702,1,2,0:0:0:0:
109,192,58702,1,0,0:0:0:0:
475,192,58702,1,0,0:0:0:0:
36,192,59028,128,2,59191:0:0:0:0:
182,192,59028,1,0,0:0:0:0:
475,192,59028,128,0,59191:0:0:0:0:
329,192,59028,1,0,0:0:0:0:
182,192,59191,1,2,0:0:0:0:
329,192,59191,1,0,0:0:0:0:
109,192,59354,1,8,0:0:0:0:
402,192,59354,1,0,0:0:0:0:
182,192,59517,1,0,0:0:0:0:
329,192,59517,1,0,0:0:0:0:
36,192,59680,1,2,0:0:0:0:
475,192,59680,1,0,0:0:0:0:
402,192,59680,1,0,0:0:0:0:
256,192,59843,128,8,60332:0:0:0:0:
182,192,59843,1,0,0:0:0:0:
329,192,59843,1,0,0:0:0:0:
36,192,60169,1,8,0:0:0:0:
109,192,60169,1,0,0:0:0:0:
182,192,60332,128,2,60658:0:0:0:0:
329,192,60332,128,0,60495:0:0:0:0:
475,192,60495,128,0,60658:0:0:0:0:
109,192,60658,128,8,60984:0:0:0:0:
256,192,60658,128,0,60821:0:0:0:0:
402,192,60821,128,8,60984:0:0:0:0:
36,192,60984,128,2,61310:0:0:0:0:
182,192,60984,128,0,61147:0:0:0:0:
475,192,60984,128,0,61310:0:0:0:0:
329,192,61147,128,0,61310:0:0:0:0:
402,192,61310,1,2,0:0:0:0:
109,192,61310,1,0,0:0:0:0:
182,192,61310,1,0,0:0:0:0:
256,192,61474,1,8,0:0:0:0:
182,192,61637,1,2,0:0:0:0:
109,192,61637,1,0,0:0:0:0:
402,192,61637,1,0,0:0:0:0:
256,192,61800,1,8,0:0:0:0:
182,192,61963,1,2,0:0:0:0:
109,192,61963,1,0,0:0:0:0:
402,192,61963,1,0,0:0:0:0:
329,192,62126,1,8,0:0:0:0:
475,192,62289,128,2,62452:0:0:0:0:
36,192,62289,1,0,0:0:0:0:
109,192,62289,1,0,0:0:0:0:
256,192,62452,1,8,0:0:0:0:
475,192,62615,128,2,62778:0:0:0:0:
109,192,62615,1,0,0:0:0:0:
36,192,62615,1,0,0:0:0:0:
329,192,62778,1,8,0:0:0:0:
182,192,62941,1,2,0:0:0:0:
36,192,62941,1,0,0:0:0:0:
475,192,62941,1,0,0:0:0:0:
256,192,63104,1,8,0:0:0:0:
182,192,63267,1,2,0:0:0:0:
475,192,63267,1,0,0:0:0:0:
36,192,63267,1,0,0:0:0:0:
329,192,63430,1,8,0:0:0:0:
475,192,63593,1,8,0:0:0:0:
256,192,63593,1,0,0:0:0:0:
402,192,63675,1,8,0:0:0:0:
182,192,63675,1,0,0:0:0:0:
109,192,63756,1,8,0:0:0:0:
329,192,63756,1,0,0:0:0:0:
256,192,63838,1,8,0:0:0:0:
36,192,63838,1,0,0:0:0:0:
109,192,63919,1,4,0:0:0:0:
182,192,63919,1,2,0:0:0:0:
475,192,63919,128,0,64245:0:0:0:0:
402,192,63919,128,0,64245:0:0:0:0:
36,192,64245,1,2,0:0:0:0:
182,192,64245,1,0,0:0:0:0:
256,192,64245,1,0,0:0:0:0:
329,192,64327,1,0,0:0:0:0:
36,192,64408,128,4,64734:0:0:0:0:
402,192,64408,1,0,0:0:0:0:
475,192,64408,1,0,0:0:0:0:
109,192,64408,128,0,64734:0:0:0:0:
329,192,64734,1,8,0:0:0:0:
182,192,64734,1,0,0:0:0:0:
475,192,64734,1,0,0:0:0:0:
475,192,64897,128,4,65224:0:0:0:0:
109,192,64897,1,0,0:0:0:0:
36,192,64897,1,0,0:0:0:0:
402,192,64897,128,0,65224:0:0:0:0:
109,192,65224,1,0,0:0:0:0:
36,192,65224,1,0,0:0:0:0:
256,192,65224,1,0,0:0:0:0:
182,192,65550,128,4,65876:0:0:0:0:
475,192,65550,1,8,0:0:0:0:
36,192,65550,1,0,0:0:0:0:
329,192,65550,1,0,0:0:0:0:
256,192,65876,128,8,66202:0:0:0:0:
475,192,65876,1,4,0:0:0:0:
402,192,65876,1,0,0:0:0:0:
109,192,65876,1,0,0:0:0:0:
329,192,66202,128,8,66528:0:0:0:0:
182,192,66202,1,4,0:0:0:0:
36,192,66202,1,0,0:0:0:0:
475,192,66202,1,0,0:0:0:0:
402,192,66528,128,4,67832:0:0:0:0:
36,192,66528,1,8,0:0:0:0:
256,192,66528,1,0,0:0:0:0:
475,192,66528,1,0,0:0:0:0:
109,192,66528,1,0,0:0:0:0:
182,192,66854,1,2,0:0:0:0:
329,192,66854,1,0,0:0:0:0:
36,192,66854,1,0,0:0:0:0:
109,192,67180,128,8,67832:0:0:0:0:
475,192,67180,1,0,0:0:0:0:
36,192,67180,1,0,0:0:0:0:
182,192,67343,1,8,0:0:0:0:
329,192,67343,1,0,0:0:0:0:
475,192,67506,1,2,0:0:0:0:
36,192,67506,1,0,0:0:0:0:
256,192,67506,1,0,0:0:0:0:
329,192,67669,1,0,0:0:0:0:
182,192,67669,1,0,0:0:0:0:
36,192,67832,1,0,0:0:0:0:
475,192,67832,1,0,0:0:0:0:
109,192,67995,1,8,0:0:0:0:
402,192,67995,1,0,0:0:0:0:
475,192,68158,1,2,0:0:0:0:
256,192,68158,1,0,0:0:0:0:
36,192,68158,1,0,0:0:0:0:
109,192,68484,1,8,0:0:0:0:
329,192,68484,1,0,0:0:0:0:
182,192,68647,1,8,0:0:0:0:
402,192,68647,1,0,0:0:0:0:
475,192,68810,1,2,0:0:0:0:
36,192,68810,1,0,0:0:0:0:
256,192,68810,1,0,0:0:0:0:
329,192,68974,1,8,0:0:0:0:
182,192,68974,1,0,0:0:0:0:
36,192,69137,128,0,70441:0:0:0:0:
109,192,69137,1,0,0:0:0:0:
256,192,69300,1,8,0:0:0:0:
475,192,69300,1,0,0:0:0:0:
329,192,69463,1,2,0:0:0:0:
182,192,69463,1,0,0:0:0:0:
475,192,69463,1,0,0:0:0:0:
256,192,69789,128,8,70441:0:0:0:0:
109,192,69789,1,0,0:0:0:0:
402,192,69789,1,0,0:0:0:0:
329,192,69952,1,8,0:0:0:0:
182,192,69952,1,0,0:0:0:0:
109,192,70115,1,2,0:0:0:0:
475,192,70115,1,0,0:0:0:0:
402,192,70115,1,0,0:0:0:0:
329,192,70278,1,8,0:0:0:0:
182,192,70278,1,0,0:0:0:0:
475,192,70441,1,0,0:0:0:0:
402,192,70441,1,0,0:0:0:0:
182,192,70604,1,8,0:0:0:0:
109,192,70604,1,0,0:0:0:0:
402,192,70767,128,2,70930:0:0:0:0:
256,192,70767,128,0,70930:0:0:0:0:
36,192,70767,1,0,0:0:0:0:
475,192,70767,1,0,0:0:0:0:
329,192,71093,128,8,71256:0:0:0:0:
182,192,71093,128,0,71256:0:0:0:0:
256,192,71419,128,2,71582:0:0:0:0:
109,192,71419,128,0,71582:0:0:0:0:
475,192,71419,1,0,0:0:0:0:
36,192,71419,1,0,0:0:0:0:
402,192,71582,1,8,0:0:0:0:
475,192,71745,1,0,0:0:0:0:
36,192,71745,128,0,73050:0:0:0:0:
182,192,71745,128,0,72071:0:0:0:0:
329,192,72071,1,2,0:0:0:0:
475,192,72071,1,0,0:0:0:0:
256,192,72071,1,0,0:0:0:0:
109,192,72234,128,0,72560:0:0:0:0:
402,192,72397,1,8,0:0:0:0:
475,192,72397,1,0,0:0:0:0:
329,192,72560,1,8,0:0:0:0:
182,192,72560,1,0,0:0:0:0:
256,192,72724,128,2,73050:0:0:0:0:
475,192,72724,1,0,0:0:0:0:
109,192,72724,1,0,0:0:0:0:
182,192,73050,1,8,0:0:0:0:
475,192,73050,1,0,0:0:0:0:
402,192,73050,128,0,74354:0:0:0:0:
329,192,73213,1,8,0:0:0:0:
109,192,73213,1,0,0:0:0:0:
256,192,73376,1,2,0:0:0:0:
475,192,73376,1,0,0:0:0:0:
36,192,73376,128,0,73539:0:0:0:0:
109,192,73702,128,8,73865:0:0:0:0:
475,192,73702,1,0,0:0:0:0:
182,192,73702,1,0,0:0:0:0:
329,192,73865,1,8,0:0:0:0:
256,192,73865,1,0,0:0:0:0:
182,192,74028,128,2,74191:0:0:0:0:
475,192,74028,1,0,0:0:0:0:
36,192,74028,1,0,0:0:0:0:
256,192,74354,128,8,75495:0:0:0:0:
475,192,74354,1,0,0:0:0:0:
36,192,74354,128,0,74680:0:0:0:0:
475,192,74680,1,2,0:0:0:0:
182,192,74680,1,0,0:0:0:0:
402,192,74680,1,0,0:0:0:0:
329,192,74843,1,0,0:0:0:0:
475,192,75006,128,8,75495:0:0:0:0:
36,192,75006,1,0,0:0:0:0:
109,192,75006,1,0,0:0:0:0:
182,192,75169,1,8,0:0:0:0:
329,192,75169,1,0,0:0:0:0:
109,192,75332,1,2,0:0:0:0:
36,192,75332,1,0,0:0:0:0:
402,192,75332,1,0,0:0:0:0:
329,192,75495,128,8,75658:0:0:0:0:
182,192,75495,1,0,0:0:0:0:
475,192,75658,128,0,75821:0:0:0:0:
256,192,75821,128,8,75984:0:0:0:0:
402,192,75984,128,2,76147:0:0:0:0:
36,192,75984,128,0,76310:0:0:0:0:
182,192,76147,128,0,76310:0:0:0:0:
329,192,76310,128,8,76474:0:0:0:0:
475,192,76310,128,0,76963:0:0:0:0:
109,192,76474,128,8,76637:0:0:0:0:
256,192,76637,128,2,76800:0:0:0:0:
402,192,76637,128,0,76963:0:0:0:0:
36,192,76800,128,0,76963:0:0:0:0:
182,192,76963,1,4,0:0:0:0:
109,192,76963,1,8,0:0:0:0:
329,192,76963,1,0,0:0:0:0:
475,192,77289,1,2,0:0:0:0:
402,192,77289,1,0,0:0:0:0:
36,192,77289,1,0,0:0:0:0:
182,192,77615,128,8,78267:0:0:0:0:
329,192,77615,1,0,0:0:0:0:
475,192,77615,1,0,0:0:0:0:
36,192,77778,1,8,0:0:0:0:
109,192,77778,1,0,0:0:0:0:
256,192,77941,1,2,0:0:0:0:
402,192,77941,1,0,0:0:0:0:
475,192,77941,1,0,0:0:0:0:
329,192,78104,1,0,0:0:0:0:
36,192,78104,1,0,0:0:0:0:
109,192,78267,1,0,0:0:0:0:
329,192,78430,1,8,0:0:0:0:
182,192,78430,1,0,0:0:0:0:
402,192,78593,128,2,78919:0:0:0:0:
36,192,78593,1,0,0:0:0:0:
475,192,78593,1,0,0:0:0:0:
256,192,78593,1,0,0:0:0:0:
329,192,78919,128,8,79245:0:0:0:0:
109,192,78919,1,0,0:0:0:0:
256,192,79245,128,2,79571:0:0:0:0:
475,192,79245,1,0,0:0:0:0:
36,192,79245,1,0,0:0:0:0:
109,192,79408,1,8,0:0:0:0:
402,192,79408,1,0,0:0:0:0:
182,192,79571,128,0,80224:0:0:0:0:
329,192,79571,1,0,0:0:0:0:
36,192,79734,1,8,0:0:0:0:
402,192,79734,1,0,0:0:0:0:
329,192,79897,128,2,80224:0:0:0:0:
109,192,79897,1,0,0:0:0:0:
475,192,79897,1,0,0:0:0:0:
475,192,80224,1,8,0:0:0:0:
36,192,80224,1,0,0:0:0:0:
256,192,80224,1,0,0:0:0:0:
329,192,80387,1,8,0:0:0:0:
182,192,80387,1,0,0:0:0:0:
256,192,80550,1,2,0:0:0:0:
475,192,80550,1,0,0:0:0:0:
36,192,80550,1,0,0:0:0:0:
109,192,80713,1,0,0:0:0:0:
475,192,80876,128,8,81854:0:0:0:0:
256,192,80876,1,0,0:0:0:0:
329,192,81039,1,8,0:0:0:0:
182,192,81039,1,0,0:0:0:0:
402,192,81202,1,2,0:0:0:0:
109,192,81202,1,0,0:0:0:0:
36,192,81202,128,0,81854:0:0:0:0:
109,192,81528,128,8,81854:0:0:0:0:
182,192,81528,1,0,0:0:0:0:
329,192,81528,1,0,0:0:0:0:
402,192,81691,1,8,0:0:0:0:
256,192,81691,1,0,0:0:0:0:
182,192,81854,1,0,0:0:0:0:
329,192,81854,1,2,0:0:0:0:
402,192,81854,1,0,0:0:0:0:
36,192,82180,1,8,0:0:0:0:
475,192,82180,1,0,0:0:0:0:
256,192,82180,1,0,0:0:0:0:
475,192,82506,1,8,0:0:0:0:
36,192,82506,1,0,0:0:0:0:
36,192,82832,128,0,83484:0:0:0:0:
402,192,82832,1,2,0:0:0:0:
182,192,82832,1,0,0:0:0:0:
109,192,83158,1,8,0:0:0:0:
402,192,83158,1,0,0:0:0:0:
475,192,83321,1,0,0:0:0:0:
182,192,83321,1,2,0:0:0:0:
329,192,83321,1,0,0:0:0:0:
402,192,83484,1,0,0:0:0:0:
109,192,83484,1,0,0:0:0:0:
475,192,83484,128,0,84137:0:0:0:0:
329,192,83647,1,2,0:0:0:0:
36,192,83647,1,0,0:0:0:0:
182,192,83647,1,0,0:0:0:0:
402,192,83810,1,8,0:0:0:0:
109,192,83810,1,0,0:0:0:0:
36,192,84137,128,2,84626:0:0:0:0:
402,192,84137,1,0,0:0:0:0:
402,192,84463,1,8,0:0:0:0:
475,192,84463,1,0,0:0:0:0:
329,192,84626,1,8,0:0:0:0:
109,192,84626,1,0,0:0:0:0:
402,192,84707,1,8,0:0:0:0:
182,192,84707,1,0,0:0:0:0:
475,192,84789,128,8,87397:0:0:0:0:
36,192,84789,1,0,0:0:0:0:
256,192,84789,1,0,0:0:0:0:
329,192,85115,1,0,0:0:0:0:
182,192,85115,1,0,0:0:0:0:
182,192,85441,1,8,0:0:0:0:
36,192,85441,1,2,0:0:0:0:
329,192,85441,1,0,0:0:0:0:
329,192,85767,1,8,0:0:0:0:
109,192,85767,1,0,0:0:0:0:
36,192,85930,1,2,0:0:0:0:
402,192,85930,1,0,0:0:0:0:
182,192,85930,1,0,0:0:0:0:
329,192,86093,1,8,0:0:0:0:
109,192,86093,1,0,0:0:0:0:
256,192,86256,1,2,0:0:0:0:
402,192,86256,1,0,0:0:0:0:
36,192,86256,1,0,0:0:0:0:
109,192,86419,1,8,0:0:0:0:
182,192,86419,1,0,0:0:0:0:
36,192,86745,128,2,87397:0:0:0:0:
402,192,86745,1,0,0:0:0:0:
329,192,86745,1,0,0:0:0:0:
256,192,87071,128,8,87397:0:0:0:0:
402,192,87397,1,4,0:0:0:0:
109,192,87397,1,0,0:0:0:0:
329,192,87397,1,0,0:0:0:0:
182,192,87397,1,0,0:0:0:0:
475,192,87724,128,2,87887:0:0:0:0:
36,192,87724,128,0,87887:0:0:0:0:
256,192,87724,1,2,0:0:0:0:
402,192,87724,1,0,0:0:0:0:
182,192,87887,1,0,0:0:0:0:
36,192,88050,128,0,88213:0:0:0:0:
475,192,88050,128,0,88213:0:0:0:0:
329,192,88050,128,0,88376:0:0:0:0:
109,192,88050,1,8,0:0:0:0:
475,192,88376,128,2,88539:0:0:0:0:
36,192,88376,128,0,88539:0:0:0:0:
109,192,88376,1,0,0:0:0:0:
182,192,88376,1,0,0:0:0:0:
256,192,88539,1,0,0:0:0:0:
475,192,88702,128,0,88865:0:0:0:0:
36,192,88702,128,0,88865:0:0:0:0:
182,192,88702,128,0,89028:0:0:0:0:
329,192,88702,1,8,0:0:0:0:
475,192,89028,128,0,89191:0:0:0:0:
36,192,89028,128,0,89191:0:0:0:0:
402,192,89028,1,2,0:0:0:0:
329,192,89028,1,0,0:0:0:0:
256,192,89191,1,0,0:0:0:0:
475,192,89354,128,0,89517:0:0:0:0:
36,192,89354,128,0,89517:0:0:0:0:
182,192,89354,128,8,89517:0:0:0:0:
109,192,89354,1,0,0:0:0:0:
329,192,89517,128,0,89680:0:0:0:0:
475,192,89680,128,0,89843:0:0:0:0:
36,192,89680,128,0,89843:0:0:0:0:
182,192,89680,128,2,89843:0:0:0:0:
256,192,89843,128,0,90006:0:0:0:0:
475,192,90006,128,8,90169:0:0:0:0:
36,192,90006,128,0,90169:0:0:0:0:
329,192,90006,128,0,90332:0:0:0:0:
109,192,90006,1,0,0:0:0:0:
36,192,90332,128,0,90495:0:0:0:0:
475,192,90332,128,0,90495:0:0:0:0:
109,192,90332,1,0,0:0:0:0:
182,192,90332,1,2,0:0:0:0:
256,192,90495,1,0,0:0:0:0:
475,192,90658,128,8,90821:0:0:0:0:
36,192,90658,128,0,90821:0:0:0:0:
182,192,90658,128,0,90984:0:0:0:0:
329,192,90658,1,0,0:0:0:0:
36,192,90984,128,0,91147:0:0:0:0:
475,192,90984,128,0,91147:0:0:0:0:
402,192,90984,1,0,0:0:0:0:
329,192,90984,1,2,0:0:0:0:
256,192,91147,1,0,0:0:0:0:
475,192,91310,128,0,91474:0:0:0:0:
36,192,91310,128,0,91474:0:0:0:0:
329,192,91310,128,0,91637:0:0:0:0:
182,192,91310,1,8,0:0:0:0:
36,192,91637,128,0,91800:0:0:0:0:
475,192,91637,128,0,91800:0:0:0:0:
109,192,91637,1,0,0:0:0:0:
182,192,91637,1,2,0:0:0:0:
256,192,91800,1,0,0:0:0:0:
475,192,91963,128,0,92289:0:0:0:0:
36,192,91963,128,8,92289:0:0:0:0:
329,192,92126,128,0,92289:0:0:0:0:
182,192,92126,128,0,92289:0:0:0:0:
109,192,92289,128,2,92615:0:0:0:0:
402,192,92289,128,0,92615:0:0:0:0:
182,192,92452,128,0,92615:0:0:0:0:
329,192,92452,128,0,92615:0:0:0:0:
256,192,92615,1,4,0:0:0:0:
36,192,92615,1,0,0:0:0:0:
475,192,92615,1,8,0:0:0:0:
36,192,92941,128,2,93104:0:0:0:0:
475,192,92941,128,0,93104:0:0:0:0:
256,192,92941,1,0,0:0:0:0:
109,192,92941,1,0,0:0:0:0:
329,192,93104,1,0,0:0:0:0:
475,192,93267,128,8,93430:0:0:0:0:
36,192,93267,128,0,93430:0:0:0:0:
182,192,93267,128,0,93593:0:0:0:0:
402,192,93267,1,0,0:0:0:0:
36,192,93593,128,2,93756:0:0:0:0:
475,192,93593,128,0,93756:0:0:0:0:
402,192,93593,1,0,0:0:0:0:
329,192,93593,1,0,0:0:0:0:
256,192,93756,1,0,0:0:0:0:
36,192,93919,128,8,94082:0:0:0:0:
475,192,93919,128,0,94082:0:0:0:0:
329,192,93919,128,0,94245:0:0:0:0:
182,192,93919,1,0,0:0:0:0:
36,192,94245,128,2,94408:0:0:0:0:
475,192,94245,128,0,94408:0:0:0:0:
109,192,94245,1,0,0:0:0:0:
182,192,94245,1,0,0:0:0:0:
256,192,94408,1,0,0:0:0:0:
36,192,94571,128,8,94734:0:0:0:0:
475,192,94571,128,0,94734:0:0:0:0:
402,192,94571,1,0,0:0:0:0:
329,192,94571,128,0,94734:0:0:0:0:
182,192,94734,128,0,94897:0:0:0:0:
36,192,94897,128,2,95060:0:0:0:0:
475,192,94897,128,0,95060:0:0:0:0:
256,192,94897,128,0,95060:0:0:0:0:
329,192,95060,128,0,95224:0:0:0:0:
36,192,95224,128,8,95387:0:0:0:0:
475,192,95224,128,0,95387:0:0:0:0:
182,192,95224,128,0,95550:0:0:0:0:
475,192,95550,128,2,96528:0:0:0:0:
256,192,95550,1,0,0:0:0:0:
402,192,95550,1,0,0:0:0:0:
36,192,95550,1,0,0:0:0:0:
182,192,95876,1,8,0:0:0:0:
329,192,95876,1,0,0:0:0:0:
36,192,95876,128,0,96528:0:0:0:0:
109,192,96039,1,2,0:0:0:0:
402,192,96039,1,0,0:0:0:0:
329,192,96120,1,2,0:0:0:0:
182,192,96120,1,0,0:0:0:0:
256,192,96202,128,2,96528:0:0:0:0:
109,192,96202,1,0,0:0:0:0:
402,192,96202,1,0,0:0:0:0:
182,192,96365,1,2,0:0:0:0:
329,192,96365,1,0,0:0:0:0:
109,192,96446,1,2,0:0:0:0:
402,192,96446,1,0,0:0:0:0:
329,192,96528,1,2,0:0:0:0:
182,192,96528,1,0,0:0:0:0:
402,192,96854,128,2,97180:0:0:0:0:
36,192,96854,1,8,0:0:0:0:
256,192,96854,1,4,0:0:0:0:
475,192,96854,1,0,0:0:0:0:
182,192,97180,128,4,97506:0:0:0:0:
329,192,97180,1,8,0:0:0:0:
109,192,97180,1,2,0:0:0:0:
36,192,97180,1,0,0:0:0:0:
36,192,97506,128,4,97832:0:0:0:0:
402,192,97506,1,2,0:0:0:0:
475,192,97506,1,8,0:0:0:0:
256,192,97506,1,0,0:0:0:0:
329,192,97832,128,0,97995:0:0:0:0:
182,192,97832,1,0,0:0:0:0:
402,192,97995,128,0,98158:0:0:0:0:
475,192,98158,128,0,98321:0:0:0:0:
109,192,98158,1,0,0:0:0:0:
256,192,98321,128,0,98484:0:0:0:0:
329,192,98484,128,0,98647:0:0:0:0:
36,192,98484,128,0,98974:0:0:0:0:
475,192,98647,128,0,98810:0:0:0:0:
402,192,98810,128,0,98974:0:0:0:0:
182,192,98974,1,0,0:0:0:0:
329,192,98974,128,0,99137:0:0:0:0:
109,192,99137,128,0,99626:0:0:0:0:
475,192,99137,128,0,99300:0:0:0:0:
329,192,99300,128,0,99463:0:0:0:0:
402,192,99463,128,0,99626:0:0:0:0:
36,192,99626,1,0,0:0:0:0:
475,192,99626,128,0,99789:0:0:0:0:
329,192,99789,128,0,99952:0:0:0:0:
256,192,99789,1,0,0:0:0:0:
475,192,99952,128,0,100115:0:0:0:0:
182,192,99952,1,0,0:0:0:0:
109,192,100115,1,0,0:0:0:0:
402,192,100115,128,0,100278:0:0:0:0:
36,192,100278,1,0,0:0:0:0:
329,192,100278,128,0,100441:0:0:0:0:
182,192,100441,1,0,0:0:0:0:
475,192,100441,128,0,100604:0:0:0:0:
329,192,100604,128,0,100767:0:0:0:0:
402,192,100767,128,0,100930:0:0:0:0:
36,192,100767,1,0,0:0:0:0:
256,192,100930,128,0,101093:0:0:0:0:
329,192,101093,128,0,101256:0:0:0:0:
109,192,101093,128,0,101582:0:0:0:0:
402,192,101256,128,0,101419:0:0:0:0:
475,192,101419,128,0,101582:0:0:0:0:
182,192,101582,1,0,0:0:0:0:
329,192,101582,128,0,101745:0:0:0:0:
36,192,101745,128,0,102234:0:0:0:0:
402,192,101745,128,0,101908:0:0:0:0:
329,192,101908,128,0,102071:0:0:0:0:
475,192,102071,128,0,102234:0:0:0:0:
256,192,102234,1,0,0:0:0:0:
402,192,102234,128,0,102397:0:0:0:0:
182,192,102397,1,0,0:0:0:0:
329,192,102397,128,0,102560:0:0:0:0:
109,192,102560,1,0,0:0:0:0:
256,192,102560,128,0,102724:0:0:0:0:
36,192,102724,1,8,0:0:0:0:
182,192,102724,1,0,0:0:0:0:
475,192,102724,1,0,0:0:0:0:
329,192,102724,1,0,0:0:0:0:
329,192,102887,128,8,108919:0:0:0:0:
182,192,102887,128,4,108919:0:0:0:0:
36,192,102887,128,0,108919:0:0:0:0:
475,192,102887,128,0,108919:0:0:0:0:
