osu file format v14

[General]
AudioFilename: audio.mp3
AudioLeadIn: 0
PreviewTime: 65550
Countdown: 0
SampleSet: Soft
StackLeniency: 0.7
Mode: 3
LetterboxInBreaks: 0
SpecialStyle: 0
WidescreenStoryboard: 0

[Editor]
DistanceSpacing: 0.5
BeatDivisor: 4
GridSize: 32
TimelineZoom: 2.4

[Metadata]
Title:Yuki no Youni
TitleUnicode:雪のように
Artist:AKINO with bless4
ArtistUnicode:AKINO with bless4
Creator:Maxus
Version:4K Resonance of Jingle
Source:
Tags:2nd album decennia short ver Critical_Star Dellvangel
BeatmapID:1126814
BeatmapSetID:531713

[Difficulty]
HPDrainRate:8.5
CircleSize:4
OverallDifficulty:8.5
ApproachRate:5
SliderMultiplier:1.4
SliderTickRate:1

[Events]
//Background and Video events
0,0,"1479215989801.jpg",0,0
//Break Periods
//Storyboard Layer 0 (Background)
//Storyboard Layer 1 (Fail)
//Storyboard Layer 2 (Pass)
//Storyboard Layer 3 (Foreground)
//Storyboard Sound Samples

[TimingPoints]
1311,326.086956521739,4,2,1,40,1,0
10930,-100,4,2,1,50,0,0
11745,-83.3333333333333,4,2,1,50,0,0
12234,-125,4,2,1,50,0,0
12316,-111.111111111111,4,2,1,50,0,0
12397,-100,4,2,1,50,0,0
12560,-83.3333333333333,4,2,1,50,0,0
12887,-125,4,2,1,50,0,0
12968,-111.111111111111,4,2,1,50,0,0
13050,-100,4,2,1,50,0,0
14354,-83.3333333333333,4,2,1,50,0,0
14680,-125,4,2,1,50,0,0
14762,-111.111111111111,4,2,1,50,0,0
14843,-100,4,2,1,50,0,0
15006,-83.3333333333333,4,2,1,50,0,0
15495,-125,4,2,1,50,0,0
15577,-111.111111111111,4,2,1,50,0,0
15658,-100,4,2,1,50,0,0
16963,-83.3333333333333,4,2,1,50,0,0
17452,-125,4,2,1,50,0,0
17533,-111.111111111111,4,2,1,50,0,0
17615,-100,4,2,1,50,0,0
18267,-83.3333333333333,4,2,1,50,0,0
18593,-125,4,2,1,50,0,0
18675,-111.111111111111,4,2,1,50,0,0
18756,-100,4,2,1,50,0,0
19245,-83.3333333333333,4,2,1,50,0,0
19408,-125,4,2,1,50,0,0
19490,-111.111111111111,4,2,1,50,0,0
19571,-90.9090909090909,4,2,1,50,0,0
19816,-111.111111111111,4,2,1,50,0,0
19897,-90.9090909090909,4,2,1,50,0,0
20142,-111.111111111111,4,2,1,50,0,0
20224,-90.9090909090909,4,2,1,50,0,0
20468,-111.111111111111,4,2,1,50,0,0
20550,-90.9090909090909,4,2,1,50,0,0
20794,-111.111111111111,4,2,1,50,0,0
20876,-100,4,2,1,50,0,0
31310,-80,4,2,1,50,0,0
31555,-133.333333333333,4,2,1,50,0,0
31637,-80,4,2,1,50,0,0
31881,-133.333333333333,4,2,1,50,0,0
31963,-80,4,2,1,50,0,0
32207,-133.333333333333,4,2,1,50,0,0
32289,-80,4,2,1,50,0,0
32533,-133.333333333333,4,2,1,50,0,0
32615,-100,4,2,1,50,0,0
53484,-80,4,2,1,50,0,0
53729,-133.333333333333,4,2,1,50,0,0
53810,-100,4,2,1,50,0,0
56093,-80,4,2,1,50,0,0
56338,-133.333333333333,4,2,1,50,0,0
56419,-100,4,2,1,50,0,0
58702,-80,4,2,1,50,0,0
58946,-133.333333333333,4,2,1,50,0,0
59028,-100,4,2,1,50,0,0
65224,-80,4,2,1,50,0,0
65468,-133.333333333333,4,2,1,50,0,0
65550,-80,4,2,1,50,0,0
65794,-133.333333333333,4,2,1,50,0,0
65876,-80,4,2,1,50,0,0
66120,-133.333333333333,4,2,1,50,0,0
66202,-80,4,2,1,50,0,0
66446,-133.333333333333,4,2,1,50,0,0
66528,-100,4,2,1,50,0,1
75495,-100,4,2,1,50,0,0
76963,-100,4,2,1,50,0,1
82180,-105.263157894737,4,2,1,50,0,0
86745,-95.2380952380952,4,2,1,50,0,0
87397,-100,4,2,1,50,0,0
96528,-80,4,2,1,50,0,0
96772,-133.333333333333,4,2,1,50,0,0
96854,-80,4,2,1,50,0,0
97099,-133.333333333333,4,2,1,50,0,0
97180,-80,4,2,1,50,0,0
97425,-133.333333333333,4,2,1,50,0,0
97506,-80,4,2,1,50,0,0
97751,-133.333333333333,4,2,1,50,0,0
97832,-100,4,2,1,50,0,0

[HitObjects]
64,192,1311,5,0,0:0:0:0:
192,192,1474,1,0,0:0:0:0:
320,192,1637,1,0,0:0:0:0:
64,192,1800,1,0,0:0:0:0:
192,192,1963,1,0,0:0:0:0:
320,192,2126,1,0,0:0:0:0:
64,192,2289,1,0,0:0:0:0:
192,192,2452,1,0,0:0:0:0:
448,192,2615,1,0,0:0:0:0:
320,192,2778,1,0,0:0:0:0:
192,192,2941,1,0,0:0:0:0:
448,192,3104,1,0,0:0:0:0:
320,192,3267,1,0,0:0:0:0:
192,192,3430,1,0,0:0:0:0:
448,192,3593,1,0,0:0:0:0:
320,192,3756,1,0,0:0:0:0:
64,192,3919,1,0,0:0:0:0:
448,192,4082,1,0,0:0:0:0:
192,192,4245,1,0,0:0:0:0:
64,192,4408,1,0,0:0:0:0:
448,192,4571,1,0,0:0:0:0:
192,192,4734,1,0,0:0:0:0:
64,192,4897,1,0,0:0:0:0:
448,192,5060,1,0,0:0:0:0:
192,192,5224,1,0,0:0:0:0:
64,192,5387,1,0,0:0:0:0:
448,192,5550,1,0,0:0:0:0:
320,192,5713,1,0,0:0:0:0:
64,192,5876,1,0,0:0:0:0:
448,192,6039,1,0,0:0:0:0:
192,192,6202,128,0,6528:0:0:0:0:
320,192,6202,1,0,0:0:0:0:
64,192,6365,1,0,0:0:0:0:
320,192,6528,128,0,7832:0:0:0:0:
448,192,6528,1,0,0:0:0:0:
64,192,6691,1,0,0:0:0:0:
192,192,6854,1,0,0:0:0:0:
448,192,7017,1,0,0:0:0:0:
64,192,7180,1,0,0:0:0:0:
192,192,7343,1,0,0:0:0:0:
448,192,7506,1,0,0:0:0:0:
64,192,7669,1,0,0:0:0:0:
448,192,7832,128,0,8810:0:0:0:0:
192,192,7832,1,0,0:0:0:0:
64,192,7995,1,0,0:0:0:0:
320,192,8158,1,0,0:0:0:0:
192,192,8321,1,0,0:0:0:0:
64,192,8484,1,0,0:0:0:0:
192,192,8647,1,0,0:0:0:0:
64,192,8810,128,0,8974:0:0:0:0:
320,192,8810,1,0,0:0:0:0:
192,192,8974,128,0,9137:0:0:0:0:
448,192,8974,1,0,0:0:0:0:
320,192,9137,128,0,10441:0:0:0:0:
64,192,9137,1,0,0:0:0:0:
448,192,9300,1,0,0:0:0:0:
64,192,9463,1,0,0:0:0:0:
192,192,9626,1,0,0:0:0:0:
448,192,9789,1,0,0:0:0:0:
192,192,9952,1,0,0:0:0:0:
64,192,10115,1,0,0:0:0:0:
448,192,10278,1,0,0:0:0:0:
192,192,10441,1,0,0:0:0:0:
448,192,10604,1,0,0:0:0:0:
320,192,10685,1,0,0:0:0:0:
64,192,10767,1,0,0:0:0:0:
192,192,10849,1,0,0:0:0:0:
320,192,10930,1,8,0:0:0:0:
448,192,10930,1,0,0:0:0:0:
192,192,11012,1,8,0:0:0:0:
64,192,11012,1,0,0:0:0:0:
64,192,11093,1,2,0:0:0:0:
448,192,11093,128,0,11419:0:0:0:0:
320,192,11093,1,0,0:0:0:0:
64,192,11419,1,0,0:0:0:0:
192,192,11460,1,0,0:0:0:0:
320,192,11501,1,0,0:0:0:0:
448,192,11541,1,0,0:0:0:0:
64,192,11582,1,0,0:0:0:0:
192,192,11623,1,0,0:0:0:0:
320,192,11664,1,0,0:0:0:0:
448,192,11705,1,0,0:0:0:0:
64,192,11745,128,12,13050:0:0:0:0:
192,192,11745,1,0,0:0:0:0:
448,192,12397,1,0,0:0:0:0:
320,192,12397,1,0,0:0:0:0:
320,192,13050,128,8,14354:0:0:0:0:
192,192,13050,1,4,0:0:0:0:
448,192,13050,1,0,0:0:0:0:
448,192,13213,1,8,0:0:0:0:
64,192,13213,1,0,0:0:0:0:
64,192,13539,1,8,0:0:0:0:
192,192,13539,1,0,0:0:0:0:
192,192,13702,1,0,0:0:0:0:
448,192,13865,1,8,0:0:0:0:
64,192,13865,1,0,0:0:0:0:
64,192,14028,1,8,0:0:0:0:
448,192,14028,1,0,0:0:0:0:
448,192,14354,128,8,15658:0:0:0:0:
192,192,14354,1,4,0:0:0:0:
64,192,14354,1,0,0:0:0:0:
192,192,14843,1,2,0:0:0:0:
320,192,14843,1,0,0:0:0:0:
192,192,15006,1,2,0:0:0:0:
320,192,15006,1,0,0:0:0:0:
192,192,15658,128,4,16963:0:0:0:0:
64,192,15658,1,8,0:0:0:0:
320,192,15658,1,0,0:0:0:0:
64,192,15821,1,2,0:0:0:0:
448,192,15821,1,0,0:0:0:0:
448,192,16147,1,0,0:0:0:0:
64,192,16229,1,0,0:0:0:0:
320,192,16310,1,0,0:0:0:0:
320,192,16474,1,2,0:0:0:0:
448,192,16474,1,0,0:0:0:0:
64,192,16637,1,8,0:0:0:0:
448,192,16637,1,0,0:0:0:0:
64,192,16800,1,8,0:0:0:0:
320,192,16800,1,0,0:0:0:0:
64,192,16963,128,4,18267:0:0:0:0:
320,192,16963,1,8,0:0:0:0:
448,192,16963,1,0,0:0:0:0:
192,192,17615,1,0,0:0:0:0:
448,192,17941,1,8,0:0:0:0:
320,192,17941,1,0,0:0:0:0:
320,192,18267,128,4,19571:0:0:0:0:
192,192,18267,1,8,0:0:0:0:
448,192,18267,1,0,0:0:0:0:
448,192,18756,1,8,0:0:0:0:
192,192,18756,1,0,0:0:0:0:
192,192,18919,1,0,0:0:0:0:
448,192,19082,1,8,0:0:0:0:
64,192,19082,1,0,0:0:0:0:
448,192,19245,1,8,0:0:0:0:
64,192,19245,1,0,0:0:0:0:
64,192,19571,1,4,0:0:0:0:
192,192,19571,1,8,0:0:0:0:
448,192,19571,1,0,0:0:0:0:
448,192,19897,128,0,20224:0:0:0:0:
192,192,19897,1,0,0:0:0:0:
320,192,20224,128,4,20550:0:0:0:0:
64,192,20224,1,0,0:0:0:0:
192,192,20224,1,0,0:0:0:0:
192,192,20550,128,8,20876:0:0:0:0:
448,192,20550,1,0,0:0:0:0:
64,192,20876,1,4,0:0:0:0:
320,192,20876,1,8,0:0:0:0:
448,192,20876,1,0,0:0:0:0:
192,192,21039,1,8,0:0:0:0:
320,192,21039,1,0,0:0:0:0:
64,192,21202,1,4,0:0:0:0:
192,192,21202,1,8,0:0:0:0:
448,192,21202,1,0,0:0:0:0:
320,192,21283,1,8,0:0:0:0:
192,192,21365,1,8,0:0:0:0:
64,192,21365,1,0,0:0:0:0:
64,192,21528,1,2,0:0:0:0:
448,192,21528,1,4,0:0:0:0:
320,192,21528,1,0,0:0:0:0:
320,192,21691,1,8,0:0:0:0:
192,192,21691,1,0,0:0:0:0:
64,192,21772,1,8,0:0:0:0:
448,192,21772,1,0,0:0:0:0:
320,192,21854,1,4,0:0:0:0:
192,192,21854,1,8,0:0:0:0:
64,192,22017,1,8,0:0:0:0:
192,192,22017,1,0,0:0:0:0:
320,192,22099,1,8,0:0:0:0:
448,192,22099,1,0,0:0:0:0:
64,192,22180,1,4,0:0:0:0:
192,192,22180,1,8,0:0:0:0:
448,192,22180,128,0,22343:0:0:0:0:
192,192,22343,128,0,22506:0:0:0:0:
448,192,22506,1,2,0:0:0:0:
64,192,22506,1,0,0:0:0:0:
320,192,22506,128,0,22669:0:0:0:0:
64,192,22669,128,0,22832:0:0:0:0:
448,192,22832,128,8,23158:0:0:0:0:
192,192,22832,1,0,0:0:0:0:
192,192,23158,1,2,0:0:0:0:
320,192,23158,1,0,0:0:0:0:
64,192,23321,128,0,23484:0:0:0:0:
320,192,23484,128,8,23647:0:0:0:0:
448,192,23484,1,0,0:0:0:0:
192,192,23647,128,0,23810:0:0:0:0:
64,192,23810,1,2,0:0:0:0:
448,192,23810,1,0,0:0:0:0:
320,192,23974,128,0,24137:0:0:0:0:
448,192,24137,128,8,24300:0:0:0:0:
192,192,24137,1,0,0:0:0:0:
192,192,24300,128,0,24463:0:0:0:0:
320,192,24463,128,2,24626:0:0:0:0:
64,192,24463,1,0,0:0:0:0:
448,192,24463,1,0,0:0:0:0:
64,192,24626,128,0,24789:0:0:0:0:
320,192,24789,128,8,24952:0:0:0:0:
448,192,24789,1,0,0:0:0:0:
192,192,24952,128,0,25115:0:0:0:0:
320,192,25115,1,2,0:0:0:0:
448,192,25115,128,0,25278:0:0:0:0:
64,192,25115,1,0,0:0:0:0:
64,192,25278,128,0,25441:0:0:0:0:
448,192,25441,128,8,25767:0:0:0:0:
192,192,25441,1,0,0:0:0:0:
64,192,25767,1,2,0:0:0:0:
320,192,25767,1,0,0:0:0:0:
192,192,25930,128,0,26093:0:0:0:0:
320,192,26093,128,8,26256:0:0:0:0:
448,192,26093,1,0,0:0:0:0:
64,192,26256,128,0,26419:0:0:0:0:
320,192,26419,1,2,0:0:0:0:
192,192,26419,1,0,0:0:0:0:
448,192,26582,128,0,26745:0:0:0:0:
64,192,26745,128,8,27071:0:0:0:0:
320,192,26745,128,0,26908:0:0:0:0:
192,192,26908,128,0,27071:0:0:0:0:
320,192,27071,128,2,27397:0:0:0:0:
448,192,27071,128,0,27234:0:0:0:0:
192,192,27234,128,0,27397:0:0:0:0:
64,192,27397,128,4,27560:0:0:0:0:
448,192,27397,1,8,0:0:0:0:
320,192,27560,128,0,27724:0:0:0:0:
192,192,27724,128,2,27887:0:0:0:0:
64,192,27724,1,0,0:0:0:0:
448,192,27724,1,0,0:0:0:0:
320,192,27887,128,0,28050:0:0:0:0:
448,192,28050,128,8,28376:0:0:0:0:
64,192,28050,1,0,0:0:0:0:
320,192,28376,1,2,0:0:0:0:
192,192,28376,1,0,0:0:0:0:
64,192,28539,128,0,28702:0:0:0:0:
448,192,28702,128,8,28865:0:0:0:0:
192,192,28702,1,0,0:0:0:0:
320,192,28865,128,0,29028:0:0:0:0:
64,192,29028,1,2,0:0:0:0:
448,192,29028,1,0,0:0:0:0:
192,192,29191,128,0,29354:0:0:0:0:
64,192,29354,128,8,29517:0:0:0:0:
448,192,29354,1,0,0:0:0:0:
320,192,29517,128,0,29680:0:0:0:0:
192,192,29680,128,2,29843:0:0:0:0:
64,192,29680,1,0,0:0:0:0:
448,192,29680,1,0,0:0:0:0:
448,192,29843,128,0,30006:0:0:0:0:
64,192,30006,128,8,30169:0:0:0:0:
192,192,30006,1,0,0:0:0:0:
320,192,30169,128,0,30332:0:0:0:0:
448,192,30332,128,2,30495:0:0:0:0:
64,192,30332,1,0,0:0:0:0:
192,192,30332,1,0,0:0:0:0:
192,192,30495,128,0,30658:0:0:0:0:
64,192,30658,1,2,0:0:0:0:
320,192,30658,1,0,0:0:0:0:
192,192,30821,1,2,0:0:0:0:
320,192,30821,1,0,0:0:0:0:
64,192,30903,1,2,0:0:0:0:
448,192,30903,1,0,0:0:0:0:
320,192,30984,1,2,0:0:0:0:
192,192,30984,1,0,0:0:0:0:
64,192,31147,1,2,0:0:0:0:
448,192,31147,1,0,0:0:0:0:
192,192,31229,1,2,0:0:0:0:
320,192,31229,1,0,0:0:0:0:
64,192,31310,1,2,0:0:0:0:
448,192,31310,1,0,0:0:0:0:
64,192,31637,5,4,0:0:0:0:
192,192,31637,1,8,0:0:0:0:
448,192,31637,128,2,31881:0:0:0:0:
64,192,31963,1,4,0:0:0:0:
448,192,31963,1,2,0:0:0:0:
320,192,31963,128,8,32207:0:0:0:0:
320,192,32289,1,2,0:0:0:0:
64,192,32289,1,8,0:0:0:0:
192,192,32289,128,4,32533:0:0:0:0:
64,192,32615,1,4,0:0:0:0:
320,192,32615,1,8,0:0:0:0:
448,192,32615,1,0,0:0:0:0:
192,192,32778,1,0,0:0:0:0:
448,192,32941,1,8,0:0:0:0:
320,192,33104,1,0,0:0:0:0:
64,192,33267,1,8,0:0:0:0:
192,192,33430,1,0,0:0:0:0:
448,192,33593,1,2,0:0:0:0:
320,192,33593,1,0,0:0:0:0:
64,192,33756,1,0,0:0:0:0:
320,192,33919,1,8,0:0:0:0:
192,192,34082,1,0,0:0:0:0:
448,192,34245,1,8,0:0:0:0:
320,192,34408,1,0,0:0:0:0:
64,192,34571,1,8,0:0:0:0:
448,192,34734,1,0,0:0:0:0:
192,192,34897,1,8,0:0:0:0:
320,192,35060,1,0,0:0:0:0:
64,192,35224,1,8,0:0:0:0:
448,192,35224,1,0,0:0:0:0:
320,192,35387,1,0,0:0:0:0:
64,192,35550,1,2,0:0:0:0:
192,192,35550,1,0,0:0:0:0:
448,192,35713,1,0,0:0:0:0:
320,192,35876,1,8,0:0:0:0:
64,192,36039,1,0,0:0:0:0:
448,192,36202,1,8,0:0:0:0:
192,192,36365,1,0,0:0:0:0:
320,192,36528,128,8,37180:0:0:0:0:
64,192,36528,1,0,0:0:0:0:
448,192,36691,1,0,0:0:0:0:
64,192,36854,1,8,0:0:0:0:
192,192,37017,1,0,0:0:0:0:
448,192,37180,128,8,37506:0:0:0:0:
64,192,37180,1,0,0:0:0:0:
192,192,37343,1,0,0:0:0:0:
64,192,37506,128,2,37832:0:0:0:0:
320,192,37506,1,0,0:0:0:0:
448,192,37669,1,0,0:0:0:0:
192,192,37832,128,8,39137:0:0:0:0:
320,192,37832,1,4,0:0:0:0:
448,192,37995,1,0,0:0:0:0:
64,192,38158,1,8,0:0:0:0:
320,192,38321,1,0,0:0:0:0:
448,192,38484,1,8,0:0:0:0:
64,192,38647,1,0,0:0:0:0:
448,192,38810,1,8,0:0:0:0:
320,192,38974,1,0,0:0:0:0:
448,192,39137,128,8,40441:0:0:0:0:
64,192,39137,1,0,0:0:0:0:
320,192,39300,1,0,0:0:0:0:
64,192,39463,1,2,0:0:0:0:
192,192,39463,1,0,0:0:0:0:
320,192,39626,1,0,0:0:0:0:
64,192,39789,1,8,0:0:0:0:
320,192,39952,1,0,0:0:0:0:
192,192,40115,1,8,0:0:0:0:
64,192,40278,1,0,0:0:0:0:
320,192,40441,128,8,41745:0:0:0:0:
192,192,40441,1,0,0:0:0:0:
64,192,40604,1,0,0:0:0:0:
448,192,40767,1,8,0:0:0:0:
64,192,40930,1,0,0:0:0:0:
448,192,41093,1,8,0:0:0:0:
192,192,41256,1,0,0:0:0:0:
64,192,41419,1,2,0:0:0:0:
448,192,41419,1,0,0:0:0:0:
192,192,41582,1,0,0:0:0:0:
64,192,41745,1,8,0:0:0:0:
448,192,41745,1,0,0:0:0:0:
64,192,41908,1,2,0:0:0:0:
192,192,41908,1,0,0:0:0:0:
448,192,41908,1,0,0:0:0:0:
192,192,42071,1,8,0:0:0:0:
320,192,42071,1,0,0:0:0:0:
320,192,42234,1,0,0:0:0:0:
64,192,42397,1,8,0:0:0:0:
448,192,42397,1,0,0:0:0:0:
192,192,42397,1,0,0:0:0:0:
320,192,42479,1,8,0:0:0:0:
64,192,42560,1,8,0:0:0:0:
448,192,42560,1,0,0:0:0:0:
192,192,42642,1,8,0:0:0:0:
448,192,42724,1,2,0:0:0:0:
320,192,42724,1,0,0:0:0:0:
64,192,42724,1,0,0:0:0:0:
192,192,42805,1,0,0:0:0:0:
448,192,42887,1,8,0:0:0:0:
64,192,42887,1,0,0:0:0:0:
320,192,42968,1,8,0:0:0:0:
192,192,43050,1,4,0:0:0:0:
64,192,43050,1,8,0:0:0:0:
448,192,43050,1,0,0:0:0:0:
320,192,43213,1,0,0:0:0:0:
64,192,43376,1,2,0:0:0:0:
448,192,43376,1,0,0:0:0:0:
192,192,43376,1,0,0:0:0:0:
192,192,43539,1,0,0:0:0:0:
448,192,43702,128,8,45332:0:0:0:0:
320,192,43702,1,0,0:0:0:0:
64,192,43865,1,0,0:0:0:0:
192,192,44028,1,2,0:0:0:0:
320,192,44028,1,0,0:0:0:0:
192,192,44191,1,0,0:0:0:0:
64,192,44354,1,8,0:0:0:0:
320,192,44517,1,0,0:0:0:0:
64,192,44680,1,2,0:0:0:0:
192,192,44680,1,0,0:0:0:0:
64,192,44843,1,0,0:0:0:0:
320,192,45006,1,8,0:0:0:0:
192,192,45169,1,0,0:0:0:0:
64,192,45332,1,2,0:0:0:0:
320,192,45332,1,0,0:0:0:0:
320,192,45495,1,0,0:0:0:0:
64,192,45658,1,8,0:0:0:0:
192,192,45658,1,0,0:0:0:0:
448,192,45658,1,0,0:0:0:0:
192,192,45821,1,0,0:0:0:0:
64,192,45984,1,2,0:0:0:0:
320,192,45984,1,0,0:0:0:0:
448,192,45984,1,0,0:0:0:0:
448,192,46147,1,0,0:0:0:0:
64,192,46310,128,8,46963:0:0:0:0:
320,192,46310,1,0,0:0:0:0:
192,192,46474,1,0,0:0:0:0:
320,192,46637,1,2,0:0:0:0:
448,192,46637,1,0,0:0:0:0:
448,192,46800,1,0,0:0:0:0:
320,192,46963,128,8,47615:0:0:0:0:
192,192,46963,1,0,0:0:0:0:
448,192,47126,1,0,0:0:0:0:
192,192,47289,1,2,0:0:0:0:
64,192,47289,1,0,0:0:0:0:
64,192,47452,1,0,0:0:0:0:
192,192,47615,128,8,47941:0:0:0:0:
448,192,47615,1,0,0:0:0:0:
64,192,47778,1,0,0:0:0:0:
448,192,47941,128,2,48267:0:0:0:0:
320,192,47941,1,0,0:0:0:0:
192,192,48104,1,0,0:0:0:0:
64,192,48267,128,12,49571:0:0:0:0:
320,192,48267,1,0,0:0:0:0:
192,192,48593,1,2,0:0:0:0:
448,192,48593,1,0,0:0:0:0:
192,192,48756,1,8,0:0:0:0:
320,192,48756,1,0,0:0:0:0:
448,192,48919,1,0,0:0:0:0:
192,192,49082,1,8,0:0:0:0:
320,192,49082,1,0,0:0:0:0:
192,192,49245,1,2,0:0:0:0:
448,192,49245,1,0,0:0:0:0:
320,192,49571,128,12,50876:0:0:0:0:
192,192,49571,1,0,0:0:0:0:
448,192,49571,1,0,0:0:0:0:
448,192,49897,1,2,0:0:0:0:
192,192,49897,1,0,0:0:0:0:
448,192,50060,1,8,0:0:0:0:
64,192,50060,1,0,0:0:0:0:
192,192,50224,1,0,0:0:0:0:
448,192,50387,1,8,0:0:0:0:
64,192,50387,1,0,0:0:0:0:
192,192,50550,1,2,0:0:0:0:
448,192,50550,1,0,0:0:0:0:
64,192,50876,1,12,0:0:0:0:
448,192,50876,1,0,0:0:0:0:
192,192,50876,128,0,52180:0:0:0:0:
320,192,51202,1,2,0:0:0:0:
448,192,51202,1,0,0:0:0:0:
64,192,51365,1,8,0:0:0:0:
320,192,51365,1,0,0:0:0:0:
448,192,51528,1,8,0:0:0:0:
64,192,51528,1,0,0:0:0:0:
320,192,51691,1,8,0:0:0:0:
448,192,51691,1,0,0:0:0:0:
64,192,51854,1,2,0:0:0:0:
320,192,51854,1,0,0:0:0:0:
448,192,52017,1,0,0:0:0:0:
64,192,52180,1,8,0:0:0:0:
320,192,52180,1,0,0:0:0:0:
448,192,52343,1,0,0:0:0:0:
64,192,52506,1,8,0:0:0:0:
192,192,52506,1,0,0:0:0:0:
320,192,52669,1,8,0:0:0:0:
448,192,52669,1,0,0:0:0:0:
64,192,52832,5,2,0:0:0:0:
192,192,52832,1,0,0:0:0:0:
320,192,52914,1,2,0:0:0:0:
448,192,52914,1,0,0:0:0:0:
64,192,52995,1,2,0:0:0:0:
192,192,52995,1,0,0:0:0:0:
320,192,53077,1,2,0:0:0:0:
448,192,53077,1,0,0:0:0:0:
64,192,53158,1,2,0:0:0:0:
192,192,53158,1,0,0:0:0:0:
320,192,53240,1,2,0:0:0:0:
448,192,53240,1,0,0:0:0:0:
64,192,53321,1,2,0:0:0:0:
192,192,53321,1,0,0:0:0:0:
320,192,53403,1,2,0:0:0:0:
448,192,53403,1,0,0:0:0:0:
64,192,53484,1,2,0:0:0:0:
448,192,53484,1,0,0:0:0:0:
192,192,53484,1,4,0:0:0:0:
64,192,53810,1,2,0:0:0:0:
320,192,53810,1,0,0:0:0:0:
448,192,53810,1,0,0:0:0:0:
192,192,53974,1,2,0:0:0:0:
320,192,53974,1,0,0:0:0:0:
64,192,54137,1,8,0:0:0:0:
448,192,54300,1,8,0:0:0:0:
64,192,54463,1,2,0:0:0:0:
192,192,54463,1,0,0:0:0:0:
320,192,54463,1,0,0:0:0:0:
448,192,54626,1,8,0:0:0:0:
320,192,54626,128,0,54952:0:0:0:0:
64,192,54952,1,8,0:0:0:0:
192,192,54952,1,0,0:0:0:0:
64,192,55115,1,2,0:0:0:0:
320,192,55115,1,0,0:0:0:0:
448,192,55115,128,0,55278:0:0:0:0:
192,192,55278,128,0,55441:0:0:0:0:
320,192,55441,128,8,55604:0:0:0:0:
64,192,55441,1,0,0:0:0:0:
448,192,55604,1,8,0:0:0:0:
64,192,55604,128,0,55767:0:0:0:0:
192,192,55767,128,2,55930:0:0:0:0:
320,192,55767,1,0,0:0:0:0:
448,192,55767,1,0,0:0:0:0:
448,192,55930,128,0,56093:0:0:0:0:
64,192,56093,1,8,0:0:0:0:
192,192,56093,1,0,0:0:0:0:
320,192,56093,1,0,0:0:0:0:
192,192,56419,1,2,0:0:0:0:
320,192,56419,1,0,0:0:0:0:
448,192,56419,1,0,0:0:0:0:
64,192,56582,1,2,0:0:0:0:
320,192,56582,1,0,0:0:0:0:
192,192,56745,1,8,0:0:0:0:
320,192,56908,1,8,0:0:0:0:
448,192,56908,1,0,0:0:0:0:
64,192,57071,1,2,0:0:0:0:
192,192,57071,1,0,0:0:0:0:
448,192,57071,1,0,0:0:0:0:
320,192,57234,1,8,0:0:0:0:
192,192,57234,128,0,57560:0:0:0:0:
448,192,57560,128,8,57724:0:0:0:0:
320,192,57560,1,0,0:0:0:0:
192,192,57724,1,2,0:0:0:0:
64,192,57724,128,0,57887:0:0:0:0:
320,192,57887,128,2,58050:0:0:0:0:
448,192,57887,1,0,0:0:0:0:
192,192,57968,1,8,0:0:0:0:
64,192,58050,1,8,0:0:0:0:
448,192,58050,128,0,58213:0:0:0:0:
320,192,58213,1,8,0:0:0:0:
192,192,58213,128,0,58376:0:0:0:0:
64,192,58294,1,8,0:0:0:0:
448,192,58376,1,2,0:0:0:0:
320,192,58376,128,0,58539:0:0:0:0:
64,192,58539,128,2,58702:0:0:0:0:
192,192,58539,1,0,0:0:0:0:
448,192,58620,1,8,0:0:0:0:
320,192,58702,1,2,0:0:0:0:
192,192,58702,1,0,0:0:0:0:
64,192,59028,1,2,0:0:0:0:
320,192,59028,1,0,0:0:0:0:
448,192,59028,1,0,0:0:0:0:
64,192,59191,1,2,0:0:0:0:
192,192,59191,1,0,0:0:0:0:
192,192,59354,1,8,0:0:0:0:
448,192,59354,1,0,0:0:0:0:
320,192,59517,1,0,0:0:0:0:
448,192,59517,1,0,0:0:0:0:
64,192,59680,1,2,0:0:0:0:
192,192,59680,1,0,0:0:0:0:
320,192,59680,1,0,0:0:0:0:
448,192,59843,128,8,60984:0:0:0:0:
64,192,59843,1,0,0:0:0:0:
192,192,60169,1,8,0:0:0:0:
320,192,60169,1,0,0:0:0:0:
320,192,60332,1,0,0:0:0:0:
192,192,60332,128,2,60658:0:0:0:0:
64,192,60332,1,0,0:0:0:0:
320,192,60658,128,8,60984:0:0:0:0:
64,192,60658,1,0,0:0:0:0:
64,192,60821,1,8,0:0:0:0:
64,192,60984,128,0,61310:0:0:0:0:
192,192,60984,1,2,0:0:0:0:
192,192,61310,1,2,0:0:0:0:
320,192,61310,1,0,0:0:0:0:
448,192,61310,1,0,0:0:0:0:
64,192,61474,1,8,0:0:0:0:
192,192,61474,1,0,0:0:0:0:
320,192,61637,1,2,0:0:0:0:
64,192,61637,1,0,0:0:0:0:
448,192,61637,1,0,0:0:0:0:
192,192,61800,1,8,0:0:0:0:
320,192,61800,1,0,0:0:0:0:
64,192,61963,1,2,0:0:0:0:
192,192,61963,1,0,0:0:0:0:
448,192,61963,1,0,0:0:0:0:
320,192,62126,1,8,0:0:0:0:
64,192,62126,1,0,0:0:0:0:
448,192,62289,128,2,62452:0:0:0:0:
192,192,62289,1,0,0:0:0:0:
320,192,62289,1,0,0:0:0:0:
64,192,62452,1,8,0:0:0:0:
192,192,62452,1,0,0:0:0:0:
448,192,62615,128,2,62778:0:0:0:0:
320,192,62615,1,0,0:0:0:0:
64,192,62615,1,0,0:0:0:0:
192,192,62778,1,8,0:0:0:0:
320,192,62778,1,0,0:0:0:0:
64,192,62941,128,2,63267:0:0:0:0:
192,192,62941,1,0,0:0:0:0:
448,192,62941,1,0,0:0:0:0:
320,192,63104,1,8,0:0:0:0:
448,192,63104,1,0,0:0:0:0:
192,192,63267,128,2,63593:0:0:0:0:
320,192,63267,1,0,0:0:0:0:
64,192,63430,1,8,0:0:0:0:
448,192,63430,1,0,0:0:0:0:
320,192,63593,1,8,0:0:0:0:
448,192,63675,1,8,0:0:0:0:
64,192,63756,1,8,0:0:0:0:
192,192,63838,1,8,0:0:0:0:
64,192,63919,1,4,0:0:0:0:
320,192,63919,1,2,0:0:0:0:
448,192,63919,128,0,64245:0:0:0:0:
192,192,64245,1,2,0:0:0:0:
320,192,64245,1,0,0:0:0:0:
64,192,64327,1,0,0:0:0:0:
448,192,64327,1,0,0:0:0:0:
320,192,64408,128,4,64734:0:0:0:0:
192,192,64408,1,0,0:0:0:0:
64,192,64734,1,8,0:0:0:0:
448,192,64734,1,0,0:0:0:0:
192,192,64897,128,4,65224:0:0:0:0:
320,192,64897,1,0,0:0:0:0:
64,192,64897,1,0,0:0:0:0:
320,192,65224,1,0,0:0:0:0:
448,192,65224,1,0,0:0:0:0:
64,192,65550,128,4,65876:0:0:0:0:
192,192,65550,1,8,0:0:0:0:
320,192,65550,1,0,0:0:0:0:
192,192,65876,1,8,0:0:0:0:
320,192,65876,128,4,66202:0:0:0:0:
448,192,65876,1,0,0:0:0:0:
192,192,66202,128,8,66528:0:0:0:0:
64,192,66202,1,4,0:0:0:0:
448,192,66202,1,0,0:0:0:0:
448,192,66528,128,4,67832:0:0:0:0:
64,192,66528,1,8,0:0:0:0:
320,192,66528,1,0,0:0:0:0:
192,192,66854,1,2,0:0:0:0:
64,192,66854,1,0,0:0:0:0:
320,192,67180,1,8,0:0:0:0:
320,192,67343,1,8,0:0:0:0:
64,192,67506,1,2,0:0:0:0:
192,192,67506,1,0,0:0:0:0:
320,192,67669,1,0,0:0:0:0:
64,192,67832,128,0,68158:0:0:0:0:
192,192,67832,1,0,0:0:0:0:
320,192,67995,1,8,0:0:0:0:
448,192,68158,1,2,0:0:0:0:
192,192,68158,128,0,68484:0:0:0:0:
320,192,68484,128,8,68810:0:0:0:0:
64,192,68484,1,0,0:0:0:0:
448,192,68647,1,8,0:0:0:0:
192,192,68810,1,2,0:0:0:0:
64,192,68810,1,0,0:0:0:0:
64,192,68974,1,8,0:0:0:0:
320,192,68974,1,0,0:0:0:0:
448,192,69137,128,0,70115:0:0:0:0:
192,192,69137,1,0,0:0:0:0:
64,192,69300,1,8,0:0:0:0:
192,192,69463,1,2,0:0:0:0:
320,192,69463,1,0,0:0:0:0:
64,192,69789,1,8,0:0:0:0:
64,192,69952,1,8,0:0:0:0:
192,192,70115,1,2,0:0:0:0:
320,192,70115,1,0,0:0:0:0:
448,192,70278,1,8,0:0:0:0:
64,192,70441,128,0,70767:0:0:0:0:
192,192,70441,1,0,0:0:0:0:
320,192,70604,1,8,0:0:0:0:
192,192,70767,128,2,71093:0:0:0:0:
320,192,70767,1,0,0:0:0:0:
448,192,70767,1,0,0:0:0:0:
320,192,71093,128,8,71419:0:0:0:0:
64,192,71093,1,0,0:0:0:0:
192,192,71419,1,2,0:0:0:0:
448,192,71419,1,0,0:0:0:0:
64,192,71582,1,8,0:0:0:0:
192,192,71582,1,0,0:0:0:0:
448,192,71745,128,0,72071:0:0:0:0:
320,192,71745,1,0,0:0:0:0:
320,192,72071,1,2,0:0:0:0:
192,192,72071,1,0,0:0:0:0:
64,192,72234,128,0,72560:0:0:0:0:
448,192,72397,1,8,0:0:0:0:
448,192,72560,1,8,0:0:0:0:
64,192,72724,1,2,0:0:0:0:
320,192,72724,128,0,73050:0:0:0:0:
192,192,72724,1,0,0:0:0:0:
192,192,73050,128,8,73376:0:0:0:0:
448,192,73050,1,0,0:0:0:0:
320,192,73213,1,8,0:0:0:0:
448,192,73376,1,2,0:0:0:0:
64,192,73376,128,0,73702:0:0:0:0:
192,192,73702,1,8,0:0:0:0:
448,192,73702,128,0,74028:0:0:0:0:
192,192,73865,1,8,0:0:0:0:
64,192,74028,1,2,0:0:0:0:
320,192,74028,128,0,74354:0:0:0:0:
192,192,74354,128,8,74680:0:0:0:0:
448,192,74354,1,0,0:0:0:0:
320,192,74680,1,2,0:0:0:0:
64,192,74680,1,0,0:0:0:0:
192,192,74843,1,0,0:0:0:0:
448,192,75006,128,8,75495:0:0:0:0:
64,192,75006,1,0,0:0:0:0:
64,192,75169,1,8,0:0:0:0:
192,192,75332,1,2,0:0:0:0:
320,192,75332,1,0,0:0:0:0:
320,192,75495,1,8,0:0:0:0:
64,192,75495,128,0,75658:0:0:0:0:
448,192,75658,128,0,75821:0:0:0:0:
320,192,75821,128,8,75984:0:0:0:0:
64,192,75821,1,0,0:0:0:0:
64,192,75984,128,2,76310:0:0:0:0:
448,192,75984,1,0,0:0:0:0:
192,192,75984,128,0,76147:0:0:0:0:
448,192,76147,128,0,76310:0:0:0:0:
192,192,76310,128,8,76637:0:0:0:0:
320,192,76310,128,0,76474:0:0:0:0:
64,192,76474,128,8,76637:0:0:0:0:
448,192,76637,128,2,76963:0:0:0:0:
320,192,76637,128,0,76800:0:0:0:0:
192,192,76800,128,0,76963:0:0:0:0:
64,192,76963,128,4,78267:0:0:0:0:
320,192,76963,1,8,0:0:0:0:
192,192,77289,1,2,0:0:0:0:
448,192,77289,1,0,0:0:0:0:
320,192,77615,1,8,0:0:0:0:
320,192,77778,1,8,0:0:0:0:
192,192,77941,1,2,0:0:0:0:
448,192,77941,1,0,0:0:0:0:
320,192,78104,1,0,0:0:0:0:
192,192,78267,1,0,0:0:0:0:
64,192,78430,1,8,0:0:0:0:
448,192,78593,128,2,78919:0:0:0:0:
192,192,78593,1,0,0:0:0:0:
320,192,78919,128,8,79245:0:0:0:0:
64,192,78919,1,0,0:0:0:0:
448,192,79245,1,2,0:0:0:0:
64,192,79245,128,0,79571:0:0:0:0:
192,192,79245,1,0,0:0:0:0:
320,192,79408,1,8,0:0:0:0:
192,192,79571,128,0,79897:0:0:0:0:
448,192,79571,1,0,0:0:0:0:
320,192,79734,1,8,0:0:0:0:
448,192,79897,128,2,80224:0:0:0:0:
64,192,79897,1,0,0:0:0:0:
320,192,79897,1,0,0:0:0:0:
192,192,80224,1,8,0:0:0:0:
64,192,80224,1,0,0:0:0:0:
64,192,80387,1,8,0:0:0:0:
320,192,80387,1,0,0:0:0:0:
192,192,80550,1,2,0:0:0:0:
320,192,80550,1,0,0:0:0:0:
448,192,80713,128,8,81528:0:0:0:0:
64,192,80713,1,0,0:0:0:0:
192,192,81039,1,8,0:0:0:0:
192,192,81202,1,2,0:0:0:0:
64,192,81202,1,0,0:0:0:0:
64,192,81528,128,8,81854:0:0:0:0:
320,192,81528,1,0,0:0:0:0:
320,192,81691,1,8,0:0:0:0:
192,192,81854,1,2,0:0:0:0:
448,192,81854,1,0,0:0:0:0:
320,192,82180,1,8,0:0:0:0:
448,192,82180,1,0,0:0:0:0:
64,192,82506,1,8,0:0:0:0:
192,192,82506,1,0,0:0:0:0:
448,192,82832,128,2,83484:0:0:0:0:
320,192,82832,1,0,0:0:0:0:
64,192,82832,1,0,0:0:0:0:
64,192,83158,1,8,0:0:0:0:
192,192,83158,1,0,0:0:0:0:
192,192,83321,1,2,0:0:0:0:
320,192,83321,1,0,0:0:0:0:
64,192,83484,128,0,84137:0:0:0:0:
320,192,83484,1,0,0:0:0:0:
192,192,83647,1,2,0:0:0:0:
448,192,83647,1,0,0:0:0:0:
320,192,83810,1,8,0:0:0:0:
448,192,83810,1,0,0:0:0:0:
192,192,84137,128,2,84626:0:0:0:0:
320,192,84137,1,0,0:0:0:0:
448,192,84137,1,0,0:0:0:0:
64,192,84463,1,8,0:0:0:0:
448,192,84463,1,0,0:0:0:0:
320,192,84626,1,8,0:0:0:0:
192,192,84707,1,8,0:0:0:0:
320,192,84789,128,8,85767:0:0:0:0:
64,192,84789,1,0,0:0:0:0:
448,192,84789,1,0,0:0:0:0:
192,192,85115,1,0,0:0:0:0:
448,192,85115,1,0,0:0:0:0:
64,192,85441,1,8,0:0:0:0:
448,192,85441,1,2,0:0:0:0:
64,192,85767,1,8,0:0:0:0:
192,192,85767,1,0,0:0:0:0:
64,192,85930,1,2,0:0:0:0:
448,192,85930,1,0,0:0:0:0:
320,192,85930,1,0,0:0:0:0:
192,192,86093,1,8,0:0:0:0:
448,192,86093,1,0,0:0:0:0:
192,192,86256,1,2,0:0:0:0:
320,192,86256,1,0,0:0:0:0:
64,192,86256,1,0,0:0:0:0:
320,192,86419,1,8,0:0:0:0:
448,192,86419,1,0,0:0:0:0:
64,192,86745,128,2,87397:0:0:0:0:
192,192,86745,1,0,0:0:0:0:
320,192,87071,1,8,0:0:0:0:
448,192,87071,1,0,0:0:0:0:
192,192,87234,1,0,0:0:0:0:
448,192,87234,1,0,0:0:0:0:
192,192,87397,1,4,0:0:0:0:
320,192,87397,128,0,87560:0:0:0:0:
64,192,87560,128,0,87724:0:0:0:0:
448,192,87724,128,2,87887:0:0:0:0:
320,192,87724,1,0,0:0:0:0:
192,192,87724,1,0,0:0:0:0:
192,192,87887,128,0,88050:0:0:0:0:
320,192,88050,128,8,88376:0:0:0:0:
64,192,88050,1,0,0:0:0:0:
192,192,88376,1,2,0:0:0:0:
448,192,88376,1,0,0:0:0:0:
64,192,88539,128,0,88702:0:0:0:0:
192,192,88702,128,8,88865:0:0:0:0:
320,192,88702,1,0,0:0:0:0:
448,192,88865,128,0,89028:0:0:0:0:
64,192,89028,1,2,0:0:0:0:
192,192,89028,1,0,0:0:0:0:
320,192,89191,128,0,89354:0:0:0:0:
448,192,89354,128,8,89517:0:0:0:0:
192,192,89354,1,0,0:0:0:0:
64,192,89517,128,0,89680:0:0:0:0:
320,192,89680,128,2,89843:0:0:0:0:
192,192,89680,1,0,0:0:0:0:
448,192,89680,1,0,0:0:0:0:
192,192,89843,128,0,90006:0:0:0:0:
64,192,90006,128,8,90169:0:0:0:0:
448,192,90006,1,0,0:0:0:0:
320,192,90169,128,0,90332:0:0:0:0:
192,192,90332,128,2,90495:0:0:0:0:
64,192,90332,1,0,0:0:0:0:
448,192,90332,1,0,0:0:0:0:
320,192,90495,128,0,90658:0:0:0:0:
448,192,90658,128,8,90984:0:0:0:0:
192,192,90658,1,0,0:0:0:0:
64,192,90984,1,2,0:0:0:0:
320,192,90984,1,0,0:0:0:0:
192,192,91147,128,0,91310:0:0:0:0:
320,192,91310,128,8,91474:0:0:0:0:
448,192,91310,1,0,0:0:0:0:
64,192,91474,128,0,91637:0:0:0:0:
320,192,91637,1,2,0:0:0:0:
192,192,91637,1,0,0:0:0:0:
448,192,91800,128,0,91963:0:0:0:0:
192,192,91963,128,8,92289:0:0:0:0:
64,192,91963,128,0,92126:0:0:0:0:
320,192,92126,128,0,92289:0:0:0:0:
64,192,92289,128,2,92615:0:0:0:0:
448,192,92289,128,0,92452:0:0:0:0:
320,192,92452,128,0,92615:0:0:0:0:
192,192,92615,1,8,0:0:0:0:
448,192,92615,128,4,92778:0:0:0:0:
192,192,92778,128,0,92941:0:0:0:0:
448,192,92941,128,2,93104:0:0:0:0:
64,192,92941,1,0,0:0:0:0:
320,192,92941,1,0,0:0:0:0:
64,192,93104,128,0,93267:0:0:0:0:
320,192,93267,128,8,93593:0:0:0:0:
192,192,93267,1,0,0:0:0:0:
64,192,93593,1,2,0:0:0:0:
448,192,93593,1,0,0:0:0:0:
192,192,93756,128,0,93919:0:0:0:0:
448,192,93919,128,8,94082:0:0:0:0:
320,192,93919,1,0,0:0:0:0:
64,192,94082,128,0,94245:0:0:0:0:
448,192,94245,1,2,0:0:0:0:
192,192,94245,1,0,0:0:0:0:
320,192,94408,128,0,94571:0:0:0:0:
448,192,94571,128,8,94734:0:0:0:0:
64,192,94571,1,0,0:0:0:0:
64,192,94734,128,0,94897:0:0:0:0:
320,192,94897,128,2,95060:0:0:0:0:
192,192,94897,1,0,0:0:0:0:
448,192,94897,1,0,0:0:0:0:
192,192,95060,128,0,95224:0:0:0:0:
320,192,95224,128,8,95387:0:0:0:0:
64,192,95224,1,0,0:0:0:0:
448,192,95387,128,0,95550:0:0:0:0:
64,192,95550,128,2,95876:0:0:0:0:
192,192,95550,1,0,0:0:0:0:
320,192,95550,1,0,0:0:0:0:
320,192,95876,1,8,0:0:0:0:
448,192,95876,1,0,0:0:0:0:
192,192,96039,1,2,0:0:0:0:
448,192,96039,1,0,0:0:0:0:
64,192,96120,1,2,0:0:0:0:
320,192,96120,1,0,0:0:0:0:
192,192,96202,1,2,0:0:0:0:
448,192,96202,1,0,0:0:0:0:
64,192,96365,1,2,0:0:0:0:
320,192,96365,1,0,0:0:0:0:
192,192,96446,1,2,0:0:0:0:
448,192,96446,1,0,0:0:0:0:
64,192,96528,1,2,0:0:0:0:
320,192,96528,1,0,0:0:0:0:
64,192,96854,1,2,0:0:0:0:
320,192,96854,1,4,0:0:0:0:
448,192,96854,128,8,97099:0:0:0:0:
64,192,97180,1,4,0:0:0:0:
448,192,97180,1,2,0:0:0:0:
320,192,97180,128,8,97425:0:0:0:0:
64,192,97506,1,4,0:0:0:0:
320,192,97506,1,8,0:0:0:0:
192,192,97506,128,2,97751:0:0:0:0:
64,192,97832,128,0,98484:0:0:0:0:
448,192,97832,128,0,97995:0:0:0:0:
320,192,97995,128,0,98158:0:0:0:0:
192,192,98158,128,0,98321:0:0:0:0:
448,192,98321,128,0,98484:0:0:0:0:
320,192,98484,128,0,98974:0:0:0:0:
192,192,98484,128,0,98647:0:0:0:0:
448,192,98647,128,0,98810:0:0:0:0:
64,192,98810,128,0,98974:0:0:0:0:
448,192,98974,128,0,99626:0:0:0:0:
192,192,98974,128,0,99137:0:0:0:0:
320,192,99137,128,0,99300:0:0:0:0:
192,192,99300,128,0,99463:0:0:0:0:
64,192,99463,128,0,99626:0:0:0:0:
192,192,99626,128,0,99789:0:0:0:0:
320,192,99626,128,0,100441:0:0:0:0:
448,192,99789,128,0,99952:0:0:0:0:
64,192,99952,128,0,100115:0:0:0:0:
448,192,100115,128,0,100278:0:0:0:0:
192,192,100278,128,0,100441:0:0:0:0:
64,192,100441,128,0,101093:0:0:0:0:
448,192,100441,128,0,100604:0:0:0:0:
320,192,100604,128,0,100767:0:0:0:0:
192,192,100767,128,0,100930:0:0:0:0:
320,192,100930,128,0,101093:0:0:0:0:
448,192,101093,128,0,101582:0:0:0:0:
192,192,101093,128,0,101256:0:0:0:0:
64,192,101256,128,0,101419:0:0:0:0:
320,192,101419,128,0,101582:0:0:0:0:
192,192,101582,128,0,102234:0:0:0:0:
64,192,101582,128,0,101745:0:0:0:0:
448,192,101745,128,0,101908:0:0:0:0:
320,192,101908,128,0,102071:0:0:0:0:
64,192,102071,128,0,102234:0:0:0:0:
320,192,102234,128,0,102397:0:0:0:0:
448,192,102234,128,0,102724:0:0:0:0:
192,192,102397,128,0,102560:0:0:0:0:
64,192,102560,128,0,102724:0:0:0:0:
192,192,102724,1,8,0:0:0:0:
320,192,102724,1,0,0:0:0:0:
64,192,102887,128,8,108919:0:0:0:0:
192,192,102887,128,4,106963:0:0:0:0:
320,192,102887,128,0,106963:0:0:0:0:
448,192,102887,128,0,108919:0:0:0:0:
