osu file format v14

[General]
AudioFilename: audio.mp3
AudioLeadIn: 0
PreviewTime: 64499
Countdown: 0
SampleSet: Soft
StackLeniency: 0.3
Mode: 0
LetterboxInBreaks: 0
WidescreenStoryboard: 1

[Editor]
DistanceSpacing: 0.3
BeatDivisor: 4
GridSize: 32
TimelineZoom: 1.9

[Metadata]
Title:Yuki no Youni (Cut Ver.)
TitleUnicode:雪のように (Cut Ver.)
Artist:AKINO with bless4
ArtistUnicode:AKINO with bless4
Creator:Xahlt
Version:hakashii's Insane
Source:
Tags:hakashii Yuhdj Female Vocal Japanese Jpop J-pop Pop Edit Short Ver Version Decennia Like the Snow Winter Christmas xmas
BeatmapID:2692173
BeatmapSetID:1297599

[Difficulty]
HPDrainRate:5
CircleSize:4
OverallDifficulty:7.2
ApproachRate:8.5
SliderMultiplier:1.5
SliderTickRate:1

[Events]
//Background and Video events
0,0,"bg.jpg",0,0
//Break Periods
2,99682,103613
//Storyboard Layer 0 (Background)
//Storyboard Layer 1 (Fail)
//Storyboard Layer 2 (Pass)
//Storyboard Layer 3 (Foreground)
//Storyboard Layer 4 (Overlay)
//Storyboard Sound Samples

[TimingPoints]
352,326.086956521739,4,2,1,65,1,0
352,-121.951219512195,4,2,1,65,0,0
10786,-192.307692307692,4,2,1,60,0,0
21221,-138.888888888889,4,2,1,70,0,0
22770,-138.888888888889,4,2,1,5,0,0
22851,-138.888888888889,4,2,1,70,0,0
25379,-138.888888888889,4,2,1,5,0,0
25460,-138.888888888889,4,2,1,70,0,0
27987,-138.888888888889,4,2,1,5,0,0
28069,-138.888888888889,4,2,1,70,0,0
30351,-98.0392156862744,4,2,1,70,0,0
30596,-98.0392156862744,4,2,1,5,0,0
30678,-121.951219512195,4,2,1,75,0,0
31004,-121.951219512195,4,2,1,80,0,0
31330,-121.951219512195,4,2,1,85,0,0
31656,-108.695652173913,4,2,1,65,0,0
34509,-108.695652173913,4,2,1,5,0,0
34591,-108.695652173913,4,2,1,65,0,0
36140,-108.695652173913,4,2,1,5,0,0
36221,-98.0392156862745,4,2,1,65,0,0
36873,-108.695652173913,4,2,1,65,0,0
39074,-108.695652173913,4,2,1,5,0,0
39156,-108.695652173913,4,2,1,65,0,0
41683,-108.695652173913,4,2,1,5,0,0
41765,-192.307692307692,4,2,1,65,0,0
42091,-108.695652173913,4,2,1,70,0,0
42335,-108.695652173913,4,2,1,5,0,0
42417,-108.695652173913,4,2,1,70,0,0
44618,-108.695652173913,4,2,1,5,0,0
44699,-108.695652173913,4,2,1,70,0,0
47226,-108.695652173913,4,2,1,5,0,0
47308,-108.695652173913,4,2,1,70,0,0
49835,-108.695652173913,4,2,1,5,0,0
49917,-108.695652173913,4,2,1,70,0,0
52525,-81.9672131147541,4,2,1,75,0,0
52770,-81.9672131147541,4,2,1,5,0,0
52851,-81.9672131147541,4,2,1,70,0,0
53096,-81.9672131147541,4,2,1,5,0,0
53178,-98.0392156862745,4,2,1,65,0,0
55134,-81.9672131147541,4,2,1,75,0,0
55379,-81.9672131147541,4,2,1,5,0,0
55460,-81.9672131147541,4,2,1,70,0,0
55786,-81.9672131147541,4,2,1,65,0,0
56275,-98.0392156862745,4,2,1,65,0,0
57743,-81.9672131147541,4,2,1,75,0,0
57987,-81.9672131147541,4,2,1,5,0,0
58069,-81.9672131147541,4,2,1,70,0,0
58313,-81.9672131147541,4,2,1,5,0,0
58395,-81.9672131147541,4,2,1,65,0,0
58884,-98.0392156862745,4,2,1,65,0,0
60270,-98.0392156862745,4,2,1,5,0,0
60351,-89.2857142857143,4,2,1,65,0,0
61574,-89.2857142857143,4,2,1,5,0,0
61656,-89.2857142857143,4,2,1,65,0,0
62226,-89.2857142857143,4,2,1,5,0,0
62308,-89.2857142857143,4,2,1,65,0,0
62960,-75.7575757575758,4,2,1,75,0,0
63449,-75.7575757575758,4,2,1,80,0,0
63938,-75.7575757575758,4,2,1,85,0,0
64265,-75.7575757575758,4,2,1,90,0,0
64509,-75.7575757575758,4,2,1,5,0,0
64591,-121.951219512195,4,2,1,75,0,0
64835,-121.951219512195,4,2,1,5,0,0
64917,-98.0392156862745,4,2,1,80,0,0
65161,-98.0392156862745,4,2,1,5,0,0
65243,-81.9672131147541,4,2,1,85,0,0
65569,-70.4225352112676,4,2,1,90,0,0
67118,-70.4225352112676,4,2,1,5,0,0
67199,-70.4225352112676,4,2,1,90,0,0
69074,-70.4225352112676,4,2,1,5,0,0
69156,-70.4225352112676,4,2,1,90,0,0
69726,-70.4225352112676,4,2,1,5,0,0
69808,-70.4225352112676,4,2,1,90,0,0
70379,-70.4225352112676,4,2,1,5,0,0
70460,-70.4225352112676,4,2,1,90,0,0
71683,-70.4225352112676,4,2,1,5,0,0
71765,-70.4225352112676,4,2,1,90,0,0
72335,-70.4225352112676,4,2,1,5,0,0
72417,-70.4225352112676,4,2,1,90,0,0
73313,-70.4225352112676,4,2,1,5,0,0
73395,-70.4225352112676,4,2,1,90,0,0
74292,-70.4225352112676,4,2,1,5,0,0
74373,-70.4225352112676,4,2,1,90,0,0
75025,-98.0392156862745,4,2,1,75,0,0
75270,-98.0392156862745,4,2,1,5,0,0
75351,-89.2857142857143,4,2,1,80,0,0
75596,-89.2857142857143,4,2,1,5,0,0
75678,-81.9672131147541,4,2,1,85,0,0
75922,-81.9672131147541,4,2,1,5,0,0
76004,-70.4225352112676,4,2,1,90,0,0
76900,-70.4225352112676,4,2,1,5,0,0
76982,-70.4225352112676,4,2,1,90,0,0
77553,-70.4225352112676,4,2,1,5,0,0
77634,-70.4225352112676,4,2,1,90,0,0
78205,-70.4225352112676,4,2,1,5,0,0
78286,-70.4225352112676,4,2,1,90,0,0
78857,-70.4225352112676,4,2,1,5,0,0
78938,-70.4225352112676,4,2,1,90,0,0
80813,-70.4225352112676,4,2,1,5,0,0
80895,-70.4225352112676,4,2,1,90,0,0
81221,-81.9672131147541,4,2,1,80,0,0
81466,-81.9672131147541,4,2,1,5,0,0
81547,-81.9672131147541,4,2,1,80,0,0
82525,-98.0392156862745,4,2,1,80,0,0
83096,-100,4,2,1,5,0,0
83178,-121.951219512195,4,2,1,80,0,0
83748,-121.951219512195,4,2,1,5,0,0
83830,-161.290322580645,4,2,1,70,0,0
85134,-312.5,4,2,1,70,0,0
89047,-98.0392156862745,4,2,1,70,0,0
89292,-98.0392156862745,4,2,1,5,0,0
89373,-98.0392156862745,4,2,1,70,0,0
90596,-98.0392156862745,4,2,1,5,0,0
90678,-98.0392156862745,4,2,1,70,0,0
91900,-98.0392156862745,4,2,1,5,0,0
91982,-98.0392156862745,4,2,1,70,0,0
93205,-98.0392156862745,4,2,1,5,0,0
93286,-98.0392156862745,4,2,1,70,0,0
94509,-98.0392156862745,4,2,1,5,0,0
94591,-98.0392156862745,4,2,1,70,0,0
96466,-98.0392156862745,4,2,1,5,0,0
96547,-98.0392156862745,4,2,1,70,0,0
97118,-98.0392156862745,4,2,1,5,0,0
97199,-81.9672131147541,4,2,1,70,0,0
97444,-81.9672131147541,4,2,1,5,0,0
97525,-89.2857142857143,4,2,1,70,0,0
97851,-98.0392156862745,4,2,1,70,0,0
98178,-121.951219512195,4,2,1,70,0,0
98504,-98.0392156862744,4,2,1,75,0,0
98748,-98.0392156862744,4,2,1,5,0,0
98830,-121.951219512195,4,2,1,80,0,0
99074,-121.951219512195,4,2,1,5,0,0
99156,-161.290322580645,4,2,1,85,0,0
99482,-161.290322580645,4,2,1,50,0,0
104373,-161.290322580645,4,2,1,70,0,0
104536,-312.499999999999,4,2,11,70,0,0
110569,-312.499999999999,4,2,1,5,0,0

[Colours]
Combo1 : 3,102,53
Combo2 : 212,66,62

[HitObjects]
413,227,9971,6,0,L|419:270,2,30.7500004692078,0|0|8,1:2|1:2|0:0,0:0:0:0:
413,227,10786,6,0,B|348:202|348:202|336:168|336:168|280:135,1,155.999999047852,6|0,0:0|3:0,0:0:0:0:
231,70,12091,2,0,L|100:96,1,116.999999285889,6|8,0:0|3:0,0:0:0:0:
63,170,12906,1,8,3:0:0:0:
63,170,13069,1,8,3:0:0:0:
66,331,13395,6,0,B|118:315|118:315|148:278|148:278|208:261,1,155.999999047852,6|8,0:0|0:0,0:0:0:0:
353,338,14699,2,0,P|285:318|289:286,1,116.999999285889,6|8,1:2|0:0,0:0:0:0:
378,159,15515,5,8,0:0:0:0:
303,113,15678,1,8,3:0:0:0:
303,113,15841,1,8,3:0:0:0:
200,202,16004,6,0,B|153:221|153:221|133:252|133:252|58:291,1,155.999999047852,6|0,0:0|3:0,0:0:0:0:
186,118,16982,2,0,L|228:128,1,38.9999997619629,8|0,3:0|0:0,0:0:0:0:
300,267,17308,6,0,B|347:286|347:286|367:317|367:317|405:333,1,116.999999285889,6|8,3:0|3:0,0:0:0:0:
501,293,18123,1,8,3:0:0:0:
501,293,18286,1,8,3:0:0:0:
450,149,18612,5,6,1:2:0:0:
336,260,18938,1,2,0:0:0:0:
227,192,19265,1,6,0:0:0:0:
157,260,19591,1,2,0:0:0:0:
62,226,19917,6,0,L|73:171,1,38.9999997619629,14|0,0:0|1:0,0:0:0:0:
157,260,20243,2,0,L|168:315,1,38.9999997619629,14|0,0:0|1:0,0:0:0:0:
227,192,20569,2,0,L|235:145,1,38.9999997619629,14|0,0:0|1:0,0:0:0:0:
261,119,20813,1,0,1:0:0:0:
261,119,20895,1,14,0:0:0:0:
404,216,21058,1,12,0:0:0:0:
404,216,21140,1,0,1:0:0:0:
404,216,21221,6,0,L|468:211,1,54.0000013183594,6|0,1:2|0:0,0:0:0:0:
504,318,21547,2,0,L|446:310,1,54.0000013183594,8|0,0:0|0:0,0:0:0:0:
346,307,21873,2,0,B|287:330|329:343|254:372,1,108.000002636719,2|8,1:2|0:0,0:0:0:0:
214,297,22362,1,2,0:0:0:0:
121,363,22525,2,0,B|118:340|118:340|90:311|90:311|81:287,1,81.0000019775391,2|0,1:2|0:0,0:0:0:0:
76,288,22851,2,0,L|81:233,1,54.0000013183594,8|2,0:0|0:0,0:0:0:0:
81,119,23178,5,2,1:2:0:0:
139,180,23341,1,2,0:0:0:0:
216,148,23504,1,10,0:0:0:0:
285,192,23667,1,2,0:0:0:0:
302,183,23830,6,0,L|312:124,1,54.0000013183594,2|0,1:2|0:0,0:0:0:0:
430,68,24156,2,0,L|445:126,1,54.0000013183594,8|2,0:0|0:0,0:0:0:0:
330,98,24482,2,0,P|296:49|238:66,1,108.000002636719,2|8,1:2|0:0,0:0:0:0:
176,93,24971,1,2,0:0:0:0:
45,37,25134,6,0,L|53:142,1,81.0000019775391,2|0,1:2|0:0,0:0:0:0:
60,128,25460,2,0,L|57:192,1,54.0000013183594,8|2,0:0|0:0,0:0:0:0:
35,305,25786,5,2,1:2:0:0:
111,258,25949,1,2,0:0:0:0:
197,320,26112,1,8,0:0:0:0:
283,245,26275,1,8,0:0:0:0:
301,260,26438,6,0,P|331:300|406:297,1,108.000002636719,6|8,1:2|0:0,0:0:0:0:
416,229,26928,1,2,0:0:0:0:
497,346,27091,2,0,B|482:291|512:280|504:220,1,108.000002636719,2|8,1:2|0:0,0:0:0:0:
430,207,27580,1,2,0:0:0:0:
503,107,27743,6,0,P|443:113|400:117,1,81.0000019775391,2|0,1:2|0:0,0:0:0:0:
400,108,28069,2,0,L|326:102,1,54.0000013183594,8|2,0:0|0:0,0:0:0:0:
208,195,28395,2,0,L|258:160,1,54.0000013183594,2|2,1:2|0:0,0:0:0:0:
245,10,28721,2,0,L|256:83,1,54.0000013183594,8|2,0:0|0:0,0:0:0:0:
215,202,29047,6,0,B|261:175|261:175|317:212,2,108.000002636719,2|8|2,1:2|0:0|1:2,0:0:0:0:
101,347,29862,1,8,0:0:0:0:
95,333,29944,1,8,0:0:0:0:
89,317,30025,1,8,0:0:0:0:
196,278,30188,5,8,0:0:0:0:
191,293,30270,1,8,0:0:0:0:
187,307,30351,2,0,B|255:322|230:347|311:370,1,114.750000700378,2|0,1:2|0:0,0:0:0:0:
358,325,30678,6,0,P|363:289|356:223,1,92.2500014076233,14|0,0:0|0:0,0:0:0:0:
336,148,31004,2,0,P|308:185|348:226,1,92.2500014076233,14|0,0:0|0:0,0:0:0:0:
432,212,31330,2,0,P|478:218|519:273,1,92.2500014076233,14|0,0:0|0:0,0:0:0:0:
437,354,31656,6,0,L|449:262,1,68.9999976837159,6|0,1:2|0:0,0:0:0:0:
413,139,31982,2,0,L|425:231,1,68.9999976837159,2|0,1:2|0:0,0:0:0:0:
319,288,32308,2,0,L|331:196,1,68.9999976837159,2|2,1:2|0:0,0:0:0:0:
273,98,32634,1,10,0:0:0:0:
273,98,32797,1,2,0:0:0:0:
163,185,32960,6,0,P|116:197|86:207,1,68.9999976837159,0|0,1:2|0:0,0:0:0:0:
33,88,33286,2,0,P|80:100|110:110,1,68.9999976837159,0|2,1:2|0:0,0:0:0:0:
160,194,33612,2,0,P|113:206|83:216,1,68.9999976837159,0|2,1:2|0:0,0:0:0:0:
33,287,33938,1,0,1:2:0:0:
163,363,34265,6,0,P|176:310|238:298,1,103.499996525574,2|0,1:2|0:0,0:0:0:0:
241,285,34591,2,0,P|275:295|308:303,1,68.9999976837159,10|0,0:0|0:0,0:0:0:0:
408,263,34917,5,2,1:2:0:0:
367,190,35080,1,2,0:0:0:0:
478,118,35243,1,2,1:2:0:0:
512,195,35406,1,2,0:0:0:0:
373,178,35569,6,0,P|364:130|358:87,1,68.9999976837159,2|2,1:2|0:0,0:0:0:0:
272,17,35895,2,0,P|265:65|255:140,1,103.499996525574,2|0,1:2|0:0,0:0:0:0:
257,140,36221,2,0,B|166:148|220:182|97:193,1,153.000000933838,4|12,1:2|0:0,0:0:0:0:
3,189,36873,6,0,P|46:174|66:246,1,137.999995367432,6|2,1:2|1:2,0:0:0:0:
196,320,37525,2,0,P|198:283|201:248,1,68.9999976837159,2|2,1:2|0:0,0:0:0:0:
278,170,37851,2,0,P|285:213|290:243,1,68.9999976837159,2|2,1:2|0:0,0:0:0:0:
175,240,38178,6,0,B|185:187|185:187|166:160|166:160|168:97,1,137.999995367432,2|10,1:2|0:0,0:0:0:0:
298,25,38830,2,0,P|340:35|418:40,1,103.499996525574,2|0,1:2|0:0,0:0:0:0:
439,22,39156,2,0,P|394:14|369:29,1,68.9999976837159,2|0,1:2|0:0,0:0:0:0:
385,125,39482,6,0,P|411:196|425:278,2,137.999995367432,6|0|6,1:2|1:2|1:2,0:0:0:0:
298,25,40460,2,0,P|251:24|227:21,1,68.9999976837159,8|0,1:2|0:0,0:0:0:0:
204,9,40705,1,0,1:2:0:0:
204,9,40786,6,0,B|121:41|171:71|91:92,1,137.999995367432,6|0,1:2|1:2,0:0:0:0:
37,24,41275,1,2,0:0:0:0:
149,78,41438,2,0,B|211:102|176:117|234:140,1,103.499996525574,8|8,3:0|3:0,0:0:0:0:
256,120,41765,2,0,L|254:90,3,19.4999998809814,8|8|8|8,1:2|1:2|1:2|1:2,0:0:0:0:
245,219,42091,6,0,P|306:180|353:172,1,103.499996525574,6|0,1:2|0:0,0:0:0:0:
357,151,42417,2,0,P|388:161|434:168,1,68.9999976837159,10|0,0:0|0:0,0:0:0:0:
510,295,42743,5,2,1:2:0:0:
442,249,42906,1,2,0:0:0:0:
374,314,43069,1,10,0:0:0:0:
456,368,43232,6,0,B|455:348|440:332|440:332|323:344,1,137.999995367432,2|0,0:0|0:0,0:0:0:0:
246,368,43721,2,0,L|156:367,1,68.9999976837159,8|0,0:0|0:0,0:0:0:0:
37,300,44047,2,0,L|122:288,1,68.9999976837159,0|0,1:2|1:2,0:0:0:0:
196,209,44373,2,0,P|177:134|167:83,1,103.499996525574,8|0,0:0|0:0,0:0:0:0:
179,88,44699,6,0,P|199:37|199:17,1,68.9999976837159,2|0,1:2|0:0,0:0:0:0:
98,137,45025,2,0,P|49:145|23:125,1,68.9999976837159,10|0,0:0|0:0,0:0:0:0:
196,209,45351,5,2,1:2:0:0:
268,158,45514,1,2,0:0:0:0:
337,250,45677,1,10,0:0:0:0:
268,298,45841,1,2,0:0:0:0:
288,167,46004,6,0,P|294:130|303:83,1,68.9999976837159,2|2,1:2|0:0,0:0:0:0:
318,10,46330,1,8,0:0:0:0:
194,89,46493,2,0,P|139:35|74:72,1,137.999995367432,2|0,0:0|0:0,0:0:0:0:
25,198,46982,2,0,P|88:175|113:135,1,103.499996525574,12|0,0:0|0:0,0:0:0:0:
126,133,47308,6,0,L|136:217,1,68.9999976837159,6|0,1:2|0:0,0:0:0:0:
96,272,47634,1,8,0:0:0:0:
96,272,47797,1,0,1:2:0:0:
200,359,47960,2,0,B|283:333|231:295|336:287,1,137.999995367432,2|8,0:0|0:0,0:0:0:0:
383,342,48449,1,0,0:0:0:0:
499,243,48612,6,0,B|416:217|468:179|363:171,1,137.999995367432,6|8,1:2|0:0,0:0:0:0:
306,129,49101,1,0,1:2:0:0:
399,73,49265,2,0,P|412:39|424:3,1,68.9999976837159,2|0,0:0|0:0,0:0:0:0:
306,129,49591,2,0,P|245:93|186:80,1,103.499996525574,8|0,0:0|0:0,0:0:0:0:
198,92,49917,6,0,L|120:100,1,68.9999976837159,6|0,1:2|0:0,0:0:0:0:
27,190,50243,1,10,0:0:0:0:
27,190,50406,2,0,L|105:198,1,68.9999976837159,6|0,1:2|0:0,0:0:0:0:
174,283,50732,2,0,L|96:291,1,68.9999976837159,10|10,3:0|0:0,0:0:0:0:
69,358,51058,6,0,P|101:236|182:168,1,206.999993051148,2|8,1:2|0:0,0:0:0:0:
220,117,51710,1,0,1:2:0:0:
306,214,51873,2,0,L|317:266,2,34.4999988418579,8|8|8,0:0|0:0|0:0,0:0:0:0:
442,146,52199,1,8,0:0:0:0:
446,136,52281,1,8,0:0:0:0:
447,125,52362,1,8,0:0:0:0:
445,114,52444,1,8,0:0:0:0:
437,102,52525,6,0,B|367:107|375:134|283:136,1,137.249994345474,6|0,1:2|0:0,0:0:0:0:
291,129,52851,2,0,P|307:94|220:89,1,137.249994345474,14|0,0:0|0:0,0:0:0:0:
212,83,53178,5,2,0:0:0:0:
126,39,53341,1,2,0:0:0:0:
32,124,53504,1,10,0:0:0:0:
96,21,53667,6,0,P|114:145|122:200,1,153.000000933838,6|0,1:2|1:2,0:0:0:0:
67,345,54156,2,0,P|76:295|79:262,1,76.5000004669189,10|2,0:0|0:0,0:0:0:0:
226,174,54482,5,0,1:2:0:0:
248,263,54645,1,2,1:2:0:0:
161,287,54808,1,10,0:0:0:0:
141,199,54971,1,2,0:0:0:0:
257,254,55134,6,0,B|308:271|308:271|333:315|333:315|398:337,1,137.249994345474,6|0,1:2|0:0,0:0:0:0:
389,342,55460,1,14,0:0:0:0:
453,265,55623,1,8,0:0:0:0:
498,365,55786,2,0,B|495:315|491:263,1,91.4999962303163,2|2,0:0|1:2,0:0:0:0:
429,232,56112,1,10,0:0:0:0:
499,101,56275,6,0,B|396:116|458:149|343:162,1,153.000000933838,6|2,1:2|1:2,0:0:0:0:
211,72,56765,2,0,P|261:73|271:117,1,76.5000004669189,10|2,0:0|1:2,0:0:0:0:
287,119,57009,1,0,1:2:0:0:
287,119,57091,2,0,P|272:143|257:198,1,76.5000004669189,10|2,0:0|1:2,0:0:0:0:
244,210,57335,1,0,1:2:0:0:
244,210,57417,1,10,0:0:0:0:
320,287,57580,1,2,1:2:0:0:
188,360,57743,6,0,B|138:355|138:355|106:308|106:308|46:303,1,137.249994345474,6|0,1:2|0:0,0:0:0:0:
28,288,58069,2,0,B|78:283|78:283|110:236|110:236|170:231,1,137.249994345474,14|0,0:0|0:0,0:0:0:0:
157,216,58395,5,2,1:2:0:0:
85,134,58558,1,2,0:0:0:0:
167,37,58721,1,10,0:0:0:0:
235,94,58884,6,0,B|240:126|216:139|216:139|106:119,1,153.000000933838,6|2,1:2|1:2,0:0:0:0:
283,200,59373,2,0,P|348:188|388:179,1,76.5000004669189,10|0,0:0|0:0,0:0:0:0:
512,153,59699,2,0,P|447:141|407:132,1,76.5000004669189,2|0,1:2|1:2,0:0:0:0:
376,210,60025,2,0,P|416:295|423:337,1,114.750000700378,10|0,0:0|0:0,0:0:0:0:
417,336,60351,6,0,L|310:323,1,84.0000010253906,14|2,0:0|1:2,0:0:0:0:
130,384,60678,2,0,L|237:371,1,84.0000010253906,10|2,0:0|0:0,0:0:0:0:
358,244,61004,2,0,L|251:231,1,84.0000010253906,8|0,0:0|0:0,0:0:0:0:
199,276,61330,2,0,B|215:190|251:229|256:144,1,126.000001538086,10|0,0:0|0:0,0:0:0:0:
277,151,61656,6,0,P|272:84|227:71,1,84.0000010253906,10|0,0:0|1:2,0:0:0:0:
69,73,61982,2,0,P|129:73|203:38,1,126.000001538086,10|0,0:0|0:0,0:0:0:0:
208,21,62308,2,0,P|248:1|310:13,1,84.0000010253906,10|2,1:2|1:2,0:0:0:0:
371,62,62634,1,10,0:0:0:0:
374,74,62716,1,8,0:0:0:0:
377,86,62797,1,8,0:0:0:0:
380,98,62879,1,8,0:0:0:0:
383,112,62960,6,0,B|431:88|336:30|283:125|280:208,1,197.999999395752,6|8,1:2|0:0,0:0:0:0:
303,213,63368,1,0,1:2:0:0:
303,213,63449,1,6,1:2:0:0:
439,352,63775,5,8,0:0:0:0:
506,308,63938,2,0,L|380:334,1,98.999999697876,6|0,1:2|0:0,0:0:0:0:
286,375,64265,6,0,B|198:347|265:310|153:294,1,148.499999546814,6|0,1:2|0:0,0:0:0:0:
81,325,64591,6,0,P|113:288|128:232,1,92.2500014076233,14|0,0:0|0:0,0:0:0:0:
149,226,64917,2,0,P|133:171|126:107,1,114.750000700378,12|0,0:0|0:0,0:0:0:0:
105,99,65243,1,12,0:0:0:0:
105,99,65569,6,0,B|170:79|170:79|207:17|207:17|281:3,1,212.999989274598,6|8,1:2|0:0,0:0:0:0:
348,73,66058,1,2,0:0:0:0:
481,25,66221,2,0,P|473:82|471:135,1,106.499994637299,2|0,1:2|1:2,0:0:0:0:
430,306,66547,2,0,P|422:249|410:198,1,106.499994637299,10|0,0:0|1:2,0:0:0:0:
470,130,66873,6,0,B|380:145|433:189|285:200,1,159.749991955948,2|0,0:0|0:0,0:0:0:0:
311,180,67199,2,0,P|235:177|183:167,1,106.499994637299,10|0,0:0|0:0,0:0:0:0:
41,277,67525,2,0,P|100:262|163:258,1,106.499994637299,2|0,1:2|1:2,0:0:0:0:
176,167,67851,2,0,P|186:257|196:354,1,159.749991955948,10|2,0:0|0:0,0:0:0:0:
212,339,68178,6,0,P|193:207|175:86,1,212.999989274598,6|8,1:2|0:0,0:0:0:0:
130,60,68667,1,2,0:0:0:0:
264,125,68830,2,0,B|369:107|281:66|439:55,1,159.749991955948,2|0,1:2|0:0,0:0:0:0:
407,40,69156,2,0,P|465:52|528:52,1,106.499994637299,10|0,0:0|0:0,0:0:0:0:
403,138,69482,6,0,P|425:233|432:315,1,159.749991955948,2|0,1:2|0:0,0:0:0:0:
396,312,69808,2,0,P|385:286|456:244,1,106.499994637299,10|0,0:0|0:0,0:0:0:0:
474,366,70134,2,0,P|343:339|311:362,1,159.749991955948,2|0,1:2|0:0,0:0:0:0:
322,360,70460,2,0,L|212:374,1,106.499994637299,10|0,0:0|1:2,0:0:0:0:
50,296,70786,6,0,P|59:209|183:205,1,212.999989274598,6|8,1:2|0:0,0:0:0:0:
302,157,71275,2,0,P|367:188|450:18,1,266.249986593247,2|0,0:0|0:0,0:0:0:0:
470,43,71765,2,0,P|426:63|443:132,1,106.499994637299,10|0,0:0|0:0,0:0:0:0:
496,253,72091,6,0,P|423:203|378:271,1,159.749991955948,6|0,1:2|0:0,0:0:0:0:
361,254,72417,2,0,P|378:307|391:377,1,106.499994637299,10|0,0:0|0:0,0:0:0:0:
221,193,72743,2,0,P|238:114|243:70,1,106.499994637299,6|0,1:2|1:2,0:0:0:0:
302,382,73069,2,0,P|244:330|142:299,1,159.749991955948,10|0,0:0|0:0,0:0:0:0:
149,289,73395,6,0,L|39:315,1,106.499994637299,6|0,1:2|0:0,0:0:0:0:
1,157,73721,2,0,P|83:169|125:175,1,106.499994637299,8|2,0:0|0:0,0:0:0:0:
221,193,74047,2,0,P|237:106|262:4,1,159.749991955948,2|0,1:2|0:0,0:0:0:0:
239,15,74373,1,8,0:0:0:0:
316,134,74536,6,0,B|175:101|288:67|118:27,1,212.999989274598,2|2,1:2|1:2,0:0:0:0:
26,188,75025,2,0,P|34:208|51:307,1,114.750000700378,14|0,0:0|0:0,0:0:0:0:
32,338,75351,2,0,P|68:255|108:245,1,126.000001538086,14|0,0:0|0:0,0:0:0:0:
212,261,75678,2,0,P|275:285|377:297,1,137.249994345474,14|0,0:0|0:0,0:0:0:0:
376,288,76004,6,0,P|316:275|280:308,1,106.499994637299,6|0,1:2|0:0,0:0:0:0:
463,322,76330,2,0,P|505:252|491:210,1,106.499994637299,10|2,0:0|0:0,0:0:0:0:
386,377,76656,2,0,P|388:263|393:183,1,159.749991955948,2|0,1:2|0:0,0:0:0:0:
409,198,76982,1,10,0:0:0:0:
371,119,77145,1,0,1:2:0:0:
190,255,77308,6,0,P|121:257|93:159,1,159.749991955948,2|0,0:0|0:0,0:0:0:0:
114,172,77634,2,0,P|149:122|146:70,1,106.499994637299,10|0,0:0|0:0,0:0:0:0:
76,6,77960,2,0,P|140:53|236:43,1,159.749991955948,2|0,1:2|0:0,0:0:0:0:
235,38,78286,2,0,P|293:23|341:41,1,106.499994637299,10|0,0:0|1:2,0:0:0:0:
443,140,78612,6,0,B|452:192|452:192|420:239|420:239|426:289,1,159.749991955948,6|0,1:2|0:0,0:0:0:0:
421,323,78938,2,0,L|404:200,1,106.499994637299,10|0,0:0|0:0,0:0:0:0:
330,144,79265,1,2,1:2:0:0:
256,198,79428,1,2,1:2:0:0:
143,115,79591,1,10,0:0:0:0:
234,67,79754,6,0,B|83:181|223:194|49:310,1,266.249986593247,2|0,1:2|0:0,0:0:0:0:
68,305,80243,1,10,0:0:0:0:
0,169,80406,6,0,B|188:185|76:270|254:292,1,266.249986593247,0|0,1:2|0:0,0:0:0:0:
250,307,80895,2,0,P|192:305|173:347,1,106.499994637299,10|2,0:0|0:0,0:0:0:0:
354,370,81221,6,0,P|396:343|418:245,1,137.249994345474,6|0,1:2|0:0,0:0:0:0:
426,235,81547,1,2,1:2:0:0:
371,170,81710,1,2,0:0:0:0:
475,112,81873,2,0,B|482:67|482:67|491:55|491:55|497:-3,1,91.4999962303163,8|2,0:0|0:0,0:0:0:0:
373,69,82199,2,0,B|415:86|415:86|421:98|421:98|463:122,1,91.4999962303163,2|8,1:2|0:0,0:0:0:0:
413,0,82525,6,0,B|260:72|388:110|185:175,1,267.750001634216,0|0,1:2|0:0,0:0:0:0:
121,122,83178,2,0,P|135:104|236:201,1,215.250003284454,8|10,0:0|0:0,0:0:0:0:
219,253,83830,5,2,1:2:0:0:
45,42,85134,2,0,B|390:122|87:288|456:360,1,552,2|0,0:0|1:2,0:0:0:0:
502,305,89047,6,0,B|453:312|453:312|450:337|450:337|398:344,1,114.750000700378,6|0,1:2|0:0,0:0:0:0:
384,332,89373,2,0,L|370:253,1,76.5000004669189,8|0,0:0|0:0,0:0:0:0:
389,135,89699,5,2,1:2:0:0:
428,201,89862,1,0,0:0:0:0:
254,155,90025,1,8,0:0:0:0:
297,83,90188,1,2,0:0:0:0:
292,184,90351,6,0,B|215:200|263:218|176:233,1,114.750000700378,2|0,1:2|0:0,0:0:0:0:
175,218,90678,2,0,P|113:217|70:208,1,76.5000004669189,8|2,0:0|0:0,0:0:0:0:
247,315,91004,2,0,P|302:303|332:300,1,76.5000004669189,2|2,1:2|0:0,0:0:0:0:
199,378,91330,2,0,P|153:366|119:356,1,76.5000004669189,10|2,0:0|0:0,0:0:0:0:
247,315,91656,6,0,P|262:210|271:168,1,114.750000700378,2|0,1:2|0:0,0:0:0:0:
281,195,91982,2,0,P|275:153|271:110,1,76.5000004669189,8|2,0:0|0:0,0:0:0:0:
213,57,92308,5,2,1:2:0:0:
151,113,92471,1,0,0:0:0:0:
67,49,92634,1,8,0:0:0:0:
134,0,92797,1,2,0:0:0:0:
151,113,92960,6,0,B|152:93|136:78|136:78|54:89,1,114.750000700378,2|0,1:2|0:0,0:0:0:0:
22,104,93286,2,0,B|17:126|17:126|80:101,1,76.5000004669189,8|2,0:0|0:0,0:0:0:0:
213,57,93612,2,0,L|296:78,1,76.5000004669189,2|2,1:2|0:0,0:0:0:0:
151,113,93938,2,0,L|180:192,1,76.5000004669189,8|8,0:0|0:0,0:0:0:0:
176,322,94265,6,0,P|209:269|264:294,1,114.750000700378,6|0,1:2|0:0,0:0:0:0:
274,294,94591,2,0,P|238:284|229:234,1,76.5000004669189,8|2,0:0|0:0,0:0:0:0:
290,161,94917,5,2,1:2:0:0:
369,235,95080,1,0,0:0:0:0:
433,171,95243,1,8,0:0:0:0:
506,220,95406,1,2,0:0:0:0:
443,160,95569,6,0,L|444:63,1,76.5000004669189,2|0,1:2|0:0,0:0:0:0:
506,220,95895,2,0,L|509:297,1,76.5000004669189,8|2,0:0|0:0,0:0:0:0:
369,235,96221,2,0,P|356:202|292:204,1,76.5000004669189,2|2,1:2|0:0,0:0:0:0:
240,228,96547,2,0,L|152:237,1,76.5000004669189,8|2,0:0|0:0,0:0:0:0:
20,295,96873,6,0,P|77:275|109:327,1,114.750000700378,2|0,1:2|0:0,0:0:0:0:
119,343,97199,6,0,B|122:290|122:290|152:247|147:248|147:248|152:183,1,137.249994345474,8|0,0:0|0:0,0:0:0:0:
192,151,97525,2,0,B|207:121|182:102|178:89|192:48,1,84.0000010253906,2|8,1:2|0:0,0:0:0:0:
116,5,97770,1,8,0:0:0:0:
116,5,97851,2,0,P|163:61|198:48,1,114.750000700378,8|8,0:0|0:0,0:0:0:0:
258,3,98178,1,6,1:2:0:0:
258,3,98504,6,0,P|303:28|378:53,1,114.750000700378,14|0,0:0|0:0,0:0:0:0:
424,137,98830,2,0,P|357:147|346:179,1,92.2500014076233,14|0,0:0|0:0,0:0:0:0:
309,235,99156,2,0,P|344:273|344:332,1,92.999996310425,14|2,0:0|0:0,0:0:0:0:
295,96,104373,5,6,1:2:0:0:
360,178,104536,2,0,B|414:170|444:211|444:211|430:137|498:109|498:109|419:121|377:47|377:47|384:128|345:182|273:175|273:175|273:170|234:159|229:304|95:199|66:170|19:261|19:261|35:242|54:235,1,888,6|0,1:2|0:0,0:0:0:0:
