osu file format v14

[General]
AudioFilename: audio.mp3
AudioLeadIn: 0
PreviewTime: 64681
Countdown: 0
SampleSet: Soft
StackLeniency: 0.7
Mode: 2
LetterboxInBreaks: 0
WidescreenStoryboard: 1

[Editor]
Bookmarks: 21311,31746,42181,52616
DistanceSpacing: 1.1
BeatDivisor: 4
GridSize: 32
TimelineZoom: 1.7

[Metadata]
Title:Yuki no Youni (Cut Ver.)
TitleUnicode:雪のように (Cut Ver.)
Artist:AKINO with bless4
ArtistUnicode:AKINO with bless4
Creator:Greaper
Version:Jemzuu's Platter
Source:
Tags:dapuluous du5t dust idu5t idust sanyi sanyi4life ascendance -luminate xinely dako jemzuu ajamez baron christmas xmas short edit cut version j-pop jpop pop japanese female vocal
BeatmapID:2236868
BeatmapSetID:1063964

[Difficulty]
HPDrainRate:4
CircleSize:3.3
OverallDifficulty:8
ApproachRate:8
SliderMultiplier:1.5
SliderTickRate:1

[Events]
//Background and Video events
0,0,"jemzuu.jpg",0,0
//Break Periods
//Storyboard Layer 0 (Background)
//Storyboard Layer 1 (Fail)
//Storyboard Layer 2 (Pass)
//Storyboard Layer 3 (Foreground)
//Storyboard Layer 4 (Overlay)
//Storyboard Sound Samples

[TimingPoints]
474,326.086956521739,4,2,11,40,1,0
474,-100,4,2,11,40,0,0
5039,-100,4,2,11,5,0,0
5365,-100,4,2,11,40,0,0
9604,-100,4,2,11,50,0,0
10064,326.086956521739,4,2,11,50,1,0
10080,-100,4,2,11,50,0,0
10551,326.086956521739,4,2,11,50,1,0
10551,-100,4,2,11,50,0,0
10877,326.086956521739,4,2,11,60,1,0
10877,-100,4,2,11,60,0,0
21311,-100,4,2,11,65,0,0
30768,-100,4,2,11,70,0,0
31746,-100,4,2,11,55,0,0
42181,-100,4,2,11,60,0,0
52616,-100,4,2,11,65,0,0
63050,-100,4,2,11,70,0,0
65659,-100,4,2,11,80,0,1
65741,-100,4,2,12,80,0,1
76094,-100,4,2,11,80,0,1
76175,-100,4,2,12,80,0,1
81311,-100,4,2,12,70,0,0
83920,-100,4,2,11,50,0,0
85387,-100,4,2,11,40,0,0
88159,-100,4,2,11,5,0,0
88322,-100,4,2,11,20,0,0
88811,-100,4,2,11,30,0,0
89137,-100,4,2,11,75,0,0
89219,-100,4,2,12,75,0,0
93784,-100,4,2,12,40,0,0
93866,-100,4,2,12,75,0,0
93947,-100,4,2,12,40,0,0
94029,-100,4,2,12,75,0,0
94110,-100,4,2,12,45,0,0
94192,-100,4,2,12,75,0,0
94273,-100,4,2,12,45,0,0
94355,-100,4,2,11,75,0,0
94436,-100,4,2,12,75,0,0
98594,-100,4,2,11,80,0,0
99572,-100,4,2,11,60,0,0
101855,-100,4,2,11,75,0,0
102181,-100,4,2,11,55,0,0
103485,-100,4,2,11,45,0,0
104790,-100,4,2,11,35,0,0
106094,-100,4,2,11,25,0,0
107398,-100,4,2,11,15,0,0
108213,-100,4,2,11,5,0,0

[Colours]
Combo1 : 90,175,78
Combo2 : 202,13,13
Combo3 : 255,200,34

[HitObjects]
256,192,5691,12,2,9604,0:0:0:0:
237,269,10064,6,0,L|288:271,2,37.5,8|8|8,0:3|0:3|0:0,0:0:0:0:
68,336,10551,2,0,L|71:239,1,75,2|2,0:0|0:0,0:0:0:0:
303,346,10877,6,0,P|361:315|263:229,1,225,4|0,0:0|0:0,0:0:0:0:
204,233,11529,2,0,P|130:223|95:136,1,150,4|0,0:3|0:0,0:0:0:0:
394,73,12181,1,4,0:0:0:0:
310,54,12344,2,0,L|152:37,2,150,8|8|8,0:3|0:3|0:3,0:0:0:0:
401,80,13159,2,0,L|415:177,1,75,8|8,0:3|0:3,0:0:0:0:
172,188,13485,6,0,P|96:205|95:346,1,225,4|8,0:0|0:0,0:0:0:0:
243,358,14137,2,0,L|411:325,1,150,8|0,0:0|0:0,0:0:0:0:
98,245,14790,1,4,0:0:0:0:
18,194,14953,2,0,L|178:160,1,150,8|8,0:0|0:0,0:0:0:0:
245,109,15442,1,4,0:3:0:0:
164,162,15605,2,0,L|79:161,2,75,8|8|8,0:0|0:3|0:3,0:0:0:0:
408,46,16094,6,0,P|460:73|372:173,1,225,4|0,0:0|0:0,0:0:0:0:
310,169,16746,1,4,0:3:0:0:
132,229,17072,1,8,0:3:0:0:
436,347,17398,6,0,P|448:269|321:212,1,225,4|8,0:0|0:3,0:0:0:0:
242,176,18050,2,0,L|322:152,1,75,4|8,0:3|0:3,0:0:0:0:
490,90,18376,2,0,L|394:77,1,75,8|8,0:3|0:3,0:0:0:0:
159,92,18703,6,0,P|97:109|66:203,1,150,4|2,0:0|0:0,0:0:0:0:
356,210,19355,2,0,P|418:227|449:321,1,150,6|2,0:0|0:0,0:0:0:0:
134,384,20007,5,4,0:0:0:0:
175,322,20170,1,8,0:3:0:0:
239,284,20333,1,4,0:0:0:0:
313,277,20496,1,8,0:3:0:0:
151,212,20659,2,0,L|54:200,1,75,4|8,0:0|0:0,0:0:0:0:
233,150,20985,2,0,L|313:134,1,75,8|8,0:0|0:0,0:0:0:0:
71,63,21311,5,2,0:0:0:0:
25,117,21474,1,0,0:0:0:0:
51,184,21637,1,8,0:0:0:0:
122,193,21800,1,0,0:0:0:0:
294,194,21963,2,0,P|303:257|228:315,1,150,12|8,0:3|0:0,0:0:0:0:
165,326,22453,1,0,0:0:0:0:
343,360,22616,6,0,P|401:363|469:273,1,150,12|8,0:3|0:0,0:0:0:0:
386,267,23105,1,0,0:0:0:0:
465,245,23268,1,12,0:3:0:0:
489,177,23431,1,0,0:0:0:0:
447,119,23594,1,8,0:0:0:0:
375,121,23757,1,0,0:0:0:0:
199,129,23920,6,0,P|191:178|270:229,1,150,12|8,0:3|0:0,0:0:0:0:
342,197,24409,1,0,0:0:0:0:
425,234,24572,2,0,P|472:194|433:111,1,150,12|8,0:3|0:0,0:0:0:0:
368,101,25061,1,0,0:0:0:0:
202,150,25224,6,0,L|52:111,2,150,12|8|2,0:3|0:0|0:0,0:0:0:0:
280,145,26040,1,2,0:0:0:0:
113,67,26203,2,0,L|206:57,1,75,10|2,0:0|0:0,0:0:0:0:
415,291,26529,6,0,L|268:263,1,150,4|8,0:0|0:0,0:0:0:0:
446,364,27181,2,0,P|475:319|433:227,1,150,12|8,0:3|0:0,0:0:0:0:
365,214,27670,1,0,0:0:0:0:
187,151,27833,6,0,L|354:128,2,150,12|8|12,0:3|0:0|0:3,0:0:0:0:
258,156,28648,1,0,0:0:0:0:
292,219,28811,1,8,0:0:0:0:
255,281,28974,1,0,0:0:0:0:
66,360,29137,6,0,L|55:197,1,150,12|8,0:3|0:0,0:0:0:0:
375,181,29790,2,0,L|344:105,1,75,8|8,0:0|0:0,0:0:0:0:
308,97,30034,1,8,0:0:0:0:
264,92,30116,1,8,0:0:0:0:
99,128,30279,2,0,L|121:88,1,37.5,8|8,0:0|0:0,0:0:0:0:
157,82,30442,1,8,0:3:0:0:
466,61,30768,6,0,L|453:157,1,75,4|0,0:0|0:0,0:0:0:0:
285,199,31094,2,0,L|187:207,1,75,4|0,0:0|0:0,0:0:0:0:
51,265,31420,2,0,L|35:349,1,75,4|0,0:0|0:0,0:0:0:0:
265,360,31746,6,0,L|419:331,2,150,2|8|8,0:0|0:3|0:3,0:0:0:0:
444,364,32724,1,8,0:0:0:0:
263,269,33050,2,0,L|107:240,1,150,8|8,0:3|0:3,0:0:0:0:
277,168,33703,2,0,L|356:154,2,75,0|0|8,0:0|0:0|0:3,0:0:0:0:
108,133,34355,5,10,0:3:0:0:
423,84,34681,2,0,L|453:263,1,150,8|8,0:0|0:3,0:0:0:0:
428,302,35170,1,0,0:0:0:0:
368,346,35333,1,8,0:3:0:0:
295,345,35496,1,0,0:0:0:0:
110,371,35659,2,0,L|123:219,1,150,10|8,0:3|0:3,0:0:0:0:
317,188,36311,1,10,0:3:0:0:
15,112,36637,1,10,0:0:0:0:
448,85,36963,6,0,L|441:246,1,150,4|8,0:0|0:3,0:0:0:0:
293,209,37616,1,8,0:3:0:0:
223,227,37779,1,0,0:0:0:0:
197,295,37942,1,8,0:3:0:0:
237,355,38105,1,0,0:0:0:0:
309,358,38268,1,2,0:0:0:0:
27,178,38594,2,0,L|46:20,1,150,8|8,0:0|0:3,0:0:0:0:
195,13,39246,1,8,0:3:0:0:
380,182,39572,6,0,L|200:166,2,150,10|8|8,0:3|0:3|0:3,0:0:0:0:
76,342,40550,2,0,P|37:311|87:233,1,150,8|10,0:0|0:3,0:0:0:0:
251,194,41040,2,0,L|415:163,1,150,8|0,0:0|0:0,0:0:0:0:
232,175,41529,2,0,L|217:94,1,75,10|8,0:3|0:3,0:0:0:0:
404,100,41855,2,0,L|423:18,1,75,4|8,0:0|0:3,0:0:0:0:
164,28,42181,5,4,0:0:0:0:
319,261,42507,2,0,L|146:278,1,150,8|8,0:0|0:3,0:0:0:0:
93,264,42996,1,0,0:0:0:0:
166,230,43159,1,8,0:0:0:0:
468,315,43485,2,0,L|477:140,1,150,8|8,0:3|0:0,0:0:0:0:
314,133,44137,1,8,0:3:0:0:
470,77,44463,1,8,0:0:0:0:
178,55,44790,6,0,L|19:32,2,150,10|8|8,0:3|0:0|0:3,0:0:0:0:
247,73,45605,1,0,0:0:0:0:
273,140,45768,1,8,0:0:0:0:
233,201,45931,1,0,0:0:0:0:
52,218,46094,6,0,P|20:283|49:371,1,150,10|8,0:3|0:0,0:0:0:0:
219,377,46746,1,10,0:3:0:0:
153,330,46909,1,0,0:0:0:0:
72,324,47072,1,10,0:0:0:0:
479,355,47398,6,0,P|478:308|412:231,1,150,4|8,0:0|0:0,0:0:0:0:
319,260,47887,2,0,L|296:104,1,150,8|8,0:3|0:3,0:0:0:0:
466,47,48376,2,0,L|375:36,1,75,8|0,0:0|0:0,0:0:0:0:
162,235,48703,6,0,L|313:201,2,150,4|8|2,0:0|0:0|0:0,0:0:0:0:
243,266,49518,1,8,0:3:0:0:
330,273,49681,1,8,0:0:0:0:
35,333,50007,6,0,P|73:262|155:234,1,150,4|8,0:0|0:0,0:0:0:0:
219,255,50496,2,0,L|234:168,1,75,10|0,0:3|0:0,0:0:0:0:
58,130,50822,2,0,L|136:112,1,75,10|8,0:3|0:0,0:0:0:0:
311,109,51148,1,8,0:3:0:0:
390,164,51311,6,0,L|235:199,1,150,10|8,0:3|0:0,0:0:0:0:
168,206,51800,1,8,0:3:0:0:
340,209,51963,1,8,0:0:0:0:
321,241,52044,1,8,0:0:0:0:
293,265,52126,1,8,0:0:0:0:
258,279,52207,1,8,0:0:0:0:
221,279,52290,2,0,L|163:264,2,37.5,8|8|8,0:0|0:0|0:0,0:0:0:0:
457,358,52616,6,0,P|485:318|421:255,1,150,6|2,0:0|0:0,0:0:0:0:
343,266,53105,1,8,0:0:0:0:
258,288,53268,2,0,L|204:216,2,75,8|8|8,0:3|0:3|0:0,0:0:0:0:
437,146,53757,2,0,L|277:109,1,150,8|8,0:3|0:3,0:0:0:0:
221,130,54246,5,8,0:0:0:0:
198,198,54409,1,0,0:0:0:0:
244,254,54572,1,8,0:3:0:0:
320,255,54735,2,0,L|403:258,2,75,8|8|8,0:3|0:0|0:3,0:0:0:0:
151,332,55224,5,10,0:3:0:0:
402,349,55550,1,10,0:3:0:0:
480,347,55713,2,0,P|472:300|383:242,1,150,8|8,0:0|0:3,0:0:0:0:
310,239,56203,1,8,0:0:0:0:
83,238,56366,6,0,P|31:214|70:132,1,150,8|8,0:3|0:3,0:0:0:0:
145,104,56855,2,0,L|227:97,1,75,8|8,0:0|0:0,0:0:0:0:
44,51,57181,2,0,L|24:145,1,75,8|8,0:0|0:0,0:0:0:0:
65,146,57425,1,8,0:0:0:0:
108,156,57507,1,8,0:0:0:0:
273,229,57670,1,8,0:0:0:0:
236,251,57751,1,0,0:0:0:0:
193,261,57833,5,10,0:3:0:0:
477,373,58159,1,10,0:0:0:0:
399,356,58322,2,0,P|319:367|281:288,1,150,0|8,0:0|0:3,0:0:0:0:
358,306,58811,1,8,0:0:0:0:
127,303,58974,6,0,P|66:295|38:210,1,150,8|8,0:3|0:3,0:0:0:0:
118,173,59463,1,8,0:0:0:0:
405,184,59790,2,0,L|421:99,2,75,8|8|8,0:3|0:3|0:0,0:0:0:0:
88,58,60442,6,0,L|251:45,2,150,10|8|8,0:3|0:0|0:0,0:0:0:0:
363,164,61420,1,10,0:0:0:0:
52,198,61746,2,0,P|43:245|119:307,1,150,10|8,0:0|0:0,0:0:0:0:
192,319,62235,1,8,0:3:0:0:
373,366,62398,2,0,L|286:346,1,75,8|8,0:0|0:3,0:0:0:0:
125,229,62724,2,0,L|75:229,2,37.5,8|8|8,0:3|0:3|0:3,0:0:0:0:
375,226,63050,6,0,P|443:206|455:106,1,150,4|8,0:0|0:0,0:0:0:0:
218,152,63540,2,0,P|150:132|138:32,1,150,8|8,0:3|0:3,0:0:0:0:
204,33,64029,1,8,0:0:0:0:
477,41,64355,1,2,0:0:0:0:
44,120,64681,6,0,L|32:222,1,75,4|0,0:0|0:0,0:0:0:0:
264,252,65007,2,0,L|347:256,1,75,4|0,0:0|0:0,0:0:0:0:
110,338,65333,2,0,L|23:328,1,75,4|0,0:0|0:0,0:0:0:0:
279,158,65659,6,0,L|444:143,1,150,4|8,0:0|0:0,0:0:0:0:
347,117,66148,1,0,0:0:0:0:
166,76,66311,2,0,L|71:60,2,75,8|8|10,0:3|0:3|0:0,0:0:0:0:
341,36,66963,2,0,L|269:18,1,75,10|0,0:3|0:0,0:0:0:0:
79,125,67290,2,0,L|62:287,1,150,10|10,0:0|0:3,0:0:0:0:
248,326,67779,2,0,L|342:336,1,75,8|10,0:3|0:0,0:0:0:0:
34,375,68268,6,0,P|59:326|174:298,1,150,2|8,0:0|0:0,0:0:0:0:
225,315,68757,1,2,0:0:0:0:
408,337,68920,2,0,L|434:253,2,75,10|8|8,0:3|0:3|0:0,0:0:0:0:
119,225,69572,1,2,0:0:0:0:
182,174,69735,1,8,0:3:0:0:
263,162,69898,1,10,0:0:0:0:
23,64,70224,2,0,L|109:47,1,75,10|0,0:3|0:0,0:0:0:0:
275,88,70550,2,0,L|291:11,1,75,8|8,0:0|0:3,0:0:0:0:
103,140,70876,6,0,P|90:197|181:230,1,150,2|8,0:0|0:0,0:0:0:0:
393,337,71366,2,0,L|237:355,1,150,2|8,0:0|0:3,0:0:0:0:
411,246,71855,2,0,L|501:257,1,75,10|0,0:0|0:0,0:0:0:0:
251,169,72181,6,0,L|152:167,1,75,10|8,0:3|0:3,0:0:0:0:
339,82,72507,2,0,P|417:98|424:173,1,150,10|10,0:0|0:3,0:0:0:0:
187,259,72996,2,0,L|88:268,1,75,8|10,0:3|0:0,0:0:0:0:
417,355,73485,6,0,L|446:182,1,150,10|8,0:3|0:0,0:0:0:0:
356,164,73974,1,2,0:0:0:0:
181,108,74137,2,0,L|259:97,1,75,10|8,0:3|0:3,0:0:0:0:
428,26,74463,2,0,L|339:15,1,75,8|8,0:0|0:3,0:0:0:0:
186,29,74790,5,2,0:0:0:0:
155,93,74953,1,10,0:3:0:0:
195,153,75116,1,10,0:0:0:0:
266,149,75279,1,2,0:0:0:0:
104,202,75442,2,0,L|25:205,1,75,10|8,0:3|0:3,0:0:0:0:
214,285,75768,2,0,L|301:283,1,75,8|8,0:3|0:3,0:0:0:0:
57,362,76094,6,0,P|32:311|117:256,1,150,4|8,0:0|0:0,0:0:0:0:
170,244,76583,1,0,0:0:0:0:
344,248,76746,1,10,0:3:0:0:
289,197,76909,1,8,0:3:0:0:
200,194,77072,2,0,L|188:112,1,75,10|8,0:0|0:3,0:0:0:0:
362,73,77398,6,0,L|205:51,2,150,2|10|10,0:0|0:0|0:3,0:0:0:0:
433,78,78213,1,0,0:0:0:0:
490,125,78376,1,10,0:0:0:0:
322,187,78703,6,0,L|406:185,1,75,2|8,0:0|0:3,0:0:0:0:
238,223,79029,2,0,P|191:233|211:322,1,150,10|10,0:0|0:3,0:0:0:0:
353,354,79518,2,0,L|439:348,1,75,8|8,0:3|0:0,0:0:0:0:
198,278,79844,1,10,0:3:0:0:
117,154,80007,2,0,L|287:127,2,150,0|8|10,0:0|0:0|0:3,0:0:0:0:
331,294,80985,1,8,0:0:0:0:
24,357,81311,6,0,P|51:310|146:270,1,150,10|8,0:3|0:3,0:0:0:0:
218,268,81800,2,0,L|230:192,1,75,2|8,0:0|0:0,0:0:0:0:
67,118,82290,2,0,L|144:103,1,75,10|8,0:3|0:0,0:0:0:0:
316,53,82779,2,0,L|395:66,1,75,8|8,0:0|0:3,0:0:0:0:
106,109,83268,2,0,P|57:134|25:231,1,150,8|8,0:0|0:3,0:0:0:0:
101,234,83757,1,0,0:0:0:0:
326,269,83920,5,2,0:0:0:0:
256,192,84083,12,10,88811,0:3:0:0:
94,95,89137,6,0,P|83:131|174:184,1,150,4|8,0:0|0:0,0:0:0:0:
243,179,89626,1,0,0:0:0:0:
72,206,89790,2,0,P|26:245|72:324,1,150,10|8,0:3|0:0,0:0:0:0:
132,344,90279,1,0,0:0:0:0:
314,343,90442,6,0,L|156:322,1,150,10|8,0:3|0:0,0:0:0:0:
246,293,90931,1,0,0:0:0:0:
337,287,91094,2,0,L|347:198,1,75,10|0,0:3|0:0,0:0:0:0:
170,162,91420,2,0,L|259:140,1,75,8|0,0:0|0:0,0:0:0:0:
431,74,91746,6,0,L|274:56,2,150,10|8|10,0:3|0:0|0:3,0:0:0:0:
486,117,92561,1,0,0:0:0:0:
465,184,92724,1,8,0:0:0:0:
395,189,92887,1,0,0:0:0:0:
208,200,93050,6,0,P|198:244|286:296,1,150,10|8,0:3|0:0,0:0:0:0:
354,309,93540,1,0,0:0:0:0:
179,364,93703,2,0,L|203:286,1,75,2|2,0:0|0:0,0:0:0:0:
386,204,94029,2,0,L|292:193,1,75,8|8,0:0|0:0,0:0:0:0:
75,119,94355,6,0,L|234:103,2,150,4|8|10,0:0|0:0|0:3,0:0:0:0:
155,151,95170,1,0,0:0:0:0:
242,191,95333,2,0,L|246:269,1,75,8|0,0:0|0:0,0:0:0:0:
63,353,95659,6,0,P|97:300|202:280,1,150,10|8,0:3|0:0,0:0:0:0:
96,255,96148,1,0,0:0:0:0:
255,198,96311,2,0,L|341:185,1,75,10|0,0:3|0:0,0:0:0:0:
241,123,96637,2,0,L|144:110,1,75,8|0,0:0|0:0,0:0:0:0:
352,51,96963,2,0,L|340:132,1,75,10|0,0:3|0:0,0:0:0:0:
96,184,97290,6,0,L|13:193,1,75,10|0,0:0|0:0,0:0:0:0:
185,303,97616,2,0,L|86:320,1,75,10|8,0:0|0:0,0:0:0:0:
84,291,97860,1,8,0:0:0:0:
108,263,97942,1,8,0:0:0:0:
281,215,98105,1,8,0:0:0:0:
318,187,98186,1,8,0:0:0:0:
276,165,98268,2,0,L|192:158,1,75,2|0,0:0|0:0,0:0:0:0:
443,286,98594,6,0,L|464:187,1,75,4|0,0:0|0:0,0:0:0:0:
228,158,98920,2,0,L|212:77,1,75,4|0,0:0|0:0,0:0:0:0:
459,31,99246,2,0,L|453:124,1,75,4|0,0:0|0:0,0:0:0:0:
377,137,99572,6,0,L|277:130,2,75,2|0|0,0:0|0:0|0:0,0:0:0:0:
210,169,100224,1,2,0:0:0:0:
280,185,100387,1,0,0:0:0:0:
308,252,100550,1,0,0:0:0:0:
271,314,100713,1,2,0:0:0:0:
199,321,100876,6,0,L|53:271,1,150,2|0,0:0|0:0,0:0:0:0:
145,236,101366,2,0,L|238:224,2,75,2|2|0,0:0|0:0|0:0,0:0:0:0:
58,203,101855,1,12,0:0:0:0:
346,175,102018,5,14,0:0:0:0:
256,192,102181,12,0,108213,0:0:0:0:
