osu file format v14

[General]
AudioFilename: audio.mp3
AudioLeadIn: 0
PreviewTime: 64681
Countdown: 0
SampleSet: Soft
StackLeniency: 0.7
Mode: 2
LetterboxInBreaks: 0
WidescreenStoryboard: 1

[Editor]
DistanceSpacing: 1.1
BeatDivisor: 4
GridSize: 8
TimelineZoom: 2.599999

[Metadata]
Title:Yuki no Youni (Cut Ver.)
TitleUnicode:雪のように (Cut Ver.)
Artist:AKINO with bless4
ArtistUnicode:AKINO with bless4
Creator:Greaper
Version:Dapu's Rain
Source:
Tags:dapuluous du5t dust idu5t idust sanyi sanyi4life ascendance -luminate xinely dako jemzuu ajamez baron christmas xmas short edit cut version j-pop jpop pop japanese female vocal
BeatmapID:2227798
BeatmapSetID:1063964

[Difficulty]
HPDrainRate:5
CircleSize:4
OverallDifficulty:9
ApproachRate:9
SliderMultiplier:1.9
SliderTickRate:2

[Events]
//Background and Video events
0,0,"background.jpg",0,0
//Break Periods
//Storyboard Layer 0 (Background)
//Storyboard Layer 1 (Fail)
//Storyboard Layer 2 (Pass)
//Storyboard Layer 3 (Foreground)
//Storyboard Layer 4 (Overlay)
//Storyboard Sound Samples

[TimingPoints]
474,326.086956521739,4,2,11,40,1,0
474,-100,4,2,11,40,0,0
5039,-100,4,2,11,5,0,0
5365,-100,4,2,11,40,0,0
9604,-100,4,2,11,50,0,0
10064,326.086956521739,4,2,11,50,1,0
10080,-100,4,2,11,50,0,0
10551,326.086956521739,4,2,11,50,1,0
10551,-100,4,2,11,50,0,0
10877,326.086956521739,4,2,11,60,1,0
10877,-100,4,2,11,60,0,0
21311,-100,4,2,11,65,0,0
30768,-100,4,2,11,70,0,0
31746,-100,4,2,11,55,0,0
42181,-100,4,2,11,60,0,0
52616,-100,4,2,11,65,0,0
63050,-100,4,2,11,70,0,0
65659,-90.9090909090909,4,2,11,80,0,1
65741,-90.9090909090909,4,2,12,80,0,1
76094,-90.9090909090909,4,2,11,80,0,1
76175,-90.9090909090909,4,2,12,80,0,1
81311,-90.9090909090909,4,2,12,70,0,0
83920,-90.9090909090909,4,2,11,50,0,0
85387,-90.9090909090909,4,2,11,40,0,0
88159,-90.9090909090909,4,2,11,5,0,0
88322,-90.9090909090909,4,2,11,20,0,0
88811,-90.9090909090909,4,2,11,30,0,0
89137,-100,4,2,11,75,0,0
89219,-100,4,2,12,75,0,0
93784,-100,4,2,12,40,0,0
93866,-100,4,2,12,75,0,0
93947,-100,4,2,12,40,0,0
94029,-100,4,2,12,75,0,0
94110,-100,4,2,12,45,0,0
94192,-100,4,2,12,75,0,0
94273,-100,4,2,12,45,0,0
94355,-100,4,2,11,75,0,0
94436,-100,4,2,12,75,0,0
98594,-100,4,2,11,80,0,0
99572,-100,4,2,11,60,0,0
101855,-100,4,2,11,75,0,0
102181,-100,4,2,11,55,0,0
103485,-100,4,2,11,45,0,0
104790,-100,4,2,11,35,0,0
106094,-100,4,2,11,25,0,0
107398,-100,4,2,11,15,0,0
108213,-100,4,2,11,5,0,0

[Colours]
Combo1 : 90,175,78
Combo2 : 202,13,13
Combo3 : 255,200,34

[HitObjects]
256,192,474,12,0,5039,0:0:0:0:
72,192,5365,5,0,0:0:0:0:
280,56,5691,6,0,P|488:168|288:296,1,570,2|0,0:0|0:0,0:0:0:0:
128,144,6995,6,0,P|312:144|456:264,1,380,2|0,0:0|0:0,0:0:0:0:
200,264,7973,2,0,L|88:264,1,95,2|0,0:0|0:0,0:0:0:0:
248,64,8300,6,0,P|456:176|256:296,1,570,2|0,0:0|0:0,0:0:0:0:
104,192,9604,6,0,P|104:280|192:280,1,190,2|0,0:0|0:0,0:0:0:0:
280,128,10064,6,0,L|352:128,1,47.5,8|8,0:3|0:3,0:0:0:0:
136,32,10227,2,0,L|32:32,1,95,8|0,0:0|0:0,0:0:0:0:
424,72,10877,6,0,P|424:176|272:176,1,285,4|0,0:0|0:0,0:0:0:0:
168,192,11529,2,0,P|168:288|256:288,1,190,4|0,0:3|0:0,0:0:0:0:
16,192,12181,5,4,0:0:0:0:
168,48,12344,2,0,P|168:136|80:136,1,190,8|8,0:3|0:3,0:0:0:0:
192,192,12833,1,4,0:3:0:0:
296,192,12996,2,0,L|424:192,1,95,8|8,0:3|0:3,0:0:0:0:
48,192,13485,6,0,P|48:280|144:280,1,190,4|0,0:0|0:0,0:0:0:0:
288,192,13974,1,8,0:0:0:0:
448,192,14137,1,8,0:0:0:0:
176,192,14790,5,4,0:0:0:0:
328,80,14953,2,0,P|392:112|328:176,1,190,8|8,0:0|0:0,0:0:0:0:
224,176,15442,1,4,0:3:0:0:
329,176,15605,1,8,0:0:0:0:
432,176,15768,1,8,0:3:0:0:
329,176,15931,1,8,0:3:0:0:
80,232,16094,6,0,P|80:336|232:336,1,285,4|0,0:0|0:0,0:0:0:0:
336,280,16746,2,0,L|448:280,1,95,4|0,0:3|0:0,0:0:0:0:
280,128,17072,2,0,L|184:128,1,95,8|0,0:3|0:0,0:0:0:0:
424,104,17398,6,0,P|424:192|336:192,1,190,4|0,0:0|0:0,0:0:0:0:
232,192,17887,2,0,L|232:304,1,95,8|4,0:3|0:3,0:0:0:0:
336,192,18213,1,8,0:3:0:0:
184,96,18376,2,0,L|72:96,1,95,8|8,0:3|0:3,0:0:0:0:
328,40,18703,6,0,P|392:80|312:128,1,190,4|2,0:0|0:0,0:0:0:0:
40,192,19355,2,0,L|152:192,1,95,6|0,0:0|0:0,0:0:0:0:
288,296,19681,2,0,L|192:296,1,95,2|0,0:0|0:0,0:0:0:0:
432,192,20007,6,0,L|432:287,1,95,4|8,0:0|0:3,0:0:0:0:
192,192,20333,1,4,0:0:0:0:
336,189,20496,1,8,0:3:0:0:
192,192,20659,1,4,0:0:0:0:
432,128,20822,2,0,L|496:128,1,47.5,8|8,0:0|0:0,0:0:0:0:
479,128,20985,2,0,L|423:128,1,47.5,8|0,0:0|0:0,0:0:0:0:
224,40,21148,2,0,L|152:40,1,47.5,8|8,0:0|0:0,0:0:0:0:
392,192,21311,6,0,P|456:224|384:280,1,190,2|8,0:0|0:0,0:0:0:0:
280,192,21800,1,0,0:0:0:0:
432,240,21963,2,0,L|432:336,1,95,12|0,0:3|0:0,0:0:0:0:
280,120,22290,2,0,L|184:120,1,95,8|0,0:0|0:0,0:0:0:0:
432,32,22616,6,0,P|432:120|344:120,1,190,12|8,0:3|0:0,0:0:0:0:
456,192,23105,1,0,0:0:0:0:
304,192,23268,2,0,L|304:288,1,95,12|0,0:3|0:0,0:0:0:0:
456,48,23594,2,0,L|360:48,1,95,8|0,0:0|0:0,0:0:0:0:
120,56,23920,6,0,P|120:144|208:144,1,190,12|8,0:3|0:0,0:0:0:0:
312,192,24409,1,0,0:0:0:0:
160,240,24572,2,0,L|160:344,1,95,12|0,0:3|0:0,0:0:0:0:
312,256,24898,2,0,L|312:368,1,95,8|0,0:0|0:0,0:0:0:0:
72,192,25224,6,0,L|296:192,1,190,12|8,0:3|0:0,0:0:0:0:
368,192,25713,1,0,0:0:0:0:
128,72,25876,1,2,0:0:0:0:
72,72,25958,1,0,0:0:0:0:
72,72,26040,1,2,0:0:0:0:
128,72,26121,1,0,0:0:0:0:
320,80,26203,2,0,L|456:80,1,95,10|2,0:0|0:0,0:0:0:0:
128,192,26529,6,0,P|64:224|136:280,1,190,4|8,0:0|0:0,0:0:0:0:
240,192,27018,1,0,0:0:0:0:
88,56,27181,2,0,L|88:160,1,95,12|0,0:3|0:0,0:0:0:0:
240,72,27507,2,0,L|136:72,1,95,8|0,0:0|0:0,0:0:0:0:
384,192,27833,6,0,P|384:280|296:280,1,190,12|8,0:3|0:0,0:0:0:0:
408,192,28322,1,0,0:0:0:0:
256,56,28485,2,0,L|160:56,1,95,12|0,0:3|0:0,0:0:0:0:
312,248,28811,2,0,L|416:248,1,95,8|0,0:0|0:0,0:0:0:0:
168,192,29137,6,0,P|112:200|176:264,1,190,12|8,0:3|0:0,0:0:0:0:
272,192,29626,1,0,0:0:0:0:
120,64,29790,2,0,L|120:168,1,95,8|8,0:0|0:0,0:0:0:0:
176,64,30034,1,8,0:0:0:0:
368,192,30116,2,0,L|488:192,1,95,8|8,0:0|0:0,0:0:0:0:
408,240,30360,1,8,0:0:0:0:
216,288,30442,6,0,L|120:288,1,95,8|0,0:3|0:0,0:0:0:0:
408,48,30768,2,0,L|408:160,1,95,4|0,0:0|0:0,0:0:0:0:
160,112,31094,2,0,L|56:112,1,95,4|0,0:0|0:0,0:0:0:0:
352,248,31420,2,0,L|472:248,1,95,4|0,0:0|0:0,0:0:0:0:
184,264,31746,6,0,P|128:272|192:336,1,190,2|8,0:0|0:3,0:0:0:0:
392,192,32398,2,0,L|504:192,2,95,8|0|8,0:3|0:0|0:0,0:0:0:0:
240,48,32887,6,0,P|152:72|248:176,1,285,0|8,0:0|0:3,0:0:0:0:
48,192,33703,1,0,0:0:0:0:
160,192,33866,2,0,L|160:296,1,95,0|8,0:0|0:3,0:0:0:0:
48,192,34192,1,0,0:0:0:0:
288,272,34355,6,0,L|88:272,1,190,10|8,0:3|0:0,0:0:0:0:
288,128,35007,2,0,L|392:128,2,95,8|0|8,0:3|0:0|0:3,0:0:0:0:
184,128,35496,1,0,0:0:0:0:
424,192,35659,6,0,P|424:288|336:288,1,190,10|8,0:3|0:3,0:0:0:0:
72,192,36311,2,0,L|176:192,1,95,10|0,0:3|0:0,0:0:0:0:
408,48,36637,2,0,L|408:152,1,95,10|0,0:0|0:0,0:0:0:0:
120,192,36963,6,0,P|56:224|120:288,1,190,4|8,0:0|0:3,0:0:0:0:
312,352,37616,2,0,L|216:352,1,95,8|0,0:3|0:0,0:0:0:0:
328,288,37942,2,0,L|232:288,1,95,8|0,0:3|0:0,0:0:0:0:
472,192,38268,6,0,L|472:80,1,95,2|0,0:0|0:0,0:0:0:0:
320,72,38594,2,0,L|208:72,1,95,8|0,0:0|0:0,0:0:0:0:
376,192,38920,2,0,P|440:240|368:288,1,190,8|8,0:3|0:3,0:0:0:0:
88,192,39572,6,0,P|88:288|176:288,1,190,10|8,0:3|0:3,0:0:0:0:
272,192,40061,1,0,0:0:0:0:
120,48,40224,2,0,L|120:144,1,95,8|0,0:3|0:0,0:0:0:0:
272,72,40550,2,0,L|168:72,1,95,8|0,0:0|0:0,0:0:0:0:
416,248,40876,6,0,L|416:144,1,95,10|8,0:3|0:0,0:0:0:0:
296,160,41203,1,8,0:3:0:0:
416,153,41366,1,0,0:0:0:0:
177,72,41529,2,0,L|129:72,1,47.5,10|8,0:3|0:3,0:0:0:0:
129,72,41692,2,0,L|176:72,1,47.5,8|8,0:3|0:3,0:0:0:0:
368,232,41855,2,0,L|472:232,1,95,4|8,0:0|0:3,0:0:0:0:
152,192,42181,6,0,L|40:192,1,95,4|0,0:0|0:0,0:0:0:0:
224,248,42507,2,0,L|224:368,1,95,8|0,0:0|0:0,0:0:0:0:
328,192,42833,1,8,0:3:0:0:
224,192,42996,1,0,0:0:0:0:
120,192,43159,1,8,0:0:0:0:
360,40,43322,6,0,P|456:40|456:120,1,190
304,304,43811,2,0,L|408:304,1,95,8|0,0:0|0:0,0:0:0:0:
304,264,44137,2,0,L|208:264,1,95,8|0,0:3|0:0,0:0:0:0:
360,192,44463,2,0,L|360:96,1,95,8|0,0:0|0:0,0:0:0:0:
120,192,44790,6,0,L|120:288,1,95,10|0,0:3|0:0,0:0:0:0:
272,296,45116,2,0,L|176:296,1,95,8|0,0:0|0:0,0:0:0:0:
72,192,45442,1,8,0:3:0:0:
176,192,45605,1,0,0:0:0:0:
336,248,45768,2,0,L|440:248,1,95,8|0,0:0|0:0,0:0:0:0:
192,72,46094,6,0,L|192:168,1,95,10|0,0:3|0:0,0:0:0:0:
344,192,46420,1,8,0:0:0:0:
240,192,46583,1,0,0:0:0:0:
344,112,46746,2,0,L|464:112,1,95,10|0,0:3|0:0,0:0:0:0:
200,248,47072,2,0,L|88:248,1,95,10|0,0:0|0:0,0:0:0:0:
392,192,47398,6,0,P|456:208|392:272,1,190,4|8,0:0|0:0,0:0:0:0:
288,192,47887,1,8,0:3:0:0:
184,192,48050,2,0,L|184:304,1,95,0|8,0:0|0:3,0:0:0:0:
336,80,48376,2,0,L|456:80,1,95,8|0,0:0|0:0,0:0:0:0:
192,48,48703,6,0,P|128:88|208:128,1,190,4|8,0:0|0:0,0:0:0:0:
304,120,49192,1,8,0:3:0:0:
152,192,49355,2,0,L|152:288,1,95,2|8,0:0|0:3,0:0:0:0:
304,264,49681,2,0,L|208:264,1,95,8|0,0:0|0:0,0:0:0:0:
448,192,50007,6,0,P|448:272|344:272,1,190,4|8,0:0|0:0,0:0:0:0:
112,80,50496,2,0,L|232:80,1,95,10|0,0:3|0:0,0:0:0:0:
360,144,50822,2,0,L|256:144,1,95,10|8,0:3|0:0,0:0:0:0:
24,192,51148,6,0,P|24:280|112:280,1,190,8|0,0:3|0:0,0:0:0:0:
216,192,51637,1,8,0:0:0:0:
320,192,51800,1,8,0:3:0:0:
80,64,51963,1,8,0:0:0:0:
24,64,52045,1,8,0:0:0:0:
24,64,52126,1,8,0:0:0:0:
80,64,52208,1,8,0:0:0:0:
224,254,52290,2,0,L|288:254,1,47.5,8|8,0:0|0:0,0:0:0:0:
104,280,52453,2,0,L|48:280,1,47.5,8|8,0:0|0:0,0:0:0:0:
296,96,52616,6,0,L|416:96,1,95,6|0,0:0|0:0,0:0:0:0:
96,152,52942,2,0,L|96:256,1,95,2|8,0:0|0:0,0:0:0:0:
344,192,53268,1,8,0:3:0:0:
240,192,53431,1,8,0:3:0:0:
136,192,53594,1,8,0:0:0:0:
384,192,53757,6,0,P|472:240|432:304,1,190,8|8,0:3|0:3,0:0:0:0:
280,296,54246,2,0,L|376:296,1,95,8|0,0:0|0:0,0:0:0:0:
272,224,54572,2,0,L|176:224,1,95,8|8,0:3|0:3,0:0:0:0:
328,48,54898,2,0,L|424:48,1,95,8|8,0:0|0:3,0:0:0:0:
136,72,55224,6,0,L|32:72,1,95,10|0,0:3|0:0,0:0:0:0:
328,192,55550,2,0,L|440:192,1,95,10|8,0:3|0:0,0:0:0:0:
272,256,55876,2,0,L|168:256,1,95,0|8,0:0|0:3,0:0:0:0:
328,256,56203,1,8,0:0:0:0:
88,192,56366,6,0,P|24:240|96:280,1,190,8|8,0:3|0:3,0:0:0:0:
200,192,56855,1,8,0:0:0:0:
440,48,57018,1,8,0:0:0:0:
496,48,57099,1,8,0:0:0:0:
496,48,57181,1,8,0:0:0:0:
440,48,57262,1,0,0:0:0:0:
288,256,57344,2,0,L|240:256,1,47.5,8|8,0:0|0:0,0:0:0:0:
240,256,57507,2,0,L|304:256,1,47.5,8|0,0:0|0:0,0:0:0:0:
440,320,57670,2,0,L|392:320,1,47.5,8|0,0:0|0:0,0:0:0:0:
160,64,57833,6,0,L|48:64,1,95,10|0,0:3|0:0,0:0:0:0:
352,64,58159,2,0,L|352:168,1,95,10|0,0:0|0:0,0:0:0:0:
240,152,58485,2,0,L|144:152,2,95,8|8|8,0:3|0:3|0:0,0:0:0:0:
480,192,58974,6,0,P|480:288|392:288,1,190,8|8,0:3|0:3,0:0:0:0:
248,328,59463,2,0,L|136:328,1,95,8|0,0:0|0:0,0:0:0:0:
264,240,59790,2,0,L|360:240,1,95,8|8,0:3|0:3,0:0:0:0:
120,80,60116,2,0,L|24:80,1,95,8|0,0:0|0:0,0:0:0:0:
312,128,60442,6,0,L|416:128,1,95,10|8,0:3|0:3,0:0:0:0:
256,192,60768,1,8,0:0:0:0:
408,192,60931,1,8,0:3:0:0:
256,192,61094,2,0,L|256:287,1,95,8|8,0:0|0:3,0:0:0:0:
408,80,61420,2,0,L|304:80,1,95,10|8,0:0|0:3,0:0:0:0:
72,64,61746,6,0,L|168:64,1,95,10|8,0:0|0:3,0:0:0:0:
320,192,62072,2,0,L|440:192,1,95,8|8,0:0|0:3,0:0:0:0:
264,192,62398,2,0,L|160:192,1,95,8|8,0:0|0:3,0:0:0:0:
416,248,62724,2,0,L|504:248,1,47.5,8|8,0:3|0:3,0:0:0:0:
463,248,62887,2,0,L|415:248,1,47.5,8|8,0:3|0:3,0:0:0:0:
208,48,63050,6,0,P|112:48|56:120,1,190,4|8,0:0|0:0,0:0:0:0:
352,120,63540,2,0,P|416:160|344:208,1,190,8|8,0:3|0:3,0:0:0:0:
104,192,64029,2,0,L|104:288,1,95,8|0,0:0|0:0,0:0:0:0:
392,192,64355,6,0,L|488:192,1,95,2|0,0:0|0:0,0:0:0:0:
192,192,64681,2,0,L|96:192,1,95,4|0,0:0|0:0,0:0:0:0:
384,248,65007,2,0,L|488:248,1,95,4|0,0:0|0:0,0:0:0:0:
192,48,65333,2,0,L|88:48,1,95,4|0,0:0|0:0,0:0:0:0:
416,80,65659,6,0,P|416:168|310:174,1,209.000006378174,4|8,0:0|0:0,0:0:0:0:
216,168,66148,1,0,0:0:0:0:
384,192,66311,2,0,L|496:192,1,104.500003189087,8|8,0:3|0:3,0:0:0:0:
224,280,66637,2,0,L|104:280,1,104.500003189087,10|0,0:0|0:0,0:0:0:0:
384,336,66963,6,0,L|168:336,1,209.000006378174,10|10,0:3|0:0,0:0:0:0:
448,192,67616,2,0,L|488:304,1,104.500003189087,10|8,0:3|0:3,0:0:0:0:
224,64,67942,2,0,L|112:64,1,104.500003189087,10|8,0:0|0:3,0:0:0:0:
440,64,68268,6,0,P|440:160|336:160,1,209.000006378174,2|8,0:0|0:0,0:0:0:0:
464,192,68757,1,2,0:0:0:0:
296,336,68920,2,0,L|296:224,1,104.500003189087,10|8,0:3|0:3,0:0:0:0:
464,288,69246,2,0,L|360:288,1,104.500003189087,8|8,0:0|0:3,0:0:0:0:
96,192,69572,6,0,P|24:208|104:256,1,209.000006378174,2|10,0:0|0:0,0:0:0:0:
408,192,70224,2,0,L|296:192,1,104.500003189087,10|0,0:3|0:0,0:0:0:0:
136,192,70550,2,0,L|136:304,1,104.500003189087,8|8,0:0|0:3,0:0:0:0:
400,48,70876,6,0,L|184:48,1,209.000006378174,2|8,0:0|0:0,0:0:0:0:
360,136,71366,2,0,P|448:136|448:240,1,209.000006378174,2|8,0:0|0:3,0:0:0:0:
184,248,71855,2,0,L|80:248,1,104.500003189087,10|0,0:0|0:0,0:0:0:0:
400,336,72181,6,0,L|512:336,1,104.500003189087,10|8,0:3|0:3,0:0:0:0:
336,264,72507,2,0,L|440:264,1,104.500003189087,10|0,0:0|0:0,0:0:0:0:
120,192,72833,2,0,L|120:80,1,104.500003189087,10|8,0:3|0:3,0:0:0:0:
432,192,73159,2,0,L|432:80,1,104.500003189087,10|0,0:0|0:0,0:0:0:0:
120,192,73485,6,0,P|32:232|96:280,1,209.000006378174,10|8,0:3|0:0,0:0:0:0:
216,192,73974,1,2,0:0:0:0:
496,56,74137,2,0,L|496:160,1,104.500003189087,10|8,0:3|0:3,0:0:0:0:
328,160,74463,1,8,0:0:0:0:
496,160,74626,1,8,0:3:0:0:
176,256,74790,5,2,0:0:0:0:
72,263,74953,1,10,0:3:0:0:
376,48,75116,2,0,L|480:48,1,104.500003189087,10|2,0:0|0:0,0:0:0:0:
144,120,75442,2,0,L|16:120,1,104.500003189087,10|8,0:3|0:3,0:0:0:0:
352,192,75768,2,0,L|456:192,1,104.500003189087,8|8,0:3|0:3,0:0:0:0:
128,192,76094,6,0,P|72:208|152:280,1,209.000006378174,4|8,0:0|0:0,0:0:0:0:
256,192,76583,1,0,0:0:0:0:
424,200,76746,2,0,L|424:312,1,104.500003189087,10|8,0:3|0:3,0:0:0:0:
256,144,77072,2,0,L|376:144,1,104.500003189087,10|8,0:0|0:3,0:0:0:0:
96,192,77398,6,0,P|96:280|200:280,1,209.000006378174,2|10,0:0|0:0,0:0:0:0:
496,96,78050,2,0,L|392:96,1,104.500003189087,10|0,0:3|0:0,0:0:0:0:
224,64,78376,2,0,L|336:64,1,104.500003189087,10|8,0:0|0:3,0:0:0:0:
40,192,78703,6,0,P|40:288|144:288,1,209.000006378174,2|10,0:0|0:0,0:0:0:0:
408,192,79355,1,10,0:3:0:0:
272,193,79518,1,8,0:3:0:0:
408,192,79681,1,8,0:0:0:0:
104,48,79844,6,0,P|32:96|112:136,1,209.000006378174,10|8,0:3|0:3,0:0:0:0:
224,192,80333,2,0,L|224:296,1,104.500003189087,8|0,0:0|0:0,0:0:0:0:
56,248,80659,2,0,L|56:360,1,104.500003189087,10|8,0:3|0:3,0:0:0:0:
224,72,80985,2,0,L|112:72,1,104.500003189087,8|0,0:0|0:0,0:0:0:0:
440,192,81311,6,0,P|440:288|336:288,1,209.000006378174,10|8,0:3|0:3,0:0:0:0:
232,192,81800,1,2,0:0:0:0:
64,192,81963,2,0,L|64:296,1,104.500003189087,8|0,0:0|0:0,0:0:0:0:
240,64,82290,2,0,L|240:168,1,104.500003189087,10|8,0:3|0:0,0:0:0:0:
72,280,82616,6,0,L|176:280,1,104.500003189087,8|8,0:3|0:0,0:0:0:0:
344,264,82942,2,0,L|456:264,1,104.500003189087,8|0,0:3|0:0,0:0:0:0:
176,192,83268,1,8,0:0:0:0:
296,64,83431,1,2,0:0:0:0:
296,64,83594,1,8,0:3:0:0:
176,64,83757,1,0,0:0:0:0:
480,192,83920,6,0,P|480:288|384:288,1,209.000006378174,2|0,0:0|0:0,0:0:0:0:
224,192,84409,2,0,L|448:192,1,209.000006378174,2|0,0:0|0:0,0:0:0:0:
168,192,84898,6,0,P|112:208|184:280,1,209.000006378174,2|2,0:0|0:0,0:0:0:0:
256,192,85387,12,8,88974,0:3:0:0:
344,248,89137,6,0,P|409:280|336:336,1,190,4|8,0:0|0:0,0:0:0:0:
232,192,89626,1,0,0:0:0:0:
384,192,89789,2,0,L|384:288,1,95,10|0,0:3|0:0,0:0:0:0:
232,120,90116,2,0,L|328:120,1,95,8|0,0:0|0:0,0:0:0:0:
80,32,90442,6,0,P|80:120|168:120,1,190,10|8,0:3|0:0,0:0:0:0:
272,192,90931,1,0,0:0:0:0:
120,192,91094,2,0,L|224:192,1,95,10|0,0:3|0:0,0:0:0:0:
64,48,91420,2,0,L|160:48,1,95,8|0,0:0|0:0,0:0:0:0:
400,56,91746,6,0,P|400:144|312:144,1,190,10|8,0:3|0:0,0:0:0:0:
208,192,92235,1,0,0:0:0:0:
360,240,92398,2,0,L|464:240,1,95,10|0,0:3|0:0,0:0:0:0:
304,320,92724,2,0,L|424:320,1,95,8|0,0:0|0:0,0:0:0:0:
160,80,93050,6,0,P|64:80|64:168,1,190,10|8,0:3|0:0,0:0:0:0:
168,192,93539,1,0,0:0:0:0:
408,72,93702,1,2,0:0:0:0:
464,72,93784,1,0,0:0:0:0:
464,72,93866,1,2,0:0:0:0:
408,72,93947,1,0,0:0:0:0:
216,80,94029,2,0,L|80:80,1,95,8|8,0:0|0:0,0:0:0:0:
384,192,94355,6,0,P|448:224|376:280,1,190,4|8,0:0|0:0,0:0:0:0:
272,192,94844,1,0,0:0:0:0:
424,56,95007,2,0,L|424:160,1,95,10|0,0:3|0:0,0:0:0:0:
272,72,95333,2,0,L|376:72,1,95,8|0,0:0|0:0,0:0:0:0:
128,192,95659,6,0,P|128:280|216:280,1,190,10|8,0:3|0:0,0:0:0:0:
320,192,96148,1,0,0:0:0:0:
472,56,96311,2,0,L|472:160,1,95,10|0,0:3|0:0,0:0:0:0:
320,304,96637,2,0,L|416:304,1,95,8|0,0:0|0:0,0:0:0:0:
176,288,96963,6,0,L|176:192,1,95,10|0,0:3|0:0,0:0:0:0:
464,144,97290,2,0,L|464:248,1,95,10|0,0:0|0:0,0:0:0:0:
176,104,97616,2,0,L|64:104,1,95,10|8,0:0|0:0,0:0:0:0:
136,144,97860,1,8,0:0:0:0:
352,48,97942,2,0,L|456:48,1,95,8|8,0:0|0:0,0:0:0:0:
400,80,98186,1,8,0:0:0:0:
208,192,98268,6,0,L|113:192,1,95,2|0,0:0|0:0,0:0:0:0:
400,264,98594,2,0,L|272:264,1,95,4|0,0:0|0:0,0:0:0:0:
32,192,98920,2,0,L|152:192,1,95,4|0,0:0|0:0,0:0:0:0:
416,48,99246,2,0,L|312:48,1,95,4|0,0:0|0:0,0:0:0:0:
168,96,99572,5,2,0:0:0:0:
56,96,99735,1,0,0:0:0:0:
56,96,99898,1,0,0:0:0:0:
168,96,100061,1,0,0:0:0:0:
320,192,100224,1,2,0:0:0:0:
208,192,100387,1,0,0:0:0:0:
320,192,100550,1,0,0:0:0:0:
208,192,100713,1,2,0:0:0:0:
360,256,100876,5,2,0:0:0:0:
472,256,101040,1,0,0:0:0:0:
472,256,101203,1,0,0:0:0:0:
360,256,101366,1,2,0:0:0:0:
208,192,101529,2,0,L|104:192,1,95,2|0,0:0|0:0,0:0:0:0:
400,192,101855,5,12,0:0:0:0:
64,192,102018,1,14,0:0:0:0:
256,192,102181,12,0,108213,0:0:0:0:
