osu file format v14

[General]
AudioFilename: audio.mp3
AudioLeadIn: 0
PreviewTime: 64681
Countdown: 0
SampleSet: Soft
StackLeniency: 0.7
Mode: 2
LetterboxInBreaks: 0
WidescreenStoryboard: 1

[Editor]
DistanceSpacing: 1.1
BeatDivisor: 4
GridSize: 16
TimelineZoom: 1.7

[Metadata]
Title:Yuki no Youni (Cut Ver.)
TitleUnicode:雪のように (Cut Ver.)
Artist:AKINO with bless4
ArtistUnicode:AKINO with bless4
Creator:Greaper
Version:Cup
Source:
Tags:dapuluous du5t dust idu5t idust sanyi sanyi4life ascendance -luminate xinely dako jemzuu ajamez baron christmas xmas short edit cut version j-pop jpop pop japanese female vocal
BeatmapID:2227797
BeatmapSetID:1063964

[Difficulty]
HPDrainRate:2
CircleSize:2.5
OverallDifficulty:6
ApproachRate:6
SliderMultiplier:1.3
SliderTickRate:1

[Events]
//Background and Video events
0,0,"background.jpg",0,0
//Break Periods
//Storyboard Layer 0 (Background)
//Storyboard Layer 1 (Fail)
//Storyboard Layer 2 (Pass)
//Storyboard Layer 3 (Foreground)
//Storyboard Layer 4 (Overlay)
//Storyboard Sound Samples

[TimingPoints]
474,326.086956521739,4,2,11,40,1,0
474,-100,4,2,11,40,0,0
5039,-100,4,2,11,5,0,0
5365,-100,4,2,11,40,0,0
9604,-100,4,2,11,50,0,0
10064,326.086956521739,4,2,11,50,1,0
10080,-100,4,2,11,50,0,0
10551,326.086956521739,4,2,11,50,1,0
10551,-100,4,2,11,50,0,0
10877,326.086956521739,4,2,11,60,1,0
10877,-100,4,2,11,60,0,0
21311,-100,4,2,11,65,0,0
30768,-100,4,2,11,70,0,0
31746,-100,4,2,11,55,0,0
42181,-100,4,2,11,60,0,0
52616,-100,4,2,11,65,0,0
63050,-100,4,2,11,70,0,0
65659,-100,4,2,11,80,0,1
65741,-100,4,2,12,80,0,1
76094,-100,4,2,11,80,0,1
76175,-100,4,2,12,80,0,1
81311,-100,4,2,12,70,0,0
83920,-100,4,2,11,50,0,0
85387,-100,4,2,11,40,0,0
88159,-100,4,2,11,5,0,0
88322,-100,4,2,11,20,0,0
88811,-100,4,2,11,30,0,0
89137,-100,4,2,11,75,0,0
89219,-100,4,2,12,75,0,0
93784,-100,4,2,12,40,0,0
93866,-100,4,2,12,75,0,0
93947,-100,4,2,12,40,0,0
94029,-100,4,2,12,75,0,0
94110,-100,4,2,12,45,0,0
94192,-100,4,2,12,75,0,0
94273,-100,4,2,12,45,0,0
94355,-100,4,2,11,75,0,0
94436,-100,4,2,12,75,0,0
98594,-100,4,2,11,80,0,0
99572,-100,4,2,11,60,0,0
101855,-100,4,2,11,75,0,0
102181,-100,4,2,11,55,0,0
103485,-100,4,2,11,45,0,0
104790,-100,4,2,11,35,0,0
106094,-100,4,2,11,25,0,0
107398,-100,4,2,11,15,0,0
108213,-100,4,2,11,5,0,0

[Colours]
Combo1 : 90,175,78
Combo2 : 202,13,13
Combo3 : 255,200,34

[HitObjects]
256,192,474,12,0,5039,0:0:0:0:
345,217,5365,5,0,0:0:0:0:
202,300,5691,2,0,P|175:226|475:144,1,520,2|2,0:0|0:0,0:0:0:0:
180,183,7973,2,0,L|175:275,1,65,2|0,0:0|0:0,0:0:0:0:
276,288,8300,6,0,P|339:273|175:77,1,520,2|2,0:0|0:0,0:0:0:0:
357,175,10064,2,0,L|362:265,1,65,8|8,0:3|0:0,0:0:0:0:
154,283,10877,6,0,P|109:273|151:108,1,260,4|4,0:0|0:3,0:0:0:0:
371,91,12181,6,0,L|373:163,1,65,4|8,0:0|0:3,0:0:0:0:
243,212,12670,2,0,L|375:244,1,130,8|8,0:3|0:3,0:0:0:0:
431,246,13159,1,8,0:3:0:0:
272,290,13485,6,0,P|241:267|265:113,1,195,4|8,0:0|0:0,0:0:0:0:
320,174,14137,1,8,0:0:0:0:
360,127,14790,6,0,L|365:41,1,65,4|8,0:0|0:0,0:0:0:0:
259,57,15279,1,8,0:0:0:0:
129,85,15605,1,8,0:0:0:0:
194,124,15768,1,8,0:3:0:0:
259,147,15931,1,8,0:3:0:0:
351,187,16094,6,0,P|405:203|318:323,1,260,4|4,0:0|0:3,0:0:0:0:
211,317,17072,1,8,0:3:0:0:
53,302,17398,6,0,P|55:260|191:169,1,195,4|8,0:0|0:3,0:0:0:0:
229,143,18050,1,4,0:3:0:0:
223,71,18213,1,8,0:3:0:0:
157,66,18376,1,8,0:3:0:0:
311,58,18703,5,4,0:0:0:0:
180,141,19029,2,0,L|32:154,2,130,2|6|2,0:0|0:0|0:0,0:0:0:0:
336,162,20007,6,0,L|343:308,1,130,4|4,0:0|0:0,0:0:0:0:
211,307,20659,2,0,L|51:320,1,130,4|8,0:0|0:0,0:0:0:0:
239,221,21311,6,0,L|248:85,1,130,2|8,0:0|0:0,0:0:0:0:
121,136,21963,2,0,P|79:117|52:37,1,130,12|8,0:3|0:0,0:0:0:0:
196,30,22616,6,0,L|342:36,1,130,12|8,0:3|0:0,0:0:0:0:
199,118,23268,2,0,L|193:259,1,130,12|8,0:3|0:0,0:0:0:0:
336,233,23920,6,0,P|376:269|331:320,1,130,12|8,0:3|0:0,0:0:0:0:
202,261,24572,2,0,L|151:207,2,65,12|0|8,0:3|0:0|0:0,0:0:0:0:
359,262,25224,6,0,L|366:114,1,130,12|8,0:3|0:0,0:0:0:0:
235,188,25876,2,0,L|100:177,1,130,2|10,0:0|0:0,0:0:0:0:
119,111,26366,1,2,0:0:0:0:
198,88,26529,6,0,L|336:81,1,130,4|8,0:0|0:0,0:0:0:0:
199,155,27181,2,0,L|191:291,1,130,12|8,0:3|0:0,0:0:0:0:
351,295,27833,6,0,P|388:275|363:181,1,130,12|8,0:3|0:0,0:0:0:0:
339,165,28322,1,0,0:0:0:0:
275,153,28485,2,0,L|186:151,2,65,12|0|8,0:3|0:0|0:0,0:0:0:0:
433,150,29137,6,0,L|442:7,1,130,12|8,0:3|0:0,0:0:0:0:
315,25,29790,2,0,L|461:33,1,130,8|8,0:0|0:0,0:0:0:0:
380,96,30279,1,8,0:0:0:0:
315,96,30442,1,8,0:3:0:0:
157,194,30768,6,0,L|16:199,2,130,4|4|4,0:0|0:0|0:0,0:0:0:0:
313,276,31746,6,0,L|320:123,1,130,2|8,0:0|0:3,0:0:0:0:
199,177,32398,2,0,L|131:173,2,65,8|0|8,0:3|0:0|0:0,0:0:0:0:
277,142,32887,6,0,P|319:125|260:23,1,195,0|8,0:0|0:3,0:0:0:0:
140,39,33703,1,0,0:0:0:0:
11,51,34029,1,8,0:3:0:0:
168,121,34355,6,0,L|282:192,1,130,10|8,0:3|0:0,0:0:0:0:
139,211,35007,2,0,P|83:151|96:99,1,130,8|8,0:3|0:3,0:0:0:0:
155,189,35496,1,0,0:0:0:0:
221,187,35659,6,0,L|226:100,1,65,10|0,0:3|0:0,0:0:0:0:
159,108,35985,1,8,0:3:0:0:
316,94,36311,2,0,L|454:81,1,130,10|10,0:3|0:0,0:0:0:0:
283,217,36963,6,0,P|241:230|288:285,1,130,4|8,0:0|0:3,0:0:0:0:
406,311,37616,2,0,L|478:315,2,65,8|0|8,0:3|0:0|0:3,0:0:0:0:
250,303,38268,6,0,L|96:293,1,130,2|8,0:0|0:0,0:0:0:0:
248,231,38920,2,0,P|276:212|229:134,1,130,8|8,0:3|0:3,0:0:0:0:
95,117,39572,6,0,L|371:83,1,260,10|8,0:3|0:3,0:0:0:0:
198,128,40550,1,8,0:0:0:0:
358,134,40876,6,0,L|366:220,1,65,10|8,0:3|0:0,0:0:0:0:
234,191,41366,1,0,0:0:0:0:
167,209,41529,2,0,L|162:363,1,130,10|4,0:3|0:0,0:0:0:0:
322,327,42181,6,0,L|335:188,1,130,4|8,0:0|0:0,0:0:0:0:
204,199,42833,2,0,L|114:195,2,65,8|0|8,0:3|0:0|0:0,0:0:0:0:
283,146,43322,6,0,P|341:133|298:40,1,195,0|8,0:0|0:0,0:0:0:0:
177,51,44137,2,0,L|321:34,1,130,8|8,0:3|0:0,0:0:0:0:
149,198,44790,6,0,L|19:203,1,130,10|8,0:3|0:0,0:0:0:0:
149,281,45442,1,8,0:3:0:0:
213,272,45605,1,0,0:0:0:0:
220,200,45768,1,8,0:0:0:0:
72,52,46094,6,0,P|101:149|134:155,1,130,10|8,0:3|0:0,0:0:0:0:
187,122,46583,1,0,0:0:0:0:
252,130,46746,2,0,L|256:273,1,130,10|10,0:3|0:0,0:0:0:0:
100,263,47398,6,0,L|97:123,1,130,4|8,0:0|0:0,0:0:0:0:
214,93,48050,2,0,L|57:82,1,130,0|8,0:0|0:0,0:0:0:0:
248,142,48703,6,0,L|399:131,1,130,4|8,0:0|0:0,0:0:0:0:
235,194,49355,2,0,L|228:333,1,130,2|8,0:0|0:0,0:0:0:0:
398,314,50007,6,0,L|401:176,1,130,4|8,0:0|0:0,0:0:0:0:
335,184,50496,1,10,0:3:0:0:
452,142,50822,1,10,0:3:0:0:
284,147,51148,6,0,P|230:134|291:44,1,195,8|8,0:3|0:0,0:0:0:0:
407,51,51963,2,0,L|420:187,1,130,8|8,0:0|0:0,0:0:0:0:
262,219,52616,6,0,L|121:231,1,130,6|2,0:0|0:0,0:0:0:0:
262,288,53268,2,0,L|332:292,2,65,8|8|8,0:3|0:3|0:0,0:0:0:0:
179,305,53757,6,0,P|124:294|176:194,1,195,8|8,0:3|0:0,0:0:0:0:
286,196,54572,2,0,L|140:177,1,130,8|8,0:3|0:0,0:0:0:0:
329,154,55224,6,0,L|459:145,1,130,10|10,0:3|0:3,0:0:0:0:
334,78,55876,2,0,L|253:73,2,65,0|8|8,0:0|0:3|0:0,0:0:0:0:
416,84,56366,6,0,P|457:101|386:195,1,195,8|8,0:3|0:0,0:0:0:0:
276,199,57181,1,8,0:0:0:0:
406,240,57507,1,8,0:0:0:0:
245,258,57833,6,0,L|106:268,1,130,10|10,0:3|0:0,0:0:0:0:
235,325,58485,2,0,L|311:326,2,65,8|8|8,0:3|0:3|0:0,0:0:0:0:
149,323,58974,6,0,P|149:259|252:181,1,195,8|8,0:3|0:0,0:0:0:0:
376,187,59790,2,0,L|386:38,1,130,8|8,0:3|0:0,0:0:0:0:
225,59,60442,6,0,L|155:56,2,65,10|8|8,0:3|0:3|0:0,0:0:0:0:
291,66,60931,2,0,L|297:153,1,65,8|8,0:3|0:0,0:0:0:0:
158,136,61420,2,0,L|151:281,1,130,10|10,0:0|0:0,0:0:0:0:
321,244,62072,6,0,L|397:247,1,65,8|8,0:0|0:3,0:0:0:0:
450,246,62398,2,0,L|454:108,1,130,8|8,0:0|0:3,0:0:0:0:
297,130,63050,6,0,L|145:121,1,130,4|8,0:0|0:0,0:0:0:0:
89,122,63540,2,0,P|72:105|131:40,1,130,8|8,0:3|0:3,0:0:0:0:
199,45,64029,1,8,0:0:0:0:
73,202,64355,1,2,0:0:0:0:
241,235,64681,6,0,L|386:242,2,130,4|4|4,0:0|0:0|0:0,0:0:0:0:
81,237,65659,6,0,P|33:211|101:106,1,195,4|0,0:0|0:0,0:0:0:0:
141,111,66311,1,8,0:3:0:0:
268,110,66637,2,0,L|134:79,1,130,10|10,0:0|0:3,0:0:0:0:
303,47,67290,6,0,L|439:41,2,130,10|10|10,0:0|0:3|0:0,0:0:0:0:
456,129,68268,6,0,P|458:181|341:234,1,195,2|2,0:0|0:0,0:0:0:0:
280,253,68920,2,0,L|429:286,1,130,10|8,0:3|0:0,0:0:0:0:
236,307,69572,5,2,0:0:0:0:
358,304,69898,2,0,L|492:289,2,130,10|10|8,0:0|0:3|0:0,0:0:0:0:
200,267,70876,6,0,L|192:131,1,130,2|8,0:0|0:0,0:0:0:0:
273,126,71366,1,2,0:0:0:0:
96,106,71855,1,10,0:0:0:0:
264,92,72181,6,0,L|415:100,1,130,10|10,0:3|0:0,0:0:0:0:
239,182,72833,2,0,P|199:199|251:252,1,130,10|10,0:3|0:0,0:0:0:0:
377,259,73485,6,0,L|234:274,1,130,10|8,0:3|0:0,0:0:0:0:
316,308,73974,1,2,0:0:0:0:
386,299,74137,2,0,L|390:161,1,130,10|8,0:3|0:0,0:0:0:0:
230,212,74790,6,0,L|138:199,1,65,2|10,0:0|0:3,0:0:0:0:
172,128,75116,1,10,0:0:0:0:
304,113,75442,2,0,L|437:100,1,130,10|8,0:3|0:3,0:0:0:0:
279,208,76094,6,0,P|231:239|299:333,1,195,4|0,0:0|0:0,0:0:0:0:
353,331,76746,1,10,0:3:0:0:
222,194,77072,2,0,L|216:47,1,130,10|2,0:0|0:0,0:0:0:0:
373,52,77724,6,0,L|506:47,2,130,10|10|10,0:0|0:3|0:0,0:0:0:0:
212,88,78703,6,0,L|206:234,1,130,2|10,0:0|0:0,0:0:0:0:
329,206,79355,2,0,L|413:208,2,65,10|8|8,0:3|0:3|0:0,0:0:0:0:
250,204,79844,6,0,P|197:186|250:89,1,195,10|8,0:3|0:0,0:0:0:0:
364,77,80659,2,0,L|381:223,1,130,10|8,0:3|0:0,0:0:0:0:
223,255,81311,6,0,L|74:269,1,130,10|8,0:3|0:3,0:0:0:0:
152,318,81800,1,2,0:0:0:0:
280,322,82126,1,0,0:0:0:0:
201,273,82290,6,0,L|51:252,2,130,10|8|8,0:3|0:3|0:3,0:0:0:0:
331,258,83268,1,8,0:0:0:0:
266,220,83431,2,0,L|184:209,2,65,2|8|0,0:0|0:3|0:0,0:0:0:0:
345,186,83920,6,0,L|366:51,1,130,2|0,0:0|0:0,0:0:0:0:
287,56,84409,1,2,0:0:0:0:
160,48,84735,2,0,L|154:130,1,65,0|2,0:0|0:0,0:0:0:0:
311,162,85224,5,2,0:0:0:0:
256,192,85550,12,10,88811,0:3:0:0:
128,263,89137,6,0,L|125:125,1,130,4|8,0:0|0:0,0:0:0:0:
244,114,89790,2,0,L|390:101,1,130,10|8,0:3|0:0,0:0:0:0:
432,97,90279,1,0,0:0:0:0:
354,162,90442,6,0,P|317:178|358:248,1,130,10|8,0:3|0:0,0:0:0:0:
464,331,91094,2,0,L|305:327,1,130,10|8,0:3|0:0,0:0:0:0:
189,318,91746,6,0,L|178:173,1,130,10|8,0:3|0:0,0:0:0:0:
306,158,92398,2,0,P|343:139|289:81,1,130,10|8,0:3|0:0,0:0:0:0:
243,76,92887,1,0,0:0:0:0:
321,225,93050,6,0,L|326:365,1,130,10|8,0:3|0:0,0:0:0:0:
185,337,93703,1,2,0:0:0:0:
120,308,93866,1,2,0:0:0:0:
113,232,94029,1,8,0:0:0:0:
178,195,94192,1,8,0:0:0:0:
256,185,94355,6,0,L|266:46,1,130,4|8,0:0|0:0,0:0:0:0:
139,55,95007,2,0,P|96:83|138:142,1,130,10|8,0:3|0:0,0:0:0:0:
275,158,95659,6,0,L|290:299,1,130,10|8,0:3|0:0,0:0:0:0:
222,293,96148,1,0,0:0:0:0:
288,300,96311,1,10,0:3:0:0:
352,302,96474,1,0,0:0:0:0:
417,304,96637,1,8,0:0:0:0:
262,218,96963,5,10,0:3:0:0:
132,207,97290,2,0,L|-3:195,2,130,10|10|8,0:0|0:0|0:0,0:0:0:0:
286,146,98268,5,2,0:0:0:0:
158,139,98594,2,0,L|276:68,2,130,4|4|4,0:0|0:0|0:0,0:0:0:0:
315,125,99572,6,0,P|384:130|463:292,1,260,2|2,0:0|0:0,0:0:0:0:
349,304,100550,1,0,0:0:0:0:
206,302,100876,6,0,L|194:144,1,130,2|0,0:0|0:0,0:0:0:0:
326,174,101529,1,2,0:0:0:0:
161,172,101855,2,0,L|76:170,1,65,12|14,0:0|0:0,0:0:0:0:
256,192,102344,12,0,108213,0:0:0:0:
