osu file format v14

[General]
AudioFilename: audio.mp3
AudioLeadIn: 0
PreviewTime: 64681
Countdown: 0
SampleSet: Soft
StackLeniency: 0.7
Mode: 2
LetterboxInBreaks: 0
WidescreenStoryboard: 1

[Editor]
DistanceSpacing: 1.1
BeatDivisor: 4
GridSize: 16
TimelineZoom: 1.7

[Metadata]
Title:Yuki no Youni (Cut Ver.)
TitleUnicode:雪のように (Cut Ver.)
Artist:AKINO with bless4
ArtistUnicode:AKINO with bless4
Creator:Greaper
Version:Ascendance's Ultimate Gift
Source:
Tags:dapuluous du5t dust idu5t idust sanyi sanyi4life ascendance -luminate xinely dako jemzuu ajamez baron christmas xmas short edit cut version j-pop jpop pop japanese female vocal
BeatmapID:2249680
BeatmapSetID:1063964

[Difficulty]
HPDrainRate:7
CircleSize:4
OverallDifficulty:9.4
ApproachRate:9.4
SliderMultiplier:2.2
SliderTickRate:2

[Events]
//Background and Video events
0,0,"background.jpg",0,0
//Break Periods
//Storyboard Layer 0 (Background)
//Storyboard Layer 1 (Fail)
//Storyboard Layer 2 (Pass)
//Storyboard Layer 3 (Foreground)
//Storyboard Layer 4 (Overlay)
//Storyboard Sound Samples

[TimingPoints]
474,326.086956521739,4,2,11,40,1,0
474,-117.647058823529,4,2,11,40,0,0
5039,-100,4,2,11,5,0,0
5365,-117.647058823529,4,2,11,40,0,0
5609,-117.647058823529,4,2,11,40,0,0
5691,-117.647058823529,4,2,11,40,0,0
9604,-100,4,2,11,50,0,0
10064,326.086956521739,4,2,11,50,1,0
10080,-100,4,2,11,50,0,0
10551,326.086956521739,4,2,11,50,1,0
10551,-100,4,2,11,50,0,0
10877,326.086956521739,4,2,11,60,1,0
10877,-100,4,2,11,60,0,0
11447,-100,4,2,11,60,0,0
11529,-100,4,2,11,60,0,0
12099,-100,4,2,11,60,0,0
12181,-100,4,2,11,60,0,0
12752,-100,4,2,11,60,0,0
12833,-100,4,2,11,60,0,0
13404,-100,4,2,11,60,0,0
13485,-100,4,2,11,60,0,0
14056,-100,4,2,11,60,0,0
14137,-100,4,2,11,60,0,0
14708,-100,4,2,11,60,0,0
14790,-100,4,2,11,60,0,0
15360,-100,4,2,11,60,0,0
15442,-100,4,2,11,60,0,0
16012,-100,4,2,11,60,0,0
16094,-100,4,2,11,60,0,0
16665,-100,4,2,11,60,0,0
16746,-100,4,2,11,60,0,0
17317,-100,4,2,11,60,0,0
17398,-100,4,2,11,60,0,0
17969,-100,4,2,11,60,0,0
18050,-100,4,2,11,60,0,0
18621,-100,4,2,11,60,0,0
18703,-100,4,2,11,60,0,0
21311,-100,4,2,11,65,0,0
30768,-100,4,2,11,70,0,0
31746,-100,4,2,11,55,0,0
42181,-100,4,2,11,60,0,0
52616,-100,4,2,11,65,0,0
63050,-100,4,2,11,70,0,0
65659,-100,4,2,11,80,0,1
65741,-100,4,2,12,80,0,1
76094,-100,4,2,11,80,0,1
76175,-100,4,2,12,80,0,1
81311,-100,4,2,12,70,0,0
83920,-100,4,2,11,50,0,0
85387,-100,4,2,11,40,0,0
88159,-100,4,2,11,5,0,0
88322,-100,4,2,11,20,0,0
88811,-100,4,2,11,30,0,0
89137,-100,4,2,11,75,0,0
89219,-100,4,2,12,75,0,0
93784,-100,4,2,12,40,0,0
93866,-100,4,2,12,75,0,0
93947,-100,4,2,12,40,0,0
94029,-100,4,2,12,75,0,0
94110,-100,4,2,12,45,0,0
94192,-100,4,2,12,75,0,0
94273,-100,4,2,12,45,0,0
94355,-100,4,2,11,75,0,0
94436,-100,4,2,12,75,0,0
98512,-100,4,2,12,75,0,0
98594,-100,4,2,11,80,0,0
99491,-100,4,2,11,80,0,0
99572,-100,4,2,11,60,0,0
101855,-100,4,2,11,75,0,0
102181,-100,4,2,11,55,0,0
103485,-100,4,2,11,45,0,0
104790,-100,4,2,11,35,0,0
106094,-100,4,2,11,25,0,0
107398,-100,4,2,11,15,0,0
108213,-100,4,2,11,5,0,0

[Colours]
Combo1 : 90,175,78
Combo2 : 202,13,13
Combo3 : 255,200,34

[HitObjects]
256,192,474,12,0,5039,0:0:0:0:
444,236,5365,6,0,L|291:257,1,140.250002675057
117,345,5691,5,2,0:0:0:0:
54,255,5854,1,0,0:0:0:0:
79,143,6017,1,0,0:0:0:0:
174,79,6180,2,0,L|368:57,1,187.000003566742
208,211,6669,2,0,L|104:200,1,93.500001783371
291,332,6995,5,2,0:0:0:0:
382,274,7158,1,0,0:0:0:0:
433,180,7321,1,0,0:0:0:0:
419,66,7484,2,0,L|205:44,1,187.000003566742
384,172,7973,2,0,L|265:159,1,93.500001783371,2|0,0:0|0:0,0:0:0:0:
166,270,8300,5,2,0:0:0:0:
258,254,8463,1,0,0:0:0:0:
155,247,8626,1,0,0:0:0:0:
53,224,8789,2,0,P|56:158|176:90,1,187.000003566742
296,100,9278,2,0,L|399:118,1,93.500001783371
190,314,9604,5,2,0:0:0:0:
142,288,9685,1,0,0:0:0:0:
118,239,9767,1,0,0:0:0:0:
128,186,9848,1,0,0:0:0:0:
166,148,9930,1,0,0:0:0:0:
386,148,10064,2,0,L|471:145,1,55,8|8,0:3|0:3,0:0:0:0:
263,142,10227,2,0,P|194:100|243:13,1,165,8|0,0:0|0:0,0:0:0:0:
382,114,10551,1,2,0:0:0:0:
405,102,10591,1,0,0:0:0:0:
407,76,10632,1,0,0:0:0:0:
386,61,10673,1,0,0:0:0:0:
228,50,10714,2,0,L|153:50,1,55,2|0,0:0|0:0,0:0:0:0:
354,4,10877,6,0,B|461:67|461:245|257:266,1,385,4|0,0:0|0:0,0:0:0:0:
154,270,11529,2,0,P|37:155|177:26,1,385,4|0,0:3|0:0,0:0:0:0:
325,22,12181,6,0,B|361:121|304:298|89:236,1,385,4|0,0:0|0:0,0:0:0:0:
222,253,12833,2,0,B|454:249|454:249|255:251,1,385,4|0,0:3|0:0,0:0:0:0:
56,257,13485,6,0,P|7:187|187:7,1,385,4|0,0:0|0:0,0:0:0:0:
280,10,14137,2,0,B|54:33|54:33|242:59,1,385,4|0,0:3|0:0,0:0:0:0:
401,58,14790,6,0,P|472:114|333:298,1,385,4|0,0:0|0:0,0:0:0:0:
216,289,15442,2,0,P|321:268|278:41,1,385,4|0,0:3|0:0,0:0:0:0:
93,31,16094,6,0,B|174:70|174:70|302:48|302:48|95:48,1,385,4|0,0:0|0:0,0:0:0:0:
231,20,16746,2,0,P|317:56|219:265,1,385,4|0,0:3|0:0,0:0:0:0:
482,356,17398,6,0,P|464:249|231:142,1,385,4|0,0:0|0:0,0:0:0:0:
351,254,18050,2,0,P|453:194|337:15,1,385,4|0,0:3|0:0,0:0:0:0:
137,137,18703,6,0,L|133:15,1,110,4|0,0:0|0:0,0:0:0:0:
471,244,19029,2,0,L|353:213,1,110,2|0,0:0|0:0,0:0:0:0:
83,70,19355,2,0,L|192:46,1,110,6|0,0:0|0:0,0:0:0:0:
471,244,19681,2,0,L|353:213,1,110,2|0,0:0|0:0,0:0:0:0:
138,261,20007,6,0,L|15:241,1,110,4|8,0:0|0:3,0:0:0:0:
298,177,20333,2,0,L|410:197,1,110,4|8,0:0|0:3,0:0:0:0:
154,291,20659,1,4,0:0:0:0:
379,170,20822,2,0,L|441:183,1,55,8|8,0:0|0:0,0:0:0:0:
208,301,20985,2,0,L|144:289,1,55,8|0,0:0|0:0,0:0:0:0:
379,170,21148,2,0,L|386:237,1,55,8|8,0:0|0:0,0:0:0:0:
51,265,21311,6,0,L|48:120,1,110,2|0,0:0|0:0,0:0:0:0:
192,171,21637,2,0,L|191:36,1,110,8|0,0:0|0:0,0:0:0:0:
338,198,21963,1,12,0:3:0:0:
200,191,22126,1,0,0:0:0:0:
356,201,22290,2,0,L|359:315,1,110,8|0,0:0|0:0,0:0:0:0:
99,167,22616,6,0,L|231:167,1,110,12|0,0:3|0:0,0:0:0:0:
343,76,22942,2,0,L|218:76,1,110,8|0,0:0|0:0,0:0:0:0:
378,94,23268,1,12,0:3:0:0:
483,147,23431,1,0,0:0:0:0:
484,252,23594,1,8,0:0:0:0:
380,308,23757,1,0,0:0:0:0:
152,303,23920,6,0,L|35:303,1,110,12|0,0:3|0:0,0:0:0:0:
196,178,24246,2,0,L|198:300,1,110,8|0,0:0|0:0,0:0:0:0:
51,157,24572,1,12,0:3:0:0:
190,158,24735,1,0,0:0:0:0:
36,156,24898,2,0,L|27:32,1,110,8|0,0:0|0:0,0:0:0:0:
260,68,25224,6,0,L|390:67,1,110,12|0,0:3|0:0,0:0:0:0:
218,80,25550,2,0,L|211:192,1,110,8|0,0:0|0:0,0:0:0:0:
439,200,25876,2,0,L|436:322,1,110,2|2,0:0|0:0,0:0:0:0:
184,193,26203,1,10,0:0:0:0:
424,184,26366,1,2,0:0:0:0:
151,192,26529,6,0,L|35:192,1,110,4|0,0:0|0:0,0:0:0:0:
197,110,26855,2,0,L|316:109,1,110,8|0,0:0|0:0,0:0:0:0:
452,114,27181,1,12,0:3:0:0:
316,115,27344,1,0,0:0:0:0:
461,116,27507,2,0,L|468:233,1,110,8|0,0:0|0:0,0:0:0:0:
222,258,27833,6,0,L|221:116,1,110,12|0,0:3|0:0,0:0:0:0:
355,293,28159,2,0,L|217:276,1,110,8|0,0:0|0:0,0:0:0:0:
99,299,28485,1,12,0:3:0:0:
229,286,28648,1,0,0:0:0:0:
86,287,28811,2,0,L|78:165,1,110,8|0,0:0|0:0,0:0:0:0:
324,189,29137,6,0,L|332:60,1,110,12|0,0:3|0:0,0:0:0:0:
187,185,29463,2,0,L|178:303,1,110,8|0,0:0|0:0,0:0:0:0:
430,188,29790,1,8,0:0:0:0:
187,185,29953,2,0,L|106:183,1,55,8|8,0:0|0:0,0:0:0:0:
386,147,30116,2,0,L|441:148,1,55,8|0,0:0|0:0,0:0:0:0:
211,141,30279,2,0,L|141:141,1,55,8|8,0:0|0:0,0:0:0:0:
355,71,30442,6,0,L|484:70,1,110,8|0,0:3|0:0,0:0:0:0:
182,26,30768,2,0,P|118:74|183:140,1,165,4|0,0:0|0:0,0:0:0:0:
330,26,31094,2,0,P|394:74|329:140,1,165,4|0,0:0|0:0,0:0:0:0:
182,26,31420,2,0,P|118:74|183:140,1,165,4|0,0:0|0:0,0:0:0:0:
382,258,31746,6,0,L|382:127,1,110,2|0,0:0|0:0,0:0:0:0:
242,87,32072,2,0,L|242:205,1,110,8|0,0:3|0:0,0:0:0:0:
394,66,32398,2,0,L|251:66,1,110,8|0,0:3|0:0,0:0:0:0:
24,30,32724,2,0,L|23:150,1,110,8|0,0:0|0:0,0:0:0:0:
286,30,33050,6,0,L|286:170,1,110,8|0,0:3|0:0,0:0:0:0:
139,98,33376,1,8,0:3:0:0:
287,154,33540,2,0,L|414:153,1,110
266,237,33866,2,0,L|151:237,2,110,0|8|0,0:0|0:3|0:0,0:0:0:0:
35,355,34355,6,0,L|36:237,1,110,10|0,0:3|0:0,0:0:0:0:
313,243,34681,2,0,L|313:117,1,110,8|0,0:0|0:0,0:0:0:0:
153,91,35007,2,0,L|272:91,2,110,8|0|8,0:3|0:0|0:3,0:0:0:0:
32,89,35496,1,0,0:0:0:0:
275,34,35659,6,0,L|413:33,1,110,10|0,0:3|0:0,0:0:0:0:
242,52,35985,2,0,L|236:172,1,110,8|0,0:3|0:0,0:0:0:0:
478,261,36311,2,0,P|496:191|413:128,1,165,10|0,0:3|0:0,0:0:0:0:
213,256,36637,2,0,P|195:186|278:123,1,165,10|0,0:0|0:0,0:0:0:0:
472,126,36963,6,0,L|476:6,1,110,4|0,0:0|0:0,0:0:0:0:
327,115,37290,2,0,L|325:241,1,110,8|0,0:3|0:0,0:0:0:0:
190,90,37616,2,0,L|75:78,2,110,8|0|8,0:3|0:0|0:3,0:0:0:0:
320,46,38105,1,0,0:0:0:0:
88,184,38268,6,0,L|84:64,1,110,2|0,0:0|0:0,0:0:0:0:
342,192,38594,2,0,L|473:190,1,110,8|0,0:0|0:0,0:0:0:0:
314,288,38920,2,0,L|443:288,1,110,8|0,0:3|0:0,0:0:0:0:
261,207,39246,2,0,L|143:206,1,110,8|0,0:3|0:0,0:0:0:0:
433,219,39572,6,0,P|501:162|406:64,1,220,10|8,0:3|0:3,0:0:0:0:
321,67,40061,1,0,0:0:0:0:
474,62,40224,2,0,L|479:181,1,110,8|0,0:3|0:0,0:0:0:0:
222,71,40550,2,0,L|111:73,1,110,8|0,0:0|0:0,0:0:0:0:
266,12,40876,5,10,0:3:0:0:
38,218,41040,2,0,L|41:88,1,110,8|8,0:0|0:3,0:0:0:0:
161,75,41366,1,0,0:0:0:0:
392,82,41529,2,0,L|463:81,1,55,10|8,0:3|0:3,0:0:0:0:
256,41,41692,2,0,L|169:42,1,55,8|8,0:3|0:3,0:0:0:0:
424,81,41855,1,4,0:0:0:0:
470,105,41936,1,8,0:3:0:0:
473,157,42018,1,8,0:3:0:0:
428,185,42099,1,8,0:3:0:0:
209,72,42181,6,0,L|96:72,1,110,4|0,0:0|0:0,0:0:0:0:
378,170,42507,1,8,0:0:0:0:
248,183,42670,1,0,0:0:0:0:
245,237,42751,1,0,0:0:0:0:
242,292,42833,1,8,0:3:0:0:
378,170,42996,1,0,0:0:0:0:
136,152,43159,1,8,0:0:0:0:
458,74,43322,1,0,0:0:0:0:
333,55,43485,6,0,L|448:43,1,110,8|0,0:3|0:0,0:0:0:0:
179,35,43811,1,8,0:0:0:0:
311,92,43974,2,0,L|376:76,2,55,0|0|8,0:0|0:0|0:3,0:0:0:0:
179,35,44300,1,0,0:0:0:0:
21,50,44463,2,0,L|25:168,1,110,8|0,0:0|0:0,0:0:0:0:
261,300,44790,6,0,L|251:187,1,110,10|0,0:3|0:0,0:0:0:0:
82,249,45116,1,8,0:0:0:0:
212,323,45279,1,0,0:0:0:0:
216,268,45360,1,0,0:0:0:0:
219,213,45442,1,8,0:3:0:0:
82,249,45605,1,0,0:0:0:0:
413,212,45768,1,8,0:0:0:0:
290,223,45931,1,0,0:0:0:0:
423,205,46094,6,0,L|430:320,1,110,10|0,0:3|0:0,0:0:0:0:
142,194,46420,2,0,L|136:75,1,110,8|0,0:0|0:0,0:0:0:0:
361,246,46746,2,0,P|410:189|338:127,1,165,10|0,0:3|0:0,0:0:0:0:
183,245,47072,2,0,P|134:188|206:126,1,165,10|0,0:0|0:0,0:0:0:0:
384,125,47398,6,0,L|503:125,1,110,4|0,0:0|0:0,0:0:0:0:
187,43,47724,1,8,0:0:0:0:
308,77,47887,2,0,L|382:65,2,55,8|0|0,0:3|0:0|0:0,0:0:0:0:
187,43,48213,1,8,0:3:0:0:
447,32,48376,2,0,L|337:13,1,110,8|0,0:0|0:0,0:0:0:0:
80,145,48703,6,0,L|78:273,1,110,4|0,0:0|0:0,0:0:0:0:
409,195,49029,1,8,0:0:0:0:
278,238,49192,2,0,L|194:220,2,55,8|0|2,0:3|0:0|0:0,0:0:0:0:
409,195,49518,1,8,0:3:0:0:
111,319,49681,2,0,L|107:180,1,110,8|0,0:0|0:0,0:0:0:0:
376,328,50007,6,0,L|122:311,1,220,4|8,0:0|0:0,0:0:0:0:
442,249,50496,2,0,P|508:174|427:93,1,220,10|10,0:3|0:3,0:0:0:0:
168,87,50985,1,8,0:0:0:0:
445,88,51148,1,8,0:3:0:0:
306,84,51311,6,0,L|305:202,1,110,10|0,0:3|0:0,0:0:0:0:
445,88,51637,1,8,0:0:0:0:
120,92,51800,1,8,0:3:0:0:
381,85,51963,2,0,L|468:87,1,55,8|8,0:0|0:0,0:0:0:0:
162,103,52126,2,0,L|96:103,1,55,8|8,0:0|0:0,0:0:0:0:
381,85,52290,2,0,L|468:87,1,55,8|8,0:0|0:0,0:0:0:0:
162,103,52453,2,0,L|96:103,1,55,8|8,0:0|0:0,0:0:0:0:
374,169,52616,6,0,P|429:107|348:52,1,165,6|0,0:0|0:0,0:0:0:0:
138,169,52942,2,0,P|83:107|164:52,1,165,2|0,0:0|0:0,0:0:0:0:
356,32,53268,2,0,L|226:32,1,110,8|8,0:3|0:3,0:0:0:0:
126,31,53594,1,8,0:0:0:0:
390,132,53757,6,0,L|119:131,1,220,8|8,0:3|0:3,0:0:0:0:
450,222,54246,1,8,0:0:0:0:
185,204,54409,2,0,L|300:212,1,110,0|8,0:0|0:3,0:0:0:0:
450,222,54735,1,8,0:3:0:0:
141,214,54898,2,0,L|3:217,1,110,8|8,0:0|0:3,0:0:0:0:
317,112,55224,6,0,L|499:111,1,165,10|0,0:3|0:0,0:0:0:0:
220,198,55550,2,0,L|46:196,1,165,10|0,0:3|0:0,0:0:0:0:
322,284,55876,2,0,L|454:284,2,110,0|8|8,0:0|0:3|0:0,0:0:0:0:
87,320,56366,6,0,L|354:318,1,220,8|8,0:3|0:3,0:0:0:0:
47,174,56855,2,0,L|42:296,1,110,8|8,0:0|0:0,0:0:0:0:
102,295,57099,1,8,0:0:0:0:
332,225,57181,2,0,L|407:224,1,55,8|0,0:0|0:0,0:0:0:0:
163,171,57344,2,0,L|90:171,1,55,8|8,0:0|0:0,0:0:0:0:
332,225,57507,2,0,L|407:224,1,55,8|0,0:0|0:0,0:0:0:0:
163,171,57670,2,0,L|90:171,1,55,8|0,0:0|0:0,0:0:0:0:
326,137,57833,6,0,P|382:86|308:20,1,165,10|0,0:3|0:0,0:0:0:0:
80,20,58159,2,0,L|251:0,1,165,10|0,0:0|0:0,0:0:0:0:
469,116,58485,2,0,L|345:97,2,110,8|8|8,0:3|0:3|0:0,0:0:0:0:
168,287,58974,6,0,L|409:263,1,220,8|8,0:3|0:3,0:0:0:0:
59,146,59463,2,0,L|52:294,1,110,8|0,0:0|0:0,0:0:0:0:
315,80,59790,2,0,L|194:73,1,110,8|8,0:3|0:3,0:0:0:0:
456,115,60116,2,0,L|457:-4,1,110,8|0,0:0|0:0,0:0:0:0:
116,83,60442,6,0,L|113:220,1,110,10|8,0:3|0:3,0:0:0:0:
391,92,60768,1,8,0:0:0:0:
129,91,60931,1,8,0:3:0:0:
429,25,61094,2,0,L|314:24,1,110,8|8,0:0|0:3,0:0:0:0:
62,168,61420,2,0,L|196:168,1,110,10|8,0:0|0:3,0:0:0:0:
426,280,61746,6,0,L|427:152,1,110,10|8,0:0|0:3,0:0:0:0:
162,286,62072,2,0,L|45:286,1,110,8|8,0:0|0:3,0:0:0:0:
377,160,62398,1,8,0:0:0:0:
230,161,62561,1,8,0:3:0:0:
485,200,62724,2,0,L|424:197,1,55,8|8,0:3|0:3,0:0:0:0:
183,195,62887,2,0,L|119:196,1,55,8|8,0:3|0:3,0:0:0:0:
334,47,63050,5,4,0:0:0:0:
455,45,63213,1,0,0:0:0:0:
86,42,63376,1,8,0:0:0:0:
360,152,63540,2,0,L|371:283,1,110,8|0,0:3|0:0,0:0:0:0:
101,141,63866,1,8,0:3:0:0:
377,144,64029,2,0,L|453:144,1,55,8|0,0:0|0:0,0:0:0:0:
182,154,64192,2,0,L|119:155,1,55
367,128,64355,5,2,0:0:0:0:
188,122,64681,2,0,L|21:122,1,165,4|0,0:0|0:0,0:0:0:0:
247,60,65007,2,0,L|422:61,1,165,4|0,0:0|0:0,0:0:0:0:
188,122,65333,2,0,L|21:122,1,165,4|0,0:0|0:0,0:0:0:0:
383,318,65659,6,0,P|454:252|375:156,1,220,4|8,0:0|0:0,0:0:0:0:
268,155,66148,1,0,0:0:0:0:
423,55,66311,2,0,L|428:192,1,110,8|8,0:3|0:3,0:0:0:0:
167,92,66637,2,0,L|48:90,1,110,10|0,0:0|0:0,0:0:0:0:
389,28,66963,6,0,L|510:28,1,110,10|0,0:3|0:0,0:0:0:0:
351,110,67290,2,0,L|349:222,1,110,10|0,0:0|0:0,0:0:0:0:
72,222,67616,2,0,L|65:350,1,110,10|8,0:3|0:3,0:0:0:0:
362,229,67942,2,0,L|482:229,1,110,10|8,0:0|0:3,0:0:0:0:
172,345,68268,6,0,P|98:274|197:190,1,220,2|8,0:0|0:0,0:0:0:0:
286,184,68757,1,2,0:0:0:0:
150,66,68920,2,0,L|25:66,1,110,10|8,0:3|0:3,0:0:0:0:
274,12,69246,2,0,L|416:14,1,110,8|8,0:0|0:3,0:0:0:0:
151,55,69572,6,0,L|19:53,1,110,2|8,0:0|0:3,0:0:0:0:
299,183,69898,2,0,L|422:183,1,110,10|0,0:0|0:0,0:0:0:0:
265,200,70224,2,0,L|256:311,1,110,10|0,0:3|0:0,0:0:0:0:
425,169,70550,2,0,L|431:55,1,110,8|8,0:0|0:3,0:0:0:0:
157,276,70876,6,0,P|82:217|156:120,1,220,2|8,0:0|0:0,0:0:0:0:
407,67,71366,2,0,L|179:51,1,220,2|8,0:0|0:3,0:0:0:0:
461,267,71855,2,0,L|466:152,1,110,10|0,0:0|0:0,0:0:0:0:
166,263,72181,6,0,L|22:263,1,110,10|8,0:3|0:3,0:0:0:0:
223,181,72507,2,0,L|364:181,1,110,10|0,0:0|0:0,0:0:0:0:
56,42,72833,2,0,L|54:154,1,110,10|8,0:3|0:3,0:0:0:0:
322,53,73159,2,0,L|452:53,1,110,10|0,0:0|0:0,0:0:0:0:
134,118,73485,6,0,L|15:118,1,110,10|0,0:3|0:0,0:0:0:0:
348,177,73811,2,0,L|464:179,1,110,8|2,0:0|0:0,0:0:0:0:
146,245,74137,1,10,0:3:0:0:
270,288,74300,2,0,L|276:169,1,110,8|8,0:3|0:0,0:0:0:0:
39,237,74626,1,8,0:3:0:0:
327,193,74790,6,0,L|451:192,1,110,2|10,0:0|0:3,0:0:0:0:
126,227,75116,2,0,P|55:164|96:95,1,165,10|0,0:0|0:0,0:0:0:0:
326,51,75442,2,0,L|127:46,1,165,10|8,0:3|0:3,0:0:0:0:
386,227,75768,2,0,P|457:164|416:95,1,165,8|8,0:3|0:3,0:0:0:0:
192,326,76094,6,0,P|101:258|184:158,1,220,4|8,0:0|0:0,0:0:0:0:
261,163,76583,1,0,0:0:0:0:
100,59,76746,2,0,L|226:59,1,110,10|8,0:3|0:3,0:0:0:0:
458,151,77072,2,0,L|460:18,1,110,10|8,0:0|0:3,0:0:0:0:
186,28,77398,6,0,L|68:28,1,110,2|8,0:0|0:3,0:0:0:0:
214,62,77724,2,0,L|217:187,1,110,10|0,0:0|0:0,0:0:0:0:
464,145,78050,2,0,L|469:278,1,110,10|0,0:3|0:0,0:0:0:0:
192,192,78376,2,0,L|74:193,1,110,10|8,0:0|0:3,0:0:0:0:
390,83,78703,6,0,L|237:81,1,110,2|8,0:0|0:3,0:0:0:0:
34,30,79029,2,0,L|171:31,1,110,10|0,0:0|0:0,0:0:0:0:
440,32,79355,1,10,0:3:0:0:
138,113,79518,2,0,L|14:113,1,110,8|8,0:3|0:0,0:0:0:0:
412,319,79844,6,0,L|169:304,1,220,10|8,0:3|0:3,0:0:0:0:
432,108,80333,2,0,L|437:221,1,110,8|0,0:0|0:0,0:0:0:0:
138,112,80659,2,0,L|21:103,1,110,10|8,0:3|0:3,0:0:0:0:
292,97,80985,1,8,0:0:0:0:
144,82,81148,1,0,0:0:0:0:
478,74,81311,6,0,L|226:49,1,220,10|8,0:3|0:3,0:0:0:0:
108,121,81800,1,2,0:0:0:0:
346,200,81963,2,0,L|470:181,2,110,8|0|10,0:0|0:0|0:3,0:0:0:0:
76,305,82453,6,0,L|319:342,2,220,8|8|0,0:0|0:0|0:0,0:0:0:0:
376,131,83268,2,0,L|391:255,1,110,8|2,0:0|0:0,0:0:0:0:
231,156,83594,2,0,L|217:38,1,110,8|0,0:3|0:0,0:0:0:0:
486,37,83920,6,0,L|251:24,1,220,2|0,0:0|0:0,0:0:0:0:
134,198,84409,2,0,L|367:162,1,220,2|0,0:0|0:0,0:0:0:0:
206,64,84898,1,2,0:0:0:0:
256,192,85061,12,8,88974,0:3:0:0:
432,327,89137,6,0,L|432:188,1,110,4|0,0:0|0:0,0:0:0:0:
281,226,89463,2,0,L|281:108,1,110,8|0,0:0|0:0,0:0:0:0:
417,97,89790,1,10,0:3:0:0:
289,97,89953,1,0,0:0:0:0:
439,97,90116,2,0,L|441:-20,1,110,8|0,0:0|0:0,0:0:0:0:
159,257,90442,6,0,L|160:136,1,110,10|0,0:3|0:0,0:0:0:0:
298,236,90768,2,0,L|296:353,1,110,8|0,0:0|0:0,0:0:0:0:
135,268,91094,1,10,0:3:0:0:
28,196,91257,1,0,0:0:0:0:
38,90,91420,1,8,0:0:0:0:
156,46,91583,1,0,0:0:0:0:
431,37,91746,6,0,L|307:20,1,110,10|0,0:3|0:0,0:0:0:0:
197,158,92072,2,0,L|313:145,1,110,8|0,0:0|0:0,0:0:0:0:
466,172,92398,1,10,0:3:0:0:
308,152,92561,1,0,0:0:0:0:
475,171,92724,2,0,L|478:293,1,110,8|0,0:0|0:0,0:0:0:0:
211,329,93050,6,0,L|210:210,1,110,10|0,0:3|0:0,0:0:0:0:
351,240,93376,2,0,L|349:113,1,110,8|0,0:0|0:0,0:0:0:0:
83,95,93703,2,0,L|213:95,1,110,2|2,0:0|0:0,0:0:0:0:
429,86,94029,1,8,0:0:0:0:
189,84,94192,1,8,0:0:0:0:
461,88,94355,6,0,L|462:219,1,110,4|0,0:0|0:0,0:0:0:0:
310,190,94681,2,0,L|310:301,1,110,8|0,0:0|0:0,0:0:0:0:
169,168,95007,1,10,0:3:0:0:
320,170,95170,1,0,0:0:0:0:
158,166,95333,2,0,L|159:54,1,110,8|0,0:0|0:0,0:0:0:0:
433,27,95659,6,0,L|313:28,1,110,10|0,0:3|0:0,0:0:0:0:
167,26,95985,2,0,L|293:26,1,110,8|0,0:0|0:0,0:0:0:0:
426,25,96311,1,10,0:3:0:0:
285,24,96474,1,0,0:0:0:0:
443,24,96637,2,0,L|449:165,1,110,8|0,0:0|0:0,0:0:0:0:
156,115,96963,6,0,L|157:229,1,110,10|0,0:3|0:0,0:0:0:0:
383,103,97290,2,0,L|501:103,1,110,10|0,0:0|0:0,0:0:0:0:
201,42,97616,2,0,L|66:41,1,110,10|8,0:0|0:0,0:0:0:0:
144,69,97860,1,8,0:0:0:0:
383,103,97942,2,0,L|501:103,1,110,8|8,0:0|0:0,0:0:0:0:
435,88,98186,1,8,0:0:0:0:
190,85,98268,2,0,P|123:105|116:209,1,165,2|0,0:0|0:0,0:0:0:0:
292,24,98594,6,0,L|500:24,1,165,4|0,0:0|0:0,0:0:0:0:
232,117,98920,2,0,L|43:117,1,165,4|0,0:0|0:0,0:0:0:0:
292,24,99246,2,0,L|500:24,1,165,4|0,0:0|0:0,0:0:0:0:
206,327,99572,5,2,0:0:0:0:
117,273,99735,1,0,0:0:0:0:
124,169,99898,1,0,0:0:0:0:
220,128,100061,1,0,0:0:0:0:
378,138,100224,2,0,L|378:9,1,110,2|0,0:0|0:0,0:0:0:0:
232,54,100550,2,0,L|109:53,1,110,0|2,0:0|0:0,0:0:0:0:
347,318,100876,5,2,0:0:0:0:
437,264,101039,1,0,0:0:0:0:
430,160,101202,1,0,0:0:0:0:
334,119,101365,1,2,0:0:0:0:
179,124,101528,2,0,L|179:-5,1,110,2|0,0:0|0:0,0:0:0:0:
443,89,101855,1,12,0:0:0:0:
79,93,102018,5,14,0:0:0:0:
256,192,102181,12,0,108213,0:0:0:0:
