osu file format v14

[General]
AudioFilename: audio.mp3
AudioLeadIn: 0
PreviewTime: 62376
Countdown: 0
SampleSet: Normal
StackLeniency: 0.7
Mode: 1
LetterboxInBreaks: 0
WidescreenStoryboard: 1

[Editor]
DistanceSpacing: 1
BeatDivisor: 2
GridSize: 16
TimelineZoom: 2.2

[Metadata]
Title:Kimi no Shinwa ~ Aquarion Dainishou
TitleUnicode:Kimi no Shinwa ~ Aquarion Dainishou
Artist:AKINO with bless4
ArtistUnicode:AKINO with bless4
Creator:Player-
Version:Kantan
Source:アクエリオンEVOL
Tags:anime aquarion mecha op opening
BeatmapID:1795661
BeatmapSetID:859277

[Difficulty]
HPDrainRate:7
CircleSize:2
OverallDifficulty:3
ApproachRate:10
SliderMultiplier:1.40399984111786
SliderTickRate:1

[Events]
//Background and Video events
0,0,"imege.jpg",0,0
//Break Periods
//Storyboard Layer 0 (Background)
//Storyboard Layer 1 (Fail)
//Storyboard Layer 2 (Pass)
//Storyboard Layer 3 (Foreground)
//Storyboard Sound Samples

[TimingPoints]
1009,365.853658536585,4,1,0,85,1,0
12716,-100,4,1,0,70,0,0
36130,-100,4,1,0,70,0,0
39423,-111.111111111111,4,1,0,70,0,0
59728,-105.263157894737,4,1,0,80,0,0
62472,-100,4,1,0,90,0,1
87716,-100,4,1,0,90,0,0

[HitObjects]
310,200,1008,5,0,0:0:0:0:
248,120,1740,1,4,0:0:0:0:
240,160,2472,1,8,0:0:0:0:
32,112,3021,1,8,0:0:0:0:
176,176,3752,1,12,0:0:0:0:
192,128,4667,1,0,0:0:0:0:
272,96,5216,1,0,0:0:0:0:
272,192,5582,1,0,0:0:0:0:
240,80,5948,1,8,0:0:0:0:
192,96,6496,1,0,0:0:0:0:
384,240,6862,1,12,0:0:0:0:
128,128,7594,1,8,0:0:0:0:
80,128,8143,1,12,0:0:0:0:
160,128,8874,1,8,0:0:0:0:
128,176,9789,1,4,0:0:0:0:
384,256,10521,1,0,0:0:0:0:
176,208,11252,1,0,0:0:0:0:
48,240,11984,1,0,0:0:0:0:
240,176,12350,1,8,0:0:0:0:
176,80,12716,1,0,0:0:0:0:
208,160,13448,1,8,0:0:0:0:
144,160,14179,1,0,0:0:0:0:
224,128,14911,1,8,0:0:0:0:
352,208,15277,1,0,0:0:0:0:
256,128,15643,1,8,0:0:0:0:
128,192,16374,1,0,0:0:0:0:
192,96,17106,1,8,0:0:0:0:
224,128,18204,1,8,0:0:0:0:
224,64,18569,1,0,0:0:0:0:
160,112,19667,1,8,0:0:0:0:
128,176,20033,1,8,0:0:0:0:
128,144,20765,1,8,0:0:0:0:
192,176,21496,1,0,0:0:0:0:
96,64,22228,1,8,0:0:0:0:
272,128,22960,1,8,0:0:0:0:
160,144,23691,1,8,0:0:0:0:
208,224,24057,1,0,0:0:0:0:
64,208,24423,1,0,0:0:0:0:
128,112,25155,1,8,0:0:0:0:
272,208,25887,1,8,0:0:0:0:
128,112,26618,1,8,0:0:0:0:
96,144,27350,1,8,0:0:0:0:
48,96,28082,1,8,0:0:0:0:
64,224,28813,1,0,0:0:0:0:
224,96,29911,1,8,0:0:0:0:
64,112,30277,1,8,0:0:0:0:
224,160,31008,1,8,0:0:0:0:
256,96,31557,1,0,0:0:0:0:
336,192,32106,1,0,0:0:0:0:
272,96,32472,1,0,0:0:0:0:
208,144,33204,1,8,0:0:0:0:
176,128,33935,1,0,0:0:0:0:
160,128,34667,1,12,0:0:0:0:
144,80,35399,1,0,0:0:0:0:
256,80,36130,1,8,0:0:0:0:
352,176,36496,1,8,0:0:0:0:
224,192,36862,1,8,0:0:0:0:
192,128,37594,1,0,0:0:0:0:
112,128,38326,1,8,0:0:0:0:
320,80,39057,1,4,0:0:0:0:
192,176,39789,1,8,0:0:0:0:
160,176,40521,1,0,0:0:0:0:
192,176,40887,1,8,0:0:0:0:
128,96,41252,1,0,0:0:0:0:
176,192,41984,1,4,0:0:0:0:
224,192,42716,1,0,0:0:0:0:
208,128,43265,1,0,0:0:0:0:
304,128,43813,1,8,0:0:0:0:
256,128,44179,1,8,0:0:0:0:
320,144,44911,1,4,0:0:0:0:
144,144,45643,1,8,0:0:0:0:
160,208,46374,1,8,0:0:0:0:
208,176,47106,1,0,0:0:0:0:
240,128,47838,1,4,0:0:0:0:
192,144,48569,1,8,0:0:0:0:
288,112,49118,1,8,0:0:0:0:
352,144,49667,1,0,0:0:0:0:
288,144,50033,1,0,0:0:0:0:
192,144,50765,1,4,0:0:0:0:
240,160,51496,1,8,0:0:0:0:
336,224,52045,1,0,0:0:0:0:
208,208,52594,1,8,0:0:0:0:
112,176,52960,1,8,0:0:0:0:
192,160,53691,1,4,0:0:0:0:
192,96,54423,1,8,0:0:0:0:
208,176,54972,1,4,0:0:0:0:
128,112,55521,1,8,0:0:0:0:
176,64,55887,1,12,0:0:0:0:
192,128,56618,1,4,0:0:0:0:
224,192,57350,1,8,0:0:0:0:
176,160,57899,1,4,0:0:0:0:
112,128,58448,1,8,0:0:0:0:
224,128,58813,1,8,0:0:0:0:
192,112,59728,1,4,0:0:0:0:
192,160,60277,1,8,0:0:0:0:
128,112,60826,1,12,0:0:0:0:
208,240,61374,1,8,0:0:0:0:
160,64,62472,1,12,0:0:0:0:
160,160,63204,1,8,0:0:0:0:
208,112,63569,1,8,0:0:0:0:
112,208,63935,1,8,0:0:0:0:
144,160,64667,1,8,0:0:0:0:
160,160,65399,1,8,0:0:0:0:
176,192,66130,1,8,0:0:0:0:
160,176,66496,1,0,0:0:0:0:
208,192,66862,1,0,0:0:0:0:
128,192,67594,1,0,0:0:0:0:
240,96,68326,1,0,0:0:0:0:
208,128,69057,1,8,0:0:0:0:
224,96,69789,1,0,0:0:0:0:
224,144,70155,1,0,0:0:0:0:
160,80,70521,1,8,0:0:0:0:
128,160,71252,1,0,0:0:0:0:
416,208,71984,1,8,0:0:0:0:
256,96,72716,1,0,0:0:0:0:
192,128,73448,1,8,0:0:0:0:
288,112,74179,1,12,0:0:0:0:
160,160,74911,1,8,0:0:0:0:
208,112,75276,1,8,0:0:0:0:
112,208,75642,1,8,0:0:0:0:
144,160,76374,1,8,0:0:0:0:
160,160,77106,1,8,0:0:0:0:
176,192,77837,1,8,0:0:0:0:
160,176,78203,1,0,0:0:0:0:
256,112,78569,1,0,0:0:0:0:
176,96,79301,1,0,0:0:0:0:
320,112,80033,1,0,0:0:0:0:
128,128,80765,1,8,0:0:0:0:
224,112,81496,1,0,0:0:0:0:
192,112,82228,1,8,0:0:0:0:
144,176,82594,1,0,0:0:0:0:
176,80,82960,1,0,0:0:0:0:
112,144,83691,1,8,0:0:0:0:
208,96,84789,1,8,0:0:0:0:
288,160,85155,1,8,0:0:0:0:
208,128,85704,1,12,0:0:0:0:
176,144,86435,1,8,0:0:0:0:
176,160,87167,1,8,0:0:0:0:
256,160,87716,1,8,0:0:0:0:
