osu file format v14

[General]
AudioFilename: audio.mp3
AudioLeadIn: 0
PreviewTime: 21903
Countdown: 0
SampleSet: Soft
StackLeniency: 0.5
Mode: 0
LetterboxInBreaks: 1
WidescreenStoryboard: 1

[Editor]
Bookmarks: 53026,57839
DistanceSpacing: 1
BeatDivisor: 8
GridSize: 4
TimelineZoom: 2.1

[Metadata]
Title:Golden Life
TitleUnicode:Golden Life
Artist:AKINO with bless4
ArtistUnicode:AKINO with bless4
Creator:SHADIC_
Version:ACTIVE
Source:アクティヴレイド−機動強襲室第八係−
Tags:Active Raid Frostwich InfiWong smau5
BeatmapID:1018674
BeatmapSetID:476877

[Difficulty]
HPDrainRate:6.5
CircleSize:4.2
OverallDifficulty:8.5
ApproachRate:9.5
SliderMultiplier:1.8
SliderTickRate:1

[Events]
//Background and Video events
Video,1369,"opening.avi"
0,0,"ActiveRaidGoldenLifebg1 (1).png",0,0
//Break Periods
//Storyboard Layer 0 (Background)
//Storyboard Layer 1 (Fail)
//Storyboard Layer 2 (Pass)
//Storyboard Layer 3 (Foreground)
//Storyboard Sound Samples

[TimingPoints]
1369,320.855614973262,4,2,1,80,1,0
3294,-200,4,2,1,80,0,0
5219,-133.333333333333,4,2,1,80,0,0
6502,-100,4,2,1,80,0,0
12598,320.855614973262,4,2,1,80,1,0
14202,320.855614973262,4,2,1,80,1,0
19335,-100,4,2,1,50,0,0
20619,-100,4,2,1,80,0,0
30244,-100,4,2,1,60,0,0
30886,-100,4,2,1,80,0,0
42437,-100,4,2,1,60,0,0
50137,-100,4,2,1,70,0,0
52704,-100,4,2,1,80,0,0
53185,320.855614973262,4,2,1,80,1,0
54949,320.855614973262,4,2,1,80,1,0
55270,320.855614973262,4,2,1,80,1,0
57836,-100,4,2,1,60,0,0
58478,-100,4,2,1,70,0,0
59120,-100,4,2,1,80,0,0
59761,-100,4,2,1,90,0,0
62970,-100,4,2,1,100,0,1
86232,-100,4,2,1,100,0,0
86392,-100,4,2,1,75,0,0
86713,-100,4,2,1,70,0,0
87034,-100,4,2,1,65,0,0
87355,-100,4,2,1,60,0,0
87676,-100,4,2,1,55,0,0
87997,-100,4,2,1,50,0,0
88318,-100,4,2,1,45,0,0
88638,-100,4,2,1,40,0,0
88959,-100,4,2,1,35,0,0
89280,-100,4,2,1,30,0,0
89601,-100,4,2,1,25,0,0
89922,-100,4,2,1,20,0,0

[Colours]
Combo1 : 128,0,255
Combo2 : 255,72,72
Combo3 : 0,128,255
Combo4 : 255,128,255
Combo5 : 169,83,255
Combo6 : 255,0,0
Combo7 : 0,0,255
Combo8 : 255,0,255

[HitObjects]
256,192,1369,12,0,2973,0:0:0:0:
104,104,3294,6,0,P|160:80|196:76,1,90,2|2,0:1|0:0,0:0:0:0:
280,76,3935,2,0,B|352:104|352:104|312:120|312:120|360:136|368:208,1,225,2|0,0:1|0:0,0:0:0:0:
260,280,5058,1,4,0:0:0:0:
196,304,5219,6,0,P|165:265|141:179,1,135.000005149842,2|2,0:0|0:0,0:0:0:0:
152,116,5700,1,0,0:0:0:0:
192,60,5860,1,2,0:0:0:0:
288,64,6181,1,0,3:3:0:0:
324,68,6262,1,0,3:0:0:0:
356,84,6342,1,0,3:3:0:0:
384,104,6422,1,0,3:0:0:0:
404,132,6502,6,0,P|396:196|320:284,1,180,12|2,3:2|0:0,2:2:0:0:
232,280,6983,1,0,0:0:0:0:
260,192,7144,2,0,P|288:144|208:76,1,180,4|2,0:0|0:0,0:0:0:0:
120,100,7625,1,0,0:0:0:0:
100,224,7786,6,0,P|164:288|256:320,1,180,4|2,0:0|0:0,0:0:0:0:
336,308,8267,1,0,0:0:0:0:
336,220,8427,2,0,B|348:160|348:160|300:136|300:136|322:63,1,180,4|2,0:0|0:0,0:0:0:0:
397,28,8909,1,0,0:0:0:0:
471,78,9069,69,4,0:0:0:0:
318,73,9229,1,0,0:0:0:0:
437,200,9390,1,8,0:0:0:0:
437,200,9550,2,0,P|413:228|274:239,1,180
262,82,10032,1,8,0:0:0:0:
115,166,10192,1,0,0:0:0:0:
124,332,10513,6,0,P|171:312|202:273,1,90,0|8,0:0|0:0,0:0:0:0:
265,70,10834,2,0,P|257:110|278:253,1,180
332,315,11315,2,0,P|390:336|433:325,1,90,8|0,0:0|0:0,0:0:0:0:
471,158,11636,5,2,0:0:0:0:
360,29,11796,1,0,0:0:0:0:
317,210,11957,1,0,0:0:0:0:
468,65,12117,2,0,L|391:141,1,90,2|0,0:0|0:0,0:0:0:0:
247,135,12438,1,0,0:0:0:0:
113,65,12598,5,2,0:0:0:0:
244,263,12759,1,0,0:0:0:0:
38,190,12918,1,0,0:0:0:0:
234,111,13080,2,0,L|331:70,1,90,2|0,0:0|0:0,0:0:0:0:
304,206,13401,1,0,0:0:0:0:
444,204,13561,2,0,P|421:252|311:319,1,180,2|8,0:0|0:0,0:0:0:0:
141,275,14203,70,0,P|100:248|73:204,2,90,2|0|8,0:0|0:0|0:0,0:0:0:0:
287,273,14684,2,0,P|316:247|351:113,1,180
202,150,15165,1,8,0:0:0:0:
82,44,15324,2,0,P|58:86|72:219,1,180
173,302,15806,5,8,0:0:0:0:
316,265,15966,2,0,P|360:243|409:123,1,180
267,63,16447,2,0,P|224:96|191:137,1,90,8|0,0:0|0:0,0:0:0:0:
175,205,16768,6,0,P|190:237|235:280,1,90,4|0,0:0|0:0,0:0:0:0:
313,301,17090,1,8,0:0:0:0:
405,170,17251,1,0,0:0:0:0:
405,170,17411,1,0,1:0:0:0:
285,56,17570,2,0,P|244:55|189:73,1,90,0|8,1:0|0:0,0:0:0:0:
63,167,17891,1,0,0:0:0:0:
63,167,18052,6,0,P|111:158|170:157,1,90,2|0,0:0|0:0,0:0:0:0:
343,194,18374,1,8,0:0:0:0:
343,194,18534,2,0,P|348:234|330:287,1,90,0|0,0:0|1:0,0:0:0:0:
339,92,18855,2,0,P|354:60|403:27,1,90,0|8,1:0|0:0,0:0:0:0:
333,280,19176,1,0,1:0:0:0:
248,309,19335,70,0,P|228:298|203:275,3,45,4|0|0|0,3:0|3:0|3:0|3:0,3:0:0:0:
173,258,19657,2,0,P|158:240|143:210,3,45,4|0|0|0,3:0|3:0|3:0|3:0,3:0:0:0:
125,181,19978,1,4,3:0:0:0:
118,136,20058,1,0,3:0:0:0:
128,91,20137,1,4,3:0:0:0:
156,56,20219,1,0,3:0:0:0:
198,42,20299,1,4,3:0:0:0:
241,46,20379,1,4,3:0:0:0:
281,66,20459,1,4,3:0:0:0:
316,94,20538,1,4,3:0:0:0:
352,119,20620,6,0,P|380:167|385:293,1,180,8|0,0:0|0:0,0:0:0:0:
233,350,21101,2,0,P|179:342|84:251,1,180,8|0,0:0|0:0,0:0:0:0:
257,229,21582,1,8,0:0:0:0:
140,92,21902,6,0,L|240:56,1,90,2|0,0:0|0:0,0:0:0:0:
261,155,22224,1,0,0:0:0:0:
390,98,22383,1,0,0:0:0:0:
371,261,22545,2,0,L|282:282,1,90,2|0,0:0|0:0,0:0:0:0:
119,253,22866,2,0,L|207:234,1,90
267,52,23185,5,2,0:0:0:0:
309,38,23267,1,0,0:0:0:0:
353,44,23347,1,0,0:0:0:0:
437,75,23506,2,0,P|468:125|471:168,1,90
343,158,23828,1,2,0:0:0:0:
236,219,23989,2,0,P|277:260|325:269,1,90
367,369,24308,1,0,0:0:0:0:
204,313,24469,69,4,0:0:0:0:
94,178,24629,1,0,0:0:0:0:
211,50,24791,1,8,0:0:0:0:
336,176,24951,2,0,L|253:226,1,90,0|4,0:0|0:0,0:0:0:0:
431,168,25272,1,0,0:0:0:0:
342,30,25431,1,8,0:0:0:0:
211,207,25593,1,0,0:0:0:0:
128,69,25752,5,4,0:0:0:0:
128,69,25834,1,0,0:0:0:0:
128,69,25914,1,0,0:0:0:0:
62,227,26074,2,0,P|66:263|93:312,1,90,8|0,0:0|0:0,0:0:0:0:
252,339,26395,1,4,0:0:0:0:
418,294,26554,1,0,0:0:0:0:
262,216,26716,1,8,0:0:0:0:
253,171,26796,1,0,0:0:0:0:
237,128,26875,1,0,0:0:0:0:
331,293,27036,5,2,0:0:0:0:
331,293,27197,1,0,0:0:0:0:
331,293,27358,2,0,P|281:304|144:272,1,180,0|2,0:0|0:0,0:0:0:0:
19,170,27839,1,0,0:0:0:0:
123,60,27998,2,0,P|181:58|222:75,1,90
373,163,28320,5,2,0:0:0:0:
423,308,28481,1,0,0:0:0:0:
227,177,28641,1,0,0:0:0:0:
438,94,28800,1,0,0:0:0:0:
332,220,28962,2,0,L|215:367,1,180,4|0,0:0|0:0,0:0:0:0:
48,285,29443,1,0,1:0:0:0:
41,239,29522,1,0,1:0:0:0:
44,194,29603,70,0,P|44:165|127:41,1,180,2|2,1:2|1:2,0:0:0:0:
253,32,30084,1,0,0:0:0:0:
413,112,30244,1,4,3:0:0:0:
434,151,30324,1,0,3:0:0:0:
442,195,30405,1,4,3:0:0:0:
429,238,30485,1,0,3:0:0:0:
399,272,30565,2,0,P|380:290|352:303,3,45,4|4|4|4,3:0|3:0|3:0|3:0,3:0:0:0:
322,319,30887,5,4,1:2:0:0:
165,283,31046,1,0,1:0:0:0:
312,139,31208,1,8,1:2:0:0:
219,356,31368,1,0,1:0:0:0:
146,116,31528,2,0,L|224:171,1,90,2|0,1:2|1:0,0:0:0:0:
434,156,31850,2,0,L|352:103,1,90,8|0,1:2|1:0,0:0:0:0:
111,31,32169,6,0,P|89:51|53:103,1,90,2|0,0:0|0:0,0:0:0:0:
138,262,32490,2,0,P|160:242|196:190,1,90
248,39,32812,1,2,0:0:0:0:
56,223,32973,1,0,0:0:0:0:
314,193,33133,2,0,L|413:158,1,90
469,36,33454,5,2,0:0:0:0:
469,36,33614,1,0,0:0:0:0:
469,36,33775,1,0,0:0:0:0:
469,36,33935,2,0,P|475:105|469:226,1,180
382,323,34415,1,0,0:0:0:0:
220,328,34577,1,0,0:0:0:0:
135,182,34737,69,4,0:0:0:0:
312,34,34898,1,0,0:0:0:0:
311,239,35058,1,8,0:0:0:0:
145,30,35219,2,0,L|202:102,1,90,0|4,0:0|0:0,0:0:0:0:
464,47,35538,1,0,0:0:0:0:
240,212,35700,5,8,0:0:0:0:
475,192,35860,2,0,L|392:141,1,90,0|4,0:0|0:0,0:0:0:0:
223,42,36181,1,0,0:0:0:0:
220,274,36342,1,8,0:0:0:0:
49,67,36502,2,0,L|168:205,1,180
351,76,36983,2,0,L|260:139,1,90,8|0,0:0|0:0,0:0:0:0:
99,247,37304,5,2,0:0:0:0:
243,313,37465,2,0,P|282:302|334:279,1,90
442,176,37784,1,0,0:0:0:0:
475,337,37946,2,0,L|404:270,1,90,2|0,0:0|0:0,0:0:0:0:
276,160,38267,1,0,0:0:0:0:
143,38,38427,1,0,0:0:0:0:
38,191,38588,5,2,0:0:0:0:
221,289,38748,1,0,0:0:0:0:
30,324,38907,1,0,0:0:0:0:
222,131,39069,2,0,L|146:208,1,90,0|2,0:0|0:0,0:0:0:0:
362,194,39390,1,0,0:0:0:0:
451,55,39549,2,0,L|356:49,1,90
156,54,39871,70,0,L|202:143,1,90,2|0,0:0|0:0,0:0:0:0:
263,266,40192,1,0,0:0:0:0:
409,194,40352,2,0,L|440:104,2,90,0|2|0,0:0|0:0|0:0,0:0:0:0:
278,332,40834,1,0,0:0:0:0:
213,111,40994,1,0,0:0:0:0:
379,232,41153,5,8,0:0:0:0:
115,194,41315,2,0,L|29:129,1,90,0|8,1:0|0:0,0:0:0:0:
344,92,41636,2,0,L|411:33,1,90,0|8,1:0|0:0,0:0:0:0:
240,234,41957,1,0,1:0:0:0:
457,329,42117,2,0,L|387:252,1,90,8|0,0:0|0:0,0:0:0:0:
280,96,42438,5,2,0:0:0:0:
280,96,42598,1,0,0:0:0:0:
280,96,42759,1,8,0:0:0:0:
280,96,42919,2,0,L|204:176,1,90,0|2,0:0|0:0,0:0:0:0:
104,272,43240,1,0,0:0:0:0:
104,72,43399,2,0,L|172:8,1,90,8|0,0:0|0:0,0:0:0:0:
384,28,43721,5,2,0:0:0:0:
468,152,43882,2,0,L|400:220,1,90,0|8,0:0|0:0,0:0:0:0:
256,288,44203,1,0,0:0:0:0:
332,144,44363,1,2,0:0:0:0:
144,248,44522,2,0,L|208:168,1,90,0|8,0:0|0:0,0:0:0:0:
292,56,44844,1,0,0:0:0:0:
456,168,45005,69,2,0:0:0:0:
400,292,45165,1,0,0:0:0:0:
268,320,45324,2,0,L|192:240,1,90,8|0,0:0|0:0,0:0:0:0:
115,154,45645,1,2,0:0:0:0:
217,63,45807,1,0,0:0:0:0:
368,232,45967,2,0,L|298:154,1,90,8|0,0:0|0:0,0:0:0:0:
472,332,46288,5,2,0:0:0:0:
472,104,46447,1,0,0:0:0:0:
472,348,46609,2,0,L|472:240,1,90,8|0,0:0|0:0,0:0:0:0:
312,52,46930,2,0,L|312:160,1,90,2|0,0:0|0:0,0:0:0:0:
309,277,47251,1,8,0:0:0:0:
220,116,47411,1,0,0:0:0:0:
56,344,47570,6,0,P|48:292|56:240,1,90,2|0,0:0|0:0,0:0:0:0:
112,134,47891,1,8,0:0:0:0:
184,304,48053,2,0,P|188:248|212:200,1,90,0|2,0:0|0:0,0:0:0:0:
269,100,48374,1,0,0:0:0:0:
428,257,48534,1,8,0:0:0:0:
269,100,48693,1,0,0:0:0:0:
464,72,48855,6,0,P|472:128|460:176,1,90,2|0,0:0|0:0,0:0:0:0:
360,300,49176,1,8,0:0:0:0:
356,116,49336,1,0,0:0:0:0:
260,228,49497,2,0,L|188:300,1,90,2|0,0:0|0:0,0:0:0:0:
128,124,49816,2,0,L|192:56,1,90,8|0,0:0|0:0,0:0:0:0:
384,60,50137,70,0,P|400:80|428:156,1,90,6|0,0:0|0:0,0:0:0:0:
424,304,50459,1,8,0:0:0:0:
424,304,50620,2,0,L|328:276,1,90,0|2,0:0|0:0,0:0:0:0:
236,168,50939,2,0,L|188:260,1,90,0|8,0:0|0:0,0:0:0:0:
56,144,51260,1,0,0:0:0:0:
256,44,51422,5,2,0:0:0:0:
392,192,51582,1,0,0:0:0:0:
256,340,51743,1,8,0:0:0:0:
120,192,51903,1,0,0:0:0:0:
384,280,52062,2,0,L|308:216,1,90,2|0,0:0|0:0,0:0:0:0:
128,104,52383,2,0,L|204:168,1,90,8|0,0:0|0:0,0:0:0:0:
444,193,52704,6,0,P|439:157|408:98,1,90,6|0,0:0|0:0,0:0:0:0:
256,29,53025,2,0,P|261:65|292:124,1,90,8|0,0:0|0:0,0:0:0:0:
376,329,53345,2,0,P|371:293|340:234,1,90,2|0,0:0|0:0,0:0:0:0:
188,165,53666,2,0,P|193:201|224:260,1,90,8|0,0:0|0:0,0:0:0:0:
108,61,53987,5,6,0:0:0:0:
108,61,54147,1,0,0:0:0:0:
108,61,54307,2,0,L|81:159,1,90,8|0,0:0|0:0,0:0:0:0:
136,302,54628,1,2,0:0:0:0:
136,302,54789,2,0,L|178:219,1,90,0|8,0:0|0:0,0:0:0:0:
266,48,55109,1,0,0:0:0:0:
90,82,55270,70,0,P|175:134|182:141,1,90,6|0,0:0|0:0,0:0:0:0:
255,246,55590,1,8,0:0:0:0:
449,193,55751,2,0,P|444:148|419:102,1,90,0|2,0:0|0:0,0:0:0:0:
324,276,56072,1,0,0:0:0:0:
153,259,56232,1,8,0:0:0:0:
27,157,56392,1,0,0:0:0:0:
28,112,56553,5,4,3:0:0:0:
60,80,56633,1,0,3:0:0:0:
100,64,56713,1,0,3:0:0:0:
144,60,56793,1,0,3:0:0:0:
188,72,56874,1,4,3:0:0:0:
220,104,56954,1,0,3:0:0:0:
232,148,57034,1,0,3:0:0:0:
240,192,57114,1,0,3:0:0:0:
236,236,57194,1,4,3:0:0:0:
208,272,57275,1,0,3:0:0:0:
164,284,57355,1,4,3:0:0:0:
119,275,57435,2,0,P|99:259|79:231,3,45,0|4|4|4,3:0|3:0|3:0|3:0,3:0:0:0:
116,88,57836,6,0,L|236:92,1,120,8|0,0:0|0:0,0:0:0:0:
356,94,58264,5,0,0:0:0:0:
342,273,58478,1,8,0:0:0:0:
209,150,58692,1,0,0:0:0:0:
425,150,58906,69,0,0:0:0:0:
318,338,59120,1,8,0:0:0:0:
193,161,59334,1,0,0:0:0:0:
451,107,59548,5,0,0:0:0:0:
292,316,59761,1,8,0:0:0:0:
154,90,59975,1,0,0:0:0:0:
431,205,60189,5,0,0:0:0:0:
92,292,60403,5,8,0:0:0:0:
71,149,60564,2,0,L|154:87,1,90,0|8,0:0|0:0,0:0:0:0:
281,33,60884,2,0,P|292:52|296:75,1,45
307,230,61045,2,0,P|320:206|325:183,1,45,8|0,0:0|0:0,0:0:0:0:
428,34,61205,2,0,P|439:53|443:76,1,45
466,213,61366,2,0,P|460:244|446:270,3,45,8|0|8|0,0:0|0:0|0:0|0:0,0:0:0:0:
419,284,61686,69,8,0:0:0:0:
376,298,61767,1,8,0:0:0:0:
334,314,61847,1,8,0:0:0:0:
289,309,61927,1,8,0:0:0:0:
244,301,62007,2,0,P|196:295|106:241,1,135,8|0,0:0|0:0,0:0:0:0:
89,221,62328,2,0,P|68:183|62:48,1,180,8|8,0:0|0:0,0:0:0:0:
167,113,62970,53,4,0:0:0:0:
36,289,63130,1,0,0:0:0:0:
12,107,63291,1,8,0:0:0:0:
168,260,63451,2,0,L|260:252,1,90,0|0,0:0|1:0,0:0:0:0:
430,134,63772,2,0,L|334:126,1,90,0|8,1:0|0:0,0:0:0:0:
156,228,64093,1,0,0:0:0:0:
264,344,64253,5,0,1:0:0:0:
228,120,64414,1,0,1:0:0:0:
420,216,64574,1,8,0:0:0:0:
264,344,64735,2,0,L|168:336,1,90,0|0,0:0|1:0,0:0:0:0:
15,319,65056,1,0,1:0:0:0:
35,147,65216,2,0,L|131:139,1,90,8|0,0:0|0:0,0:0:0:0:
220,244,65537,5,0,1:0:0:0:
240,72,65697,1,0,1:0:0:0:
248,268,65858,1,8,0:0:0:0:
417,180,66018,2,0,L|325:168,1,90,0|0,0:0|1:0,0:0:0:0:
132,192,66339,1,0,1:0:0:0:
216,360,66499,2,0,L|308:352,1,90,8|0,0:0|0:0,0:0:0:0:
452,276,66820,6,0,P|476:192|440:108,1,180,4|8,0:0|0:0,0:0:0:0:
441,109,67302,1,0,0:0:0:0:
263,205,67462,2,0,L|359:197,1,90,0|0,1:0|1:0,0:0:0:0:
182,341,67783,2,0,L|90:329,1,90,8|0,0:0|0:0,0:0:0:0:
8,208,68104,70,0,P|80:152|168:168,1,180,4|8,0:0|0:0,0:0:0:0:
280,228,68585,2,0,L|288:136,1,90,0|0,0:0|1:0,0:0:0:0:
221,22,68906,1,0,1:0:0:0:
192,264,69066,1,8,0:0:0:0:
388,176,69227,1,0,0:0:0:0:
292,364,69387,5,0,1:0:0:0:
236,128,69548,1,0,1:0:0:0:
481,212,69708,1,8,0:0:0:0:
196,336,69868,2,0,L|16:324,1,180,0|0,1:0|1:0,0:0:0:0:
392,224,70350,2,0,L|484:212,1,90,8|0,0:0|0:0,0:0:0:0:
180,232,70671,6,0,B|168:176|168:176|188:120|188:120|172:48,1,180,4|8,0:0|0:0,0:0:0:0:
92,112,71152,1,0,0:0:0:0:
326,164,71312,2,0,P|371:161|415:148,1,90,0|0,1:0|1:0,0:0:0:0:
482,324,71633,2,0,L|390:312,1,90,8|0,0:0|0:0,0:0:0:0:
229,325,71954,5,0,1:0:0:0:
276,84,72114,1,0,1:0:0:0:
276,84,72195,1,0,1:0:0:0:
276,84,72275,1,8,0:0:0:0:
416,176,72435,1,0,1:0:0:0:
240,52,72596,2,0,L|188:44,1,45,4|0,3:0|3:0,3:0:0:0:
44,144,72756,2,0,L|60:188,1,45,4|0,3:0|3:0,3:0:0:0:
256,168,72917,2,0,L|292:140,1,45,12|4,3:0|3:0,3:0:0:0:
128,344,73077,2,0,L|80:340,1,45,4|4,3:0|3:0,3:0:0:0:
296,248,73237,70,0,L|392:236,1,90,4|0,0:0|0:0,0:0:0:0:
487,348,73558,1,8,0:0:0:0:
488,136,73719,2,0,P|436:132|396:128,1,90,0|0,0:0|1:0,0:0:0:0:
284,30,74040,1,0,1:0:0:0:
249,245,74200,1,8,0:0:0:0:
488,136,74360,1,0,0:0:0:0:
452,300,74521,6,0,L|349:286,1,90,4|0,0:0|0:0,0:0:0:0:
147,264,74842,1,8,0:0:0:0:
256,350,75002,2,0,L|275:249,1,90,0|0,0:0|1:0,0:0:0:0:
297,124,75323,1,0,1:0:0:0:
173,50,75483,1,8,0:0:0:0:
388,176,75644,1,0,0:0:0:0:
136,210,75804,6,0,B|160:177|160:177|178:116,1,90,4|0,0:0|0:0,0:0:0:0:
292,34,76125,2,0,B|343:34|343:34|385:66,1,90,8|0,0:0|0:0,0:0:0:0:
456,169,76446,1,0,1:0:0:0:
340,303,76606,2,0,B|313:285|313:285|285:231,1,90,0|8,1:0|0:0,0:0:0:0:
220,79,76927,1,0,0:0:0:0:
356,63,77088,5,4,0:0:0:0:
450,166,77248,1,0,0:0:0:0:
156,63,77409,1,8,0:0:0:0:
62,166,77569,1,0,0:0:0:0:
356,210,77729,1,0,1:0:0:0:
450,313,77890,1,0,1:0:0:0:
156,210,78050,1,8,0:0:0:0:
62,313,78211,1,0,0:0:0:0:
213,319,78371,70,0,B|262:283|262:283|273:223|273:223|326:191,1,180,4|8,0:0|0:0,0:0:0:0:
452,52,78852,2,0,P|472:38|491:17,1,45,4|0,3:0|3:0,3:0:0:0:
192,212,79013,2,0,P|172:226|153:247,1,45,4|0,3:0|3:0,3:0:0:0:
456,104,79173,2,0,P|456:79|451:52,1,45,4|0,3:0|3:0,3:0:0:0:
244,268,79334,2,0,P|269:290|298:301,1,45,12|4,3:2|3:0,3:0:0:0:
320,312,79494,1,4,3:0:0:0:
364,320,79574,1,4,3:0:0:0:
402,321,79655,5,4,0:0:0:0:
163,337,79815,1,0,0:0:0:0:
344,181,79975,1,8,0:0:0:0:
103,294,80296,2,0,B|132:240|132:240|180:224|180:224|221:150,1,180,4|8,1:2|1:2,1:0:0:0:
349,59,80938,5,4,3:0:0:0:
380,90,81018,1,0,3:2:0:0:
393,132,81098,1,4,3:0:0:0:
387,176,81179,1,0,3:2:0:0:
371,218,81259,1,8,3:2:0:0:
333,243,81339,1,0,3:2:0:0:
292,256,81419,2,0,P|258:253|232:244,3,45,4|0|4|4,3:0|3:2|3:0|3:0,3:0:0:0:
204,232,81740,1,4,3:0:0:0:
165,209,81820,1,4,3:0:0:0:
132,177,81901,2,0,P|117:135|115:82,1,90,8|0,3:2|1:2,1:0:0:0:
233,30,82221,5,4,0:0:0:0:
365,94,82382,2,0,P|389:128|416:187,1,90,0|8,0:0|0:0,0:0:0:0:
408,295,82703,1,0,0:0:0:0:
278,338,82863,2,0,P|227:328|180:301,1,90,0|0,1:0|0:0,0:0:0:0:
48,241,83184,1,8,0:0:0:0:
116,102,83344,1,0,0:0:0:0:
243,52,83505,70,0,P|274:53|345:78,1,90,4|0,0:0|0:0,0:0:0:0:
246,181,83826,1,8,0:0:0:0:
430,131,83986,1,0,0:0:0:0:
443,280,84147,2,0,P|409:328|362:348,1,90,4|0,0:0|0:0,0:0:0:0:
292,335,84467,1,8,0:0:0:0:
256,321,84548,1,0,0:0:0:0:
219,293,84628,1,0,0:0:0:0:
190,258,84708,1,0,0:0:0:0:
173,216,84788,6,0,P|160:171|206:45,1,180,4|8,0:0|0:0,0:0:0:0:
377,43,85270,1,0,1:0:0:0:
168,336,85430,1,8,0:0:0:0:
168,336,85751,5,0,1:0:0:0:
440,96,85911,1,8,0:0:0:0:
96,196,86232,5,12,1:2:0:0:
256,192,86392,12,0,90082,0:0:0:0:
