osu file format v14

[General]
AudioFilename: audio.mp3
AudioLeadIn: 0
PreviewTime: 121025
Countdown: 0
SampleSet: Soft
StackLeniency: 0.7
Mode: 0
LetterboxInBreaks: 0
WidescreenStoryboard: 0

[Editor]
Bookmarks: 89775,121108,187108,197775
DistanceSpacing: 0.8
BeatDivisor: 3
GridSize: 4
TimelineZoom: 3.099999

[Metadata]
Title:EXTRA MAGIC HOUR
TitleUnicode:エクストラ・マジック・アワー
Artist:AKINO with bless4
ArtistUnicode:AKINO with bless4
Creator:Xayah
Version:Steinberger
Source:甘城ブリリアントパーク
Tags:Rizen Asuka Asuka_- Linada Amagi Brilliant Park anime japanese lit120 -Hakurei- DakiniBrave
BeatmapID:2002055
BeatmapSetID:956309

[Difficulty]
HPDrainRate:6
CircleSize:4
OverallDifficulty:9
ApproachRate:9.3
SliderMultiplier:2
SliderTickRate:1

[Events]
//Background and Video events
0,0,"Sento.jpg",0,0
//Break Periods
2,187308,194554
//Storyboard Layer 0 (Background)
//Storyboard Layer 1 (Fail)
//Storyboard Layer 2 (Pass)
//Storyboard Layer 3 (Foreground)
//Storyboard Layer 4 (Overlay)
//Storyboard Sound Samples

[TimingPoints]
7109,333.333333333333,4,2,1,60,1,0
11109,333.333333333333,4,2,1,60,1,0
21775,-125,4,2,1,60,0,0
43108,-166.666666666667,4,2,1,60,0,0
48442,-125,4,2,1,60,0,0
51108,-83.3333333333333,4,2,1,60,0,0
53108,-125,4,2,1,60,0,0
53775,-100,4,2,1,60,0,1
77775,-100,4,2,1,60,0,1
80442,-125,4,2,1,60,0,0
89775,-125,4,2,1,60,0,0
111108,-166.666666666667,4,2,1,60,0,0
116442,-125,4,2,1,60,0,0
119108,-83.3333333333333,4,2,1,60,0,0
121108,-125,4,2,1,60,0,0
121775,-100,4,2,1,60,0,1
145775,-100,4,2,1,60,0,1
148442,-125,4,2,1,60,0,1
149775,-125,4,2,1,60,0,0
150275,-181.818181818182,4,2,1,60,0,0
152442,-125,4,2,1,60,0,0
152942,-181.818181818182,4,2,1,60,0,0
155108,-125,4,2,1,60,0,0
186442,-200,4,2,1,60,0,0
196358,-200,4,2,1,60,0,0
196442,-142.857142857143,4,2,1,60,0,0
197025,-142.857142857143,4,2,1,60,0,0
197108,-142.857142857143,4,2,1,60,0,0
201775,-111.111111111111,4,2,1,60,0,0
213775,-200,4,2,1,60,0,0
214025,-200,4,2,1,60,0,0
214108,-83.3333333333333,4,2,1,60,0,1
235108,-100,4,2,1,60,0,1
237775,-125,4,2,1,60,0,0

[Colours]
Combo1 : 227,28,28
Combo2 : 36,203,217
Combo3 : 61,211,136
Combo4 : 205,143,61

[HitObjects]
227,116,7108,5,2,3:2:0:0:
189,300,7275,1,8,0:3:0:0:
232,107,7442,1,4,0:3:0:0:
307,238,7608,1,2,3:2:0:0:
431,67,7775,2,0,B|316:45|346:123|217:92,1,200,2|4,3:2|0:3,0:0:0:0:
148,261,8275,6,0,P|137:153|121:55,1,200,6|2,3:2|1:2,0:0:0:0:
42,265,8775,2,0,P|89:181|98:361,1,500,6|0,3:2|0:0,0:0:0:0:
59,163,9775,5,0,1:2:0:0:
59,163,9858,1,0,1:2:0:0:
59,163,9942,1,8,0:3:0:0:
231,55,10108,1,0,3:2:0:0:
207,250,10275,5,0,1:2:0:0:
207,250,10358,1,0,1:2:0:0:
207,250,10442,2,0,P|201:218|200:187,1,50,0|0,1:2|0:0,0:0:0:0:
320,41,10608,2,0,P|319:67|314:90,1,50,8|0,0:3|0:0,0:0:0:0:
327,300,10775,2,0,P|332:268|334:237,1,50,4|0,0:3|0:0,0:0:0:0:
228,112,10942,1,0,1:2:0:0:
116,288,11108,5,6,3:2:0:0:
282,184,11275,1,2,0:2:0:0:
119,69,11442,2,0,P|138:115|145:187,1,100,10|2,1:2|0:2,0:0:0:0:
71,362,11775,1,2,3:2:0:0:
33,196,11942,2,0,B|108:189|108:189|145:208|145:208|227:201,1,200,2|2,0:2|0:2,0:0:0:0:
393,41,12442,5,2,3:2:0:0:
328,285,12608,1,2,0:2:0:0:
296,91,12775,1,2,1:2:0:0:
376,198,12942,1,2,0:2:0:0:
197,35,13108,5,2,1:2:0:0:
187,63,13192,1,2,0:2:0:0:
185,92,13275,1,2,1:2:0:0:
191,121,13358,1,2,1:2:0:0:
201,152,13442,2,0,P|208:181|209:219,1,50,2|2,1:2|0:2,0:0:0:0:
320,334,13608,2,0,P|321:304|328:275,1,50,2|2,1:2|1:2,0:0:0:0:
393,120,13775,5,2,3:2:0:0:
444,273,13942,1,2,0:2:0:0:
500,42,14108,1,2,1:2:0:0:
501,187,14275,1,2,0:2:0:0:
373,25,14442,1,2,3:2:0:0:
329,234,14608,2,0,P|323:184|306:137,1,100,2|0,0:2|1:2,0:0:0:0:
104,218,14942,1,2,0:2:0:0:
104,218,15025,1,2,0:2:0:0:
104,218,15108,6,0,P|150:232|218:240,1,100,2|2,3:2|0:2,0:0:0:0:
336,38,15442,2,0,P|286:44|238:59,1,100,2|2,1:2|0:2,0:0:0:0:
341,221,15775,1,2,3:2:0:0:
492,139,15942,1,8,0:3:0:0:
492,139,16025,1,0,3:0:0:0:
492,139,16108,2,0,P|442:132|394:117,1,100,2|2,1:2|0:2,0:0:0:0:
188,38,16442,5,0,3:2:0:0:
240,252,16608,1,2,0:2:0:0:
271,72,16775,1,2,1:2:0:0:
194,149,16942,1,2,0:2:0:0:
280,61,17108,1,2,3:2:0:0:
89,97,17275,2,0,P|104:146|106:212,1,100,2|0,0:2|1:2,0:0:0:0:
53,374,17608,5,2,0:2:0:0:
0,178,17775,1,2,3:2:0:0:
202,323,17942,1,2,0:2:0:0:
46,264,18108,1,2,1:2:0:0:
212,169,18275,1,2,0:2:0:0:
353,308,18442,5,2,3:2:0:0:
321,327,18525,1,2,0:2:0:0:
285,337,18608,1,2,0:2:0:0:
247,337,18692,1,2,0:2:0:0:
211,327,18775,2,0,P|181:318|146:316,1,50,2|2,1:2|0:2,0:0:0:0:
22,177,18942,2,0,P|46:173|70:165,1,50,2|2,0:2|0:2,0:0:0:0:
227,60,19108,6,0,P|166:49|200:138,1,200,2|0,1:2|3:2,0:0:0:0:
330,0,19608,2,0,P|335:57|321:216,1,200,2|0,1:2|0:0,0:0:0:0:
189,257,20108,2,0,P|183:193|190:151,1,100,2|0,1:2|0:0,0:0:0:0:
320,328,20442,5,2,1:2:0:0:
52,329,20608,2,0,B|165:300|139:381|253:348,1,200,2|0,1:2|1:2,0:0:0:0:
365,116,21108,1,0,1:2:0:0:
329,127,21192,1,8,0:3:0:0:
304,154,21275,1,0,3:2:0:0:
296,190,21358,1,8,0:3:0:0:
306,226,21442,2,0,P|312:255|315:293,1,50,0|0,1:2|1:2,0:0:0:0:
458,102,21608,2,0,P|452:131|449:169,1,50,0|0,1:2|1:2,0:0:0:0:
512,304,21775,6,0,P|457:290|415:292,1,80,6|2,3:2|0:2,0:0:0:0:
353,377,22108,1,2,3:2:0:0:
236,289,22275,2,0,P|275:286|313:274,1,80,2|0,0:2|3:2,0:0:0:0:
282,186,22608,1,2,0:2:0:0:
184,215,22775,2,0,P|142:276|182:367,1,160,2|0,3:2|3:2,0:0:0:0:
224,290,23275,1,0,0:0:0:0:
60,322,23442,6,0,P|59:282|47:244,1,80,2|0,3:2|0:0,0:0:0:0:
191,133,23775,2,0,P|179:171|178:210,1,80,2|0,3:2|0:0,0:0:0:0:
73,80,24108,2,0,P|84:118|85:157,1,80,2|0,3:2|0:0,0:0:0:0:
169,31,24442,6,0,B|254:20|236:71|327:57,1,160,2|0,3:2|3:2,0:0:0:0:
443,11,24942,1,2,0:2:0:0:
397,108,25108,2,0,P|402:156|418:200,1,80,2|0,3:2|0:0,0:0:0:0:
299,245,25442,2,0,P|310:206|313:166,1,80,0|0,3:2|0:0,0:0:0:0:
461,316,25775,6,0,B|417:319|388:292|388:292|368:327|323:339,1,160,2|0,3:2|3:2,0:0:0:0:
218,288,26275,1,0,0:0:0:0:
119,336,26442,2,0,P|118:278|102:228,1,80,2|0,3:2|0:0,0:0:0:0:
49,171,26775,1,0,3:2:0:0:
49,171,26942,1,0,0:0:0:0:
160,114,27108,5,2,3:2:0:0:
57,48,27275,1,2,0:2:0:0:
49,171,27442,1,2,3:2:0:0:
166,108,27608,2,0,B|253:94|236:147|320:132,1,160,2|2,0:2|0:2,0:0:0:0:
213,278,28108,2,0,P|208:238|195:200,1,80,2|0,3:2|0:0,0:0:0:0:
71,341,28442,6,0,P|75:301|88:263,1,80,2|0,3:2|0:0,0:0:0:0:
245,364,28775,2,0,P|203:351|151:345,1,80,2|0,3:2|0:0,0:0:0:0:
311,257,29108,2,0,P|269:270|217:276,1,80,2|0,3:2|0:0,0:0:0:0:
413,367,29442,2,0,P|371:354|319:348,1,80,2|0,3:2|0:0,0:0:0:0:
373,117,29775,6,0,B|407:158|407:158|392:277,1,160,2|0,3:2|3:2,0:0:0:0:
318,182,30275,1,2,0:2:0:0:
244,265,30442,2,0,P|204:273|164:272,1,80,2|0,3:2|0:0,0:0:0:0:
322,355,30775,2,0,P|361:354|401:362,1,80,0|0,3:2|0:0,0:0:0:0:
493,186,31108,5,2,3:2:0:0:
487,215,31192,1,0,3:2:0:0:
483,245,31275,1,0,3:2:0:0:
483,275,31358,1,0,3:2:0:0:
486,305,31442,1,0,1:2:0:0:
359,175,31608,2,0,P|378:230|377:277,1,80,2|0,3:2|0:0,0:0:0:0:
443,111,31942,2,0,P|448:71|463:34,2,80,2|8|0,3:2|0:3|1:2,0:0:0:0:
359,175,32442,5,6,3:2:0:0:
290,74,32608,1,2,0:2:0:0:
270,229,32775,1,2,1:2:0:0:
145,145,32942,2,0,P|187:158|242:157,1,80,2|0,0:2|3:2,0:0:0:0:
298,67,33275,1,2,3:2:0:0:
186,0,33442,2,0,P|198:39|200:101,1,80,2|0,1:2|0:0,0:0:0:0:
127,247,33775,5,2,3:2:0:0:
74,133,33942,1,2,3:2:0:0:
207,209,34108,1,2,1:2:0:0:
64,149,34275,1,2,3:2:0:0:
210,91,34442,2,0,P|270:92|301:102,1,80,2|2,0:2|3:2,0:0:0:0:
402,193,34775,2,0,P|362:201|323:199,1,80,2|0,1:2|0:0,0:0:0:0:
446,278,35108,6,0,L|455:93,1,160,2|2,3:2|1:2,0:0:0:0:
337,42,35608,1,2,0:2:0:0:
279,254,35775,1,2,3:2:0:0:
367,170,35942,1,2,3:2:0:0:
211,90,36108,1,2,1:2:0:0:
116,243,36275,6,0,B|202:231|182:281|272:264,1,160,2|2,3:2|3:2,0:0:0:0:
388,166,36775,1,2,1:2:0:0:
427,353,36942,1,0,0:0:0:0:
262,256,37108,2,0,P|257:211|260:166,1,80,2|2,3:2|3:2,0:0:0:0:
437,265,37442,2,0,P|438:304|433:344,1,80,2|2,1:2|0:2,0:0:0:0:
188,357,37775,5,6,3:2:0:0:
396,260,37942,1,2,0:2:0:0:
253,169,38108,1,2,1:2:0:0:
288,349,38275,2,0,B|344:344|344:344|387:363|387:363|444:357,1,160,2|2,3:2|3:2,0:0:0:0:
471,178,38775,1,2,1:2:0:0:
289,92,38942,6,0,P|301:164|309:278,1,160,6|2,3:2|3:2,0:0:0:0:
467,74,39442,2,0,P|415:97|382:98,1,80,2|0,1:2|3:2,0:0:0:0:
184,163,39775,2,0,P|223:168|258:187,1,80,2|0,3:2|3:2,0:0:0:0:
350,358,40108,1,2,1:2:0:0:
412,219,40275,1,2,0:2:0:0:
204,342,40442,6,0,P|198:287|191:252,1,80,6|0,3:2|0:0,0:0:0:0:
297,69,40775,2,0,P|290:108|286:148,1,80,2|0,1:2|0:0,0:0:0:0:
427,214,41108,2,0,P|421:159|414:124,1,80,2|2,3:2|3:2,0:0:0:0:
291,250,41442,1,2,1:2:0:0:
442,345,41608,6,0,B|357:328|371:385|281:370,1,160,6|2,3:2|3:2,0:0:0:0:
78,298,42108,2,0,P|126:308|168:306,1,80,2|2,1:2|0:2,0:0:0:0:
285,212,42442,1,0,1:2:0:0:
285,212,42525,1,0,1:2:0:0:
285,212,42608,1,8,0:3:0:0:
150,117,42775,2,0,P|162:165|164:204,1,80,0|4,1:2|0:3,0:0:0:0:
209,384,43108,6,0,L|228:260,1,119.999996337891,6|0,3:2|0:0,0:0:0:0:
227,265,43608,1,0,3:2:0:0:
159,187,43775,2,0,P|214:196|271:164,1,119.999996337891,0|2,1:2|0:2,0:0:0:0:
268,166,44275,1,2,0:2:0:0:
378,110,44442,6,0,L|502:134,2,119.999996337891,2|2|2,3:2|3:2|1:2,0:0:0:0:
309,48,45442,1,2,3:2:0:0:
219,118,45775,6,0,L|239:253,1,119.999996337891,2|2,3:2|0:2,0:0:0:0:
128,286,46275,2,0,L|145:167,1,119.999996337891,2|2,3:2|0:2,0:0:0:0:
236,236,46775,2,0,L|246:303,1,59.9999981689454,2|0,3:2|0:0,0:0:0:0:
194,362,47108,5,2,3:2:0:0:
244,295,47275,2,0,P|317:296|361:340,1,119.999996337891,2|2,1:2|0:2,0:0:0:0:
443,378,47775,2,0,P|452:342|456:313,1,59.9999981689454,2|8,1:2|0:3,0:0:0:0:
395,233,48108,2,0,P|386:197|382:168,1,59.9999981689454,2|0,3:2|3:2,0:0:0:0:
490,81,48442,6,0,P|480:117|475:171,1,80,4|0,3:2|0:0,0:0:0:0:
309,61,48775,2,0,P|362:74|441:8,1,160,2|2,1:2|3:2,0:0:0:0:
301,50,49275,1,2,3:2:0:0:
387,182,49442,2,0,P|395:141|401:86,1,80,2|2,1:2|3:2,0:0:0:0:
274,171,49775,5,0,0:0:0:0:
331,303,49942,1,2,3:2:0:0:
399,103,50108,1,2,1:2:0:0:
393,197,50275,1,2,3:2:0:0:
286,42,50442,5,2,0:2:0:0:
502,163,50608,1,2,3:2:0:0:
225,200,50775,1,2,1:2:0:0:
406,96,50942,1,2,0:2:0:0:
439,310,51108,6,0,B|295:287|339:385|198:351,1,239.999992675781,6|0,1:2|3:2,0:0:0:0:
188,107,51608,2,0,P|272:129|246:256,1,239.999992675781,6|0,1:2|0:0,0:0:0:0:
64,220,52108,1,6,1:2:0:0:
98,211,52192,1,0,1:2:0:0:
134,204,52275,1,0,1:2:0:0:
168,197,52358,1,0,1:2:0:0:
204,190,52442,5,6,1:2:0:0:
318,329,52608,2,0,P|326:210|339:84,1,239.999992675781,6|0,1:2|0:0,0:0:0:0:
449,211,53108,6,0,L|459:297,1,80,2|2,0:2|0:2,0:0:0:0:
470,124,53442,2,0,L|460:210,1,80,2|2,0:2|0:2,0:0:0:0:
256,124,53775,6,0,P|297:104|354:106,1,100,6|0,3:2|0:0,0:0:0:0:
143,63,54108,2,0,L|160:228,1,150,10|0,1:2|0:0,0:0:0:0:
171,225,54442,1,2,3:2:0:0:
78,384,54608,1,2,3:2:0:0:
41,157,54775,1,2,1:2:0:0:
326,288,54942,6,0,B|215:256|235:334|131:303,1,200,2|2,3:2|3:2,0:0:0:0:
423,210,55442,2,0,P|446:279|444:319,1,100,2|0,1:2|0:0,0:0:0:0:
257,369,55775,1,2,3:2:0:0:
314,119,55942,1,2,3:2:0:0:
346,280,56108,1,2,1:2:0:0:
498,78,56275,6,0,P|434:126|309:95,1,200,2|2,0:2|0:2,0:0:0:0:
110,218,56775,2,0,P|151:197|235:196,1,100,2|0,1:2|0:0,0:0:0:0:
400,233,57108,1,2,3:2:0:0:
206,297,57275,1,2,3:2:0:0:
382,376,57442,1,2,1:2:0:0:
162,384,57608,6,0,L|179:182,1,200,2|2,3:2|3:2,0:0:0:0:
7,20,58108,2,0,L|20:121,1,100,2|0,1:2|0:0,0:0:0:0:
193,286,58442,1,0,3:2:0:0:
128,89,58608,1,2,3:2:0:0:
62,320,58775,1,2,1:2:0:0:
189,175,58942,1,2,3:2:0:0:
318,378,59108,6,0,L|453:357,1,100,6|0,3:2|0:0,0:0:0:0:
297,182,59442,2,0,L|198:166,1,100,2|0,1:2|0:0,0:0:0:0:
423,354,59775,1,2,3:2:0:0:
303,69,59942,2,0,P|286:134|291:189,1,100,2|0,3:2|1:2,0:0:0:0:
512,265,60275,6,0,B|395:242|426:314|320:296,1,200,6|2,3:2|3:2,0:0:0:0:
106,307,60775,2,0,P|167:335|184:389,1,100,2|0,1:2|0:0,0:0:0:0:
282,191,61108,1,2,3:2:0:0:
329,306,61275,1,2,3:2:0:0:
357,100,61442,1,2,1:2:0:0:
177,101,61608,6,0,L|205:302,1,200,2|2,0:2|0:2,0:0:0:0:
90,183,62108,1,2,1:2:0:0:
312,239,62275,1,0,1:2:0:0:
97,348,62442,1,2,3:2:0:0:
220,130,62608,1,2,3:2:0:0:
220,130,62692,1,8,3:0:0:0:
220,130,62775,1,2,1:2:0:0:
45,270,62942,6,0,B|114:263|114:263|162:290|162:290|237:284,1,200,2|2,3:2|3:2,0:0:0:0:
145,63,63442,2,0,L|122:176,1,100,2|2,1:2|3:2,0:0:0:0:
344,353,63775,1,2,3:2:0:0:
358,318,63858,1,2,3:2:0:0:
362,281,63942,1,0,3:2:0:0:
354,245,64025,1,0,1:2:0:0:
335,212,64108,2,0,P|324:187|316:153,1,50,2|0,1:2|1:2,0:0:0:0:
468,295,64275,2,0,P|456:320|448:354,1,50,8|4,0:3|0:3,0:0:0:0:
165,294,64442,6,0,P|218:285|271:293,1,100,6|0,3:2|0:0,0:0:0:0:
482,133,64775,2,0,P|387:137|300:161,1,150,10|0,1:2|0:0,0:0:0:0:
318,166,65108,1,2,3:2:0:0:
195,34,65275,1,2,3:2:0:0:
284,298,65442,1,2,1:2:0:0:
24,153,65608,6,0,P|120:170|263:179,1,200,6|2,3:2|3:2,0:0:0:0:
383,379,66108,2,0,P|399:326|387:260,1,100,2|0,1:2|0:0,0:0:0:0:
291,65,66442,1,2,3:2:0:0:
230,189,66608,1,2,3:2:0:0:
381,8,66775,1,2,1:2:0:0:
469,302,66942,6,0,P|463:187|441:101,1,200,2|0,0:2|0:0,0:0:0:0:
313,243,67442,2,0,P|260:235|215:219,1,100,2|0,1:2|0:0,0:0:0:0:
312,1,67775,1,2,3:2:0:0:
340,25,67858,1,0,3:2:0:0:
359,57,67942,1,0,3:2:0:0:
366,93,68025,1,0,3:2:0:0:
359,130,68108,2,0,P|353:160|352:197,1,50,2|0,1:2|0:0,0:0:0:0:
423,327,68275,1,0,3:2:0:0:
168,156,68442,6,0,P|217:155|302:138,1,100,6|0,3:2|0:0,0:0:0:0:
418,341,68775,2,0,P|368:333|318:332,1,100,2|0,1:2|0:0,0:0:0:0:
73,361,69108,1,6,3:2:0:0:
191,258,69275,1,0,3:2:0:0:
0,125,69442,2,0,P|11:174|16:224,1,100,2|0,1:2|0:0,0:0:0:0:
231,78,69775,6,0,P|177:77|124:53,1,100,6|0,3:2|0:0,0:0:0:0:
414,188,70108,2,0,P|360:189|307:213,1,100,0|0,1:2|1:2,0:0:0:0:
295,239,70358,1,0,1:2:0:0:
295,239,70442,1,0,3:2:0:0:
226,368,70608,1,0,3:2:0:0:
169,130,70775,1,0,1:2:0:0:
151,255,70942,1,0,3:2:0:0:
303,30,71108,5,6,3:2:0:0:
312,66,71192,1,2,3:2:0:0:
318,103,71275,1,2,3:2:0:0:
320,140,71358,1,2,3:2:0:0:
319,178,71442,1,2,1:2:0:0:
56,307,71608,2,0,P|53:203|142:148,1,200,6|2,3:2|3:2,0:0:0:0:
273,266,72108,2,0,P|278:315|270:364,1,100,2|2,1:2|0:2,0:0:0:0:
436,199,72442,5,6,3:2:0:0:
169,276,72608,1,2,0:2:0:0:
329,60,72775,1,2,1:2:0:0:
410,373,72942,2,0,P|411:280|432:159,1,200,2|2,3:2|3:2,0:0:0:0:
458,140,73358,1,0,3:0:0:0:
458,140,73442,1,2,1:2:0:0:
295,282,73608,6,0,B|180:267|205:331|101:320,1,200,2|2,3:2|3:2,0:0:0:0:
43,54,74108,1,2,1:2:0:0:
131,230,74275,2,0,P|141:172|165:127,1,100,2|0,3:2|0:0,0:0:0:0:
376,125,74608,1,2,3:2:0:0:
289,343,74775,1,2,1:2:0:0:
237,89,74942,1,2,3:2:0:0:
148,335,75108,5,2,3:2:0:0:
359,229,75275,1,2,3:2:0:0:
146,129,75442,1,2,1:2:0:0:
356,34,75608,2,0,B|392:87|392:87|368:220,1,200,2|2,3:2|3:2,0:0:0:0:
249,339,76108,1,2,1:2:0:0:
73,111,76275,6,0,B|190:88|153:159|265:131,1,200,2|2,3:2|3:2,0:0:0:0:
426,24,76775,1,2,1:2:0:0:
290,236,76942,2,0,P|281:183|278:124,1,100,2|0,3:2|0:0,0:0:0:0:
480,160,77275,1,2,3:2:0:0:
447,333,77442,1,2,1:2:0:0:
447,333,77525,1,8,0:3:0:0:
447,333,77608,1,0,3:2:0:0:
223,300,77775,6,0,P|280:218|290:356,1,300,6|0,1:2|0:0,0:0:0:0:
129,373,78442,2,0,P|122:216|78:56,1,300,2|0,1:2|0:0,0:0:0:0:
344,215,79108,6,0,B|170:169|223:311|56:256,1,300,6|0,1:2|0:0,0:0:0:0:
251,81,79775,2,0,P|253:126|269:189,1,100,2|0,1:2|0:0,0:0:0:0:
487,171,80108,1,0,1:2:0:0:
472,123,80192,1,0,1:2:0:0:
434,92,80275,1,2,1:2:0:0:
385,89,80358,1,0,1:2:0:0:
345,106,80442,6,0,P|308:122|252:119,1,80,2|2,0:2|0:2,0:0:0:0:
420,235,80775,2,0,P|383:219|327:222,1,80,2|2,0:2|0:2,0:0:0:0:
195,204,81108,2,0,P|247:212|244:289,1,120,2|0,0:2|0:0,0:0:0:0:
252,284,81442,2,0,P|242:322|259:367,1,80,2|2,1:2|0:2,0:0:0:0:
349,233,81775,5,6,3:2:0:0:
280,106,81942,1,0,0:0:0:0:
112,191,82108,2,0,P|165:211|203:210,1,80,10|0,1:2|0:0,0:0:0:0:
342,307,82442,2,0,P|302:311|266:327,1,80,0|0,3:2|3:2,0:0:0:0:
267,143,82775,2,0,P|288:193|286:235,1,80,0|0,1:2|3:2,0:0:0:0:
147,113,83108,5,0,3:2:0:0:
147,113,83275,1,0,0:0:0:0:
267,143,83442,1,0,1:2:0:0:
267,143,83608,1,0,0:0:0:0:
66,19,83775,5,0,1:2:0:0:
141,251,83942,1,0,1:2:0:0:
243,7,84108,1,0,1:2:0:0:
194,183,84275,1,0,1:2:0:0:
429,71,84442,6,0,P|398:57|334:59,1,80,6|2,1:2|0:2,0:0:0:0:
190,191,84775,1,2,1:2:0:0:
390,249,84942,2,0,L|377:147,1,80,6|0,3:2|0:0,0:0:0:0:
218,325,85275,1,2,3:2:0:0:
164,46,85442,2,0,L|153:125,1,80,2|0,1:2|3:2,0:0:0:0:
107,335,85775,6,0,L|234:313,1,120,6|0,3:2|0:0,0:0:0:0:
236,302,86108,1,2,1:2:0:0:
436,384,86275,2,0,P|433:327|449:275,1,80,6|0,3:2|0:0,0:0:0:0:
511,188,86608,1,2,3:2:0:0:
333,115,86775,2,0,P|338:154|334:194,1,80,2|2,1:2|3:2,0:0:0:0:
79,247,87108,5,2,1:2:0:0:
112,231,87192,1,2,0:2:0:0:
152,229,87275,1,2,0:2:0:0:
191,237,87358,1,2,0:2:0:0:
224,254,87442,1,2,0:2:0:0:
252,280,87525,1,2,0:2:0:0:
278,307,87608,1,2,0:2:0:0:
313,324,87692,1,2,0:2:0:0:
351,333,87775,1,2,0:2:0:0:
389,328,87858,1,2,0:2:0:0:
425,314,87942,2,0,L|436:239,1,40,2|0,1:2|0:0,0:0:0:0:
319,40,88108,1,2,0:0:0:0:
329,77,88192,1,2,0:0:0:0:
329,110,88275,2,0,P|323:135|314:160,1,40,2|0,1:2|0:0,0:0:0:0:
210,286,88442,5,2,0:0:0:0:
173,296,88525,1,2,0:0:0:0:
140,296,88608,2,0,P|114:292|89:283,1,40,2|0,1:2|0:0,0:0:0:0:
366,343,88775,2,0,P|389:333|415:330,1,40,2|0,1:2|0:0,0:0:0:0:
212,177,88942,1,2,0:2:0:0:
201,214,89025,1,2,0:0:0:0:
201,247,89108,2,0,P|204:271|213:296,1,40,2|0,1:2|0:0,0:0:0:0:
347,100,89275,2,0,P|356:75|359:49,1,40,2|0,3:2|0:0,0:0:0:0:
486,270,89442,1,2,1:2:0:0:
435,264,89525,1,0,1:2:0:0:
384,258,89608,1,2,1:2:0:0:
334,251,89692,1,0,1:2:0:0:
281,244,89775,6,0,P|284:286|270:336,1,80,6|2,3:2|0:2,0:0:0:0:
172,249,90108,1,2,3:2:0:0:
142,146,90275,2,0,P|133:107|136:67,1,80,2|0,0:2|3:2,0:0:0:0:
263,99,90608,1,2,0:2:0:0:
300,231,90775,6,0,B|216:215|233:276|147:263,1,160,2|0,3:2|3:2,0:0:0:0:
78,191,91275,1,0,0:0:0:0:
12,312,91442,2,0,P|59:309|99:324,1,80,2|0,3:2|0:0,0:0:0:0:
177,377,91775,2,0,P|224:380|264:365,1,80,2|0,3:2|0:0,0:0:0:0:
346,326,92108,2,0,P|393:323|433:338,1,80,2|0,3:2|0:0,0:0:0:0:
345,182,92442,6,0,P|275:209|274:296,1,160,2|0,3:2|3:2,0:0:0:0:
358,191,92942,1,2,0:2:0:0:
250,134,93108,2,0,L|278:306,1,160,2|2,3:2|3:2,0:0:0:0:
174,224,93608,1,0,0:0:0:0:
254,124,93775,6,0,P|290:139|338:137,1,80,2|0,3:2|0:0,0:0:0:0:
165,75,94108,2,0,P|125:74|88:89,1,80,0|0,3:2|0:0,0:0:0:0:
244,213,94442,2,0,P|280:228|328:226,1,80,2|0,3:2|0:0,0:0:0:0:
155,164,94775,2,0,P|115:163|78:178,1,80,0|0,3:2|0:0,0:0:0:0:
252,116,95108,6,0,L|246:31,2,80,2|2|2,3:2|0:2|3:2,0:0:0:0:
350,169,95608,2,0,L|356:84,1,80,2|2,0:2|3:2,0:0:0:0:
438,145,95942,1,2,0:2:0:0:
340,180,96108,2,0,L|345:259,1,80,2|0,3:2|0:0,0:0:0:0:
473,339,96442,6,0,B|418:334|418:334|377:360|377:360|321:356,1,160,2|2,3:2|3:2,0:0:0:0:
241,268,96942,1,2,0:2:0:0:
148,331,97108,2,0,P|200:352|218:374,1,80,2|0,3:2|0:0,0:0:0:0:
241,183,97442,2,0,P|189:204|171:226,1,80,2|0,3:2|0:0,0:0:0:0:
75,379,97775,6,0,L|56:212,1,160,2|0,3:2|3:2,0:0:0:0:
131,127,98275,1,2,0:2:0:0:
187,234,98442,2,0,B|280:213|252:270|348:256,1,160,2|0,3:2|3:2,0:0:0:0:
431,194,98942,1,0,0:0:0:0:
276,56,99108,5,2,3:2:0:0:
296,78,99192,1,0,3:2:0:0:
312,103,99275,1,0,3:2:0:0:
323,131,99358,1,0,3:2:0:0:
329,160,99442,1,0,1:2:0:0:
145,163,99608,2,0,L|239:144,1,80,2|0,3:2|0:0,0:0:0:0:
69,69,99942,1,2,3:2:0:0:
43,218,100108,1,8,0:3:0:0:
168,72,100275,1,0,1:2:0:0:
263,239,100442,6,0,P|303:211|318:172,1,80,6|2,3:2|0:2,0:0:0:0:
173,223,100775,1,2,1:2:0:0:
346,350,100942,2,0,L|358:252,1,80,2|0,0:2|3:2,0:0:0:0:
167,231,101275,1,2,3:2:0:0:
184,376,101442,2,0,P|218:357|258:352,1,80,2|0,1:2|0:0,0:0:0:0:
412,380,101775,5,2,3:2:0:0:
332,294,101942,1,2,3:2:0:0:
403,210,102108,2,0,P|419:246|419:311,1,80,2|2,1:2|3:2,0:0:0:0:
300,205,102442,2,0,P|303:165|320:128,1,80,2|2,0:2|3:2,0:0:0:0:
489,210,102775,2,0,P|450:212|398:195,1,80,2|0,1:2|0:0,0:0:0:0:
340,49,103108,5,2,3:2:0:0:
291,213,103275,1,2,0:2:0:0:
248,22,103442,1,2,1:2:0:0:
335,141,103608,1,2,0:2:0:0:
416,21,103775,1,2,3:2:0:0:
252,108,103942,1,2,3:2:0:0:
434,154,104108,1,2,1:2:0:0:
297,229,104275,6,0,B|390:220|363:272|458:255,1,160,2|2,3:2|3:2,0:0:0:0:
225,344,104775,2,0,L|206:243,1,80,2|0,1:2|0:0,0:0:0:0:
265,124,105108,1,2,3:2:0:0:
304,222,105275,1,0,3:2:0:0:
122,286,105442,2,0,L|141:185,1,80,2|0,1:2|0:0,0:0:0:0:
71,40,105775,5,6,3:2:0:0:
139,114,105942,1,2,0:2:0:0:
38,136,106108,1,2,1:2:0:0:
213,197,106275,2,0,B|121:177|151:239|59:219,1,160,2|2,3:2|3:2,0:0:0:0:
187,284,106775,1,2,1:2:0:0:
278,113,106942,6,0,L|303:290,1,160,6|2,3:2|3:2,0:0:0:0:
364,117,107442,1,2,1:2:0:0:
244,214,107608,1,0,3:2:0:0:
304,40,107775,1,2,0:2:0:0:
403,184,107942,1,0,3:2:0:0:
220,94,108108,2,0,P|209:50|210:0,1,80,2|0,1:2|0:0,0:0:0:0:
393,195,108442,6,0,L|383:276,1,80,6|0,3:2|0:0,0:0:0:0:
265,338,108775,2,0,L|255:258,1,80,2|0,1:2|0:0,0:0:0:0:
352,365,109108,1,2,3:2:0:0:
184,310,109275,1,2,3:2:0:0:
373,275,109442,1,2,1:2:0:0:
273,169,109608,6,0,B|183:159|200:215|118:197,1,160,6|2,3:2|3:2,0:0:0:0:
120,37,110108,2,0,P|135:75|141:134,1,80,2|2,1:2|0:2,0:0:0:0:
70,260,110442,1,0,1:2:0:0:
70,260,110525,1,0,1:2:0:0:
70,260,110608,1,8,0:3:0:0:
208,217,110775,2,0,P|192:255|187:314,1,80,0|4,1:2|0:3,0:0:0:0:
318,384,111108,6,0,L|302:253,1,119.999996337891,6|0,3:2|0:0,0:0:0:0:
303,264,111608,1,0,3:2:0:0:
417,199,111775,2,0,P|344:187|325:133,1,119.999996337891,0|2,1:2|0:2,0:0:0:0:
325,150,112275,1,2,0:2:0:0:
238,258,112442,6,0,P|180:241|115:232,2,119.999996337891,2|2|2,3:2|3:2|1:2,0:0:0:0:
316,357,113442,1,2,3:2:0:0:
376,171,113775,6,0,P|334:211|336:269,1,119.999996337891,2|2,3:2|0:2,0:0:0:0:
499,207,114275,2,0,P|441:195|376:175,1,119.999996337891,2|2,3:2|0:2,0:0:0:0:
247,109,114775,2,0,P|279:107|308:100,1,59.9999981689454,2|0,3:2|0:0,0:0:0:0:
372,35,115108,1,2,3:2:0:0:
233,102,115275,6,0,P|222:161|213:220,1,119.999996337891,2|2,1:2|0:2,0:0:0:0:
324,253,115775,2,0,P|321:221|313:188,1,59.9999981689454,2|0,1:2|0:0,0:0:0:0:
241,357,116108,2,0,P|243:325|252:292,1,59.9999981689454,2|0,3:2|0:0,0:0:0:0:
133,235,116442,6,0,P|189:234|217:225,1,80,4|0,3:2|0:0,0:0:0:0:
346,70,116775,2,0,P|297:128|317:216,1,160,2|2,1:2|3:2,0:0:0:0:
434,97,117275,1,2,3:2:0:0:
198,57,117442,2,0,L|212:167,1,80,2|2,1:2|3:2,0:0:0:0:
273,337,117775,5,0,0:0:0:0:
329,204,117942,1,2,3:2:0:0:
376,368,118108,1,2,1:2:0:0:
225,143,118275,1,2,3:2:0:0:
419,240,118442,1,2,0:2:0:0:
211,282,118608,1,2,3:2:0:0:
298,78,118775,1,2,1:2:0:0:
341,213,118942,1,2,0:2:0:0:
62,53,119108,6,0,B|208:21|156:121|301:91,1,239.999992675781,6|0,1:2|3:2,0:0:0:0:
84,258,119608,2,0,P|42:188|164:178,1,239.999992675781,6|0,1:2|0:0,0:0:0:0:
399,333,120108,1,6,1:2:0:0:
355,323,120192,1,2,3:2:0:0:
310,317,120275,1,0,1:2:0:0:
265,315,120358,1,2,3:2:0:0:
220,316,120442,5,6,3:2:0:0:
1,252,120608,2,0,P|108:268|149:143,1,239.999992675781,6|0,1:2|0:0,0:0:0:0:
70,100,121108,6,0,P|62:148|60:209,1,80,2|2,0:2|0:2,0:0:0:0:
70,14,121442,2,0,P|75:53|79:93,1,80,2|2,0:2|0:2,0:0:0:0:
140,337,121775,6,0,L|148:209,1,100,6|0,3:2|0:0,0:0:0:0:
418,212,122108,2,0,P|338:239|330:306,1,150,10|0,1:2|0:0,0:0:0:0:
340,312,122442,1,2,3:2:0:0:
405,122,122608,1,2,3:2:0:0:
494,355,122775,1,2,1:2:0:0:
309,211,122942,6,0,B|190:182|222:264|111:239,1,200,6|2,3:2|3:2,0:0:0:0:
120,15,123442,2,0,P|145:80|145:122,1,100,2|0,1:2|0:0,0:0:0:0:
70,363,123775,1,2,3:2:0:0:
23,176,123942,1,2,3:2:0:0:
77,375,124108,1,2,1:2:0:0:
248,132,124275,6,0,P|237:242|240:333,1,200,2|2,0:2|0:2,0:0:0:0:
84,120,124775,2,0,P|135:111|167:74,1,100,2|0,1:2|0:0,0:0:0:0:
335,191,125108,1,2,3:2:0:0:
137,268,125275,1,2,3:2:0:0:
257,117,125442,1,2,1:2:0:0:
406,321,125608,6,0,B|296:294|318:374|215:351,1,200,2|2,3:2|3:2,0:0:0:0:
0,224,126108,2,0,P|63:209|93:181,1,100,2|0,1:2|0:0,0:0:0:0:
184,40,126442,1,0,3:2:0:0:
255,277,126608,1,2,3:2:0:0:
297,16,126775,1,2,1:2:0:0:
204,168,126942,1,2,0:2:0:0:
398,97,127108,6,0,P|448:98|504:118,1,100,6|0,3:2|0:0,0:0:0:0:
259,247,127442,2,0,P|211:262|161:263,1,100,2|0,1:2|0:0,0:0:0:0:
227,49,127775,1,2,3:2:0:0:
331,303,127942,1,2,3:2:0:0:
396,15,128108,1,2,1:2:0:0:
132,133,128275,6,0,P|157:218|162:338,1,200,6|2,3:2|3:2,0:0:0:0:
386,238,128775,2,0,P|308:224|270:200,1,100,2|0,1:2|0:0,0:0:0:0:
58,369,129108,2,0,P|104:349|153:345,1,100,2|2,3:2|3:2,0:0:0:0:
358,374,129442,1,2,1:2:0:0:
139,205,129608,6,0,P|246:214|269:132,1,200,2|2,0:2|0:2,0:0:0:0:
187,31,130108,1,2,1:2:0:0:
390,109,130275,2,0,L|369:223,1,100,0|2,1:2|3:2,0:0:0:0:
263,343,130608,1,2,3:2:0:0:
263,343,130692,1,8,0:3:0:0:
263,343,130775,1,2,1:2:0:0:
187,152,130942,6,0,B|74:123|109:206|-5:173,1,200,2|2,3:2|3:2,0:0:0:0:
163,311,131442,1,2,1:2:0:0:
232,66,131608,1,2,3:2:0:0:
400,233,131775,1,2,3:2:0:0:
368,213,131858,1,0,3:2:0:0:
332,204,131942,1,0,3:2:0:0:
294,206,132025,1,0,1:2:0:0:
260,220,132108,2,0,P|208:238|190:237,1,50,2|8,1:2|0:3,0:0:0:0:
400,359,132275,2,0,P|348:340|330:341,1,50,4|4,0:3|0:3,0:0:0:0:
85,359,132442,6,0,P|138:361|180:335,1,100,6|0,3:2|0:0,0:0:0:0:
117,102,132775,2,0,P|102:171|98:281,1,150,10|0,1:2|0:0,0:0:0:0:
113,269,133108,1,2,3:2:0:0:
31,57,133275,1,2,3:2:0:0:
195,242,133442,1,2,1:2:0:0:
362,90,133608,6,0,P|262:98|223:3,1,200,6|2,3:2|3:2,0:0:0:0:
461,140,134108,2,0,L|451:245,1,100,2|0,1:2|0:0,0:0:0:0:
320,374,134442,1,2,3:2:0:0:
262,164,134608,1,2,3:2:0:0:
406,320,134775,1,2,1:2:0:0:
203,323,134942,6,0,B|314:283|286:363|397:331,1,200,2|0,0:2|0:0,0:0:0:0:
256,173,135442,2,0,P|185:166|153:142,1,100,2|0,1:2|0:0,0:0:0:0:
361,47,135775,1,2,3:2:0:0:
364,84,135858,1,0,3:2:0:0:
364,121,135942,1,0,3:2:0:0:
363,159,136025,1,0,3:2:0:0:
360,196,136108,1,2,1:2:0:0:
476,110,136275,1,0,0:0:0:0:
182,133,136442,6,0,P|246:152|282:145,1,100,6|0,3:2|0:0,0:0:0:0:
467,225,136775,2,0,P|417:220|371:238,1,100,2|0,1:2|0:0,0:0:0:0:
254,384,137108,1,6,3:2:0:0:
437,316,137275,1,0,3:2:0:0:
175,139,137442,2,0,L|181:254,1,100,2|0,1:2|0:0,0:0:0:0:
66,41,137775,6,0,B|183:8|142:91|262:58,1,200,6|0,3:2|1:2,0:0:0:0:
377,13,138275,1,8,0:3:0:0:
377,13,138358,1,0,0:0:0:0:
377,13,138442,1,0,3:2:0:0:
321,254,138608,1,0,3:2:0:0:
458,114,138775,2,0,P|387:136|332:131,1,100,0|0,1:2|0:0,0:0:0:0:
86,132,139108,5,6,3:2:0:0:
292,58,139275,1,2,0:2:0:0:
231,309,139442,1,2,1:2:0:0:
125,35,139608,2,0,P|117:84|107:246,1,200,6|2,3:2|3:2,0:0:0:0:
315,296,140108,2,0,P|257:229|241:225,1,100,2|2,1:2|0:2,0:0:0:0:
116,248,140442,5,6,3:2:0:0:
43,142,140608,1,2,0:2:0:0:
117,358,140775,1,2,1:2:0:0:
232,158,140942,2,0,B|303:164|303:164|352:198|352:198|420:204,1,200,6|2,3:2|3:2,0:0:0:0:
447,58,141442,1,2,1:2:0:0:
193,50,141608,6,0,P|208:134|216:262,1,200,2|2,3:2|3:2,0:0:0:0:
101,148,142108,1,2,1:2:0:0:
326,209,142275,2,0,P|318:262|317:324,1,100,2|0,3:2|0:0,0:0:0:0:
458,202,142608,1,2,3:2:0:0:
250,116,142775,1,2,1:2:0:0:
493,52,142942,1,2,3:2:0:0:
373,346,143108,5,2,3:2:0:0:
272,21,143275,1,2,3:2:0:0:
164,253,143442,1,2,1:2:0:0:
50,86,143608,2,0,B|168:58|128:130|241:112,1,200,2|2,3:2|3:2,0:0:0:0:
343,24,144108,1,2,1:2:0:0:
267,320,144275,6,0,P|255:222|232:118,1,200,2|2,3:2|3:2,0:0:0:0:
357,215,144775,1,2,1:2:0:0:
126,256,144942,2,0,P|211:245|263:342,1,200,2|2,3:2|3:2,0:0:0:0:
81,359,145442,1,2,1:2:0:0:
158,113,145608,1,2,3:2:0:0:
405,194,145775,6,0,P|300:186|283:357,1,300,6|0,1:2|0:0,0:0:0:0:
463,322,146442,2,0,B|296:283|329:437|137:367,1,300,2|0,1:2|0:0,0:0:0:0:
208,137,147108,2,0,P|281:191|140:274,1,300,6|0,1:2|0:0,0:0:0:0:
109,163,147775,2,0,L|118:55,1,100,2|0,1:2|0:0,0:0:0:0:
321,51,148108,1,0,1:2:0:0:
355,86,148192,1,0,1:2:0:0:
369,134,148275,1,2,1:2:0:0:
361,182,148358,1,0,1:2:0:0:
332,222,148442,6,0,P|316:263|316:312,1,80,2|2,0:2|0:2,0:0:0:0:
437,171,148775,2,0,P|453:211|453:260,1,80,2|2,0:2|0:2,0:0:0:0:
324,319,149108,2,0,L|205:300,1,120,2|0,0:2|0:0,0:0:0:0:
188,296,149442,2,0,P|185:256|169:219,1,80,2|2,1:2|0:2,0:0:0:0:
17,152,149775,6,0,P|73:167|141:91,1,160,6|2,3:2|0:2,0:0:0:0:
293,275,150275,6,0,P|237:290|169:214,1,165.000005035401,6|2,3:2|0:2,0:0:0:0:
0,372,150942,2,0,P|56:387|124:311,1,165.000005035401,6|2,3:2|0:2,0:0:0:0:
139,208,151608,1,8,0:3:0:0:
229,275,151775,2,0,L|300:258,1,55.0000016784668,2|8,0:2|0:3,0:0:0:0:
187,130,152108,2,0,L|116:113,1,55.0000016784668,2|2,3:2|3:2,0:0:0:0:
351,47,152442,6,0,L|339:219,1,160,6|2,3:2|0:2,0:0:0:0:
451,301,152942,6,0,L|439:136,1,165.000005035401,6|2,3:2|0:2,0:0:0:0:
362,38,153608,1,6,3:2:0:0:
120,161,153775,5,0,1:2:0:0:
164,177,153886,1,0,1:2:0:0:
214,179,153997,1,0,1:2:0:0:
293,210,154108,5,8,0:3:0:0:
337,191,154220,1,0,1:0:0:0:
388,190,154331,1,8,0:3:0:0:
458,240,154442,5,8,0:3:0:0:
452,287,154553,1,8,0:3:0:0:
427,332,154664,1,0,3:2:0:0:
349,367,154775,5,4,0:3:0:0:
311,339,154886,1,0,3:2:0:0:
285,295,154997,1,0,3:2:0:0:
282,205,155108,6,0,P|152:184|138:150,1,160,6|2,3:2|1:2,0:0:0:0:
121,90,155608,2,0,L|95:261,1,160,6|8,3:2|0:3,0:0:0:0:
226,142,156108,1,4,0:3:0:0:
44,168,156275,2,0,L|68:326,1,160,6|4,3:2|2:3,0:0:0:0:
263,335,156775,5,2,3:2:0:0:
292,154,156942,1,4,0:3:0:0:
258,348,157108,1,4,0:3:0:0:
214,188,157275,1,8,0:3:0:0:
253,361,157442,1,2,3:2:0:0:
160,253,157608,1,4,0:3:0:0:
402,249,157775,6,0,B|308:236|326:286|240:272,1,160,6|2,3:2|1:2,0:0:0:0:
133,174,158275,2,0,P|158:216|163:267,1,80,6|2,3:2|0:2,0:0:0:0:
113,333,158608,1,8,0:3:0:0:
60,249,158775,1,4,0:3:0:0:
121,166,158942,6,0,B|178:160|178:160|219:180|219:180|276:175,1,160,6|8,3:2|0:3,0:0:0:0:
447,157,159442,1,2,1:2:0:0:
313,16,159608,1,4,0:3:0:0:
351,266,159775,1,2,3:2:0:0:
394,82,159942,1,2,3:2:0:0:
441,305,160108,1,2,1:2:0:0:
350,162,160275,1,2,1:2:0:0:
342,356,160442,6,0,P|260:327|201:374,1,160,6|0,3:2|0:0,0:0:0:0:
119,304,160942,1,0,3:2:0:0:
229,211,161108,2,0,L|215:303,1,80,2|2,1:2|0:2,0:0:0:0:
113,203,161442,1,2,1:2:0:0:
113,203,161525,1,0,1:2:0:0:
113,203,161608,6,0,L|106:122,1,80,6|0,3:2|0:0,0:0:0:0:
209,35,161942,2,0,L|202:114,1,80,2|0,1:2|3:2,0:0:0:0:
121,42,162275,1,2,0:2:0:0:
281,91,162442,2,0,L|287:170,1,80,0|0,1:2|0:0,0:0:0:0:
207,204,162775,1,2,3:2:0:0:
207,204,162942,1,2,1:2:0:0:
291,274,163108,6,0,L|381:255,1,80,6|0,3:2|0:0,0:0:0:0:
310,370,163442,2,0,L|220:351,1,80,2|0,3:2|3:2,0:0:0:0:
191,232,163775,1,2,1:2:0:0:
95,311,163942,1,2,0:2:0:0:
203,244,164108,1,2,3:2:0:0:
41,162,164275,6,0,P|87:206|91:322,1,160,6|2,3:2|1:2,0:0:0:0:
162,174,164775,2,0,P|166:131|179:90,1,80,2|0,3:2|3:2,0:0:0:0:
266,231,165108,2,0,P|262:188|249:147,1,80,2|0,1:2|3:2,0:0:0:0:
340,175,165442,2,0,P|344:132|357:91,1,80,2|0,3:2|1:2,0:0:0:0:
113,62,165775,6,0,B|202:35|177:97|271:70,1,160,6|0,3:2|3:2,0:0:0:0:
347,4,166275,1,2,3:2:0:0:
424,166,166442,1,2,1:2:0:0:
350,101,166608,1,2,0:2:0:0:
361,240,166775,1,2,3:2:0:0:
206,192,166942,6,0,P|245:189|284:179,1,80,6|0,3:2|0:0,0:0:0:0:
261,283,167275,1,2,1:2:0:0:
197,185,167442,1,0,3:2:0:0:
167,310,167608,1,2,3:2:0:0:
116,134,167775,2,0,P|103:171|107:232,1,80,0|2,1:2|0:2,0:0:0:0:
164,317,168108,1,0,3:2:0:0:
206,192,168275,1,0,1:2:0:0:
295,358,168442,6,0,P|301:282|413:336,1,240,6|0,3:2|3:2,0:0:0:0:
456,221,169108,2,0,P|395:236|319:163,1,160,2|2,1:2|1:2,0:0:0:0:
282,86,169608,2,0,P|281:158|262:274,1,160,2|2,3:2|1:2,0:0:0:0:
186,133,170108,2,0,P|182:78|171:36,1,80,0|0,3:2|0:0,0:0:0:0:
115,200,170442,5,2,1:2:0:0:
102,227,170525,1,2,3:2:0:0:
105,256,170608,1,0,1:2:0:0:
121,281,170692,1,0,1:2:0:0:
147,294,170775,1,2,1:2:0:0:
177,293,170858,1,0,1:2:0:0:
202,278,170942,1,0,1:2:0:0:
218,253,171025,1,0,1:2:0:0:
221,225,171108,6,0,P|276:246|349:233,1,120,6|0,3:2|0:0,0:0:0:0:
376,216,171442,2,0,P|419:214|473:235,1,80,2|2,1:2|0:2,0:0:0:0:
296,368,171775,2,0,L|281:268,1,80,2|0,3:2|3:2,0:0:0:0:
227,128,172108,2,0,L|215:207,1,80,2|0,1:2|0:0,0:0:0:0:
232,368,172442,6,0,P|199:326|158:316,1,80,2|0,3:2|0:0,0:0:0:0:
189,237,172775,2,0,P|136:244|106:275,1,80,2|0,1:2|0:0,0:0:0:0:
25,221,173108,2,0,P|58:179|99:169,1,80,2|2,3:2|0:2,0:0:0:0:
68,90,173442,2,0,P|120:97|150:128,1,80,2|2,1:2|0:2,0:0:0:0:
251,69,173775,6,0,P|236:132|228:209,1,120,6|0,3:2|0:0,0:0:0:0:
244,198,174108,2,0,P|306:189|349:201,1,80,2|0,1:2|0:0,0:0:0:0:
421,118,174442,2,0,P|359:109|316:121,1,80,2|0,3:2|0:0,0:0:0:0:
414,216,174775,2,0,P|476:207|519:219,1,80,2|0,1:2|0:0,0:0:0:0:
283,297,175108,6,0,P|253:238|253:204,1,80,2|0,3:2|0:0,0:0:0:0:
377,315,175442,2,0,P|340:370|311:387,1,80,2|0,1:2|0:0,0:0:0:0:
346,225,175775,2,0,P|412:228|441:245,1,80,2|0,3:2|0:0,0:0:0:0:
186,333,176108,1,2,1:2:0:0:
180,295,176192,1,2,3:2:0:0:
175,257,176275,1,0,1:2:0:0:
170,220,176358,1,0,1:2:0:0:
164,182,176442,6,0,P|88:175|62:119,1,120,6|0,3:2|0:0,0:0:0:0:
30,108,176775,2,0,P|40:58|42:12,1,80,2|0,1:2|0:0,0:0:0:0:
103,266,177108,2,0,P|93:216|91:170,1,80,2|0,3:2|0:0,0:0:0:0:
207,120,177442,2,0,P|217:70|219:24,1,80,2|0,1:2|0:0,0:0:0:0:
366,175,177775,6,0,P|314:190|274:238,1,80,2|0,3:2|0:0,0:0:0:0:
486,222,178108,2,0,P|498:167|477:109,1,80,2|0,1:2|0:0,0:0:0:0:
382,309,178442,2,0,P|421:346|481:358,1,80,2|0,3:2|0:0,0:0:0:0:
421,114,178775,2,0,P|380:151|320:163,1,80,2|2,1:2|0:2,0:0:0:0:
81,97,179108,6,0,L|181:61,1,80,6|0,3:2|0:0,0:0:0:0:
290,237,179442,2,0,L|190:201,1,80,2|0,1:2|0:0,0:0:0:0:
103,304,179775,1,2,3:2:0:0:
43,113,179942,1,0,0:0:0:0:
33,372,180108,1,2,1:2:0:0:
119,213,180275,1,0,0:0:0:0:
256,366,180442,6,0,P|255:303|268:268,1,80,6|0,3:2|0:0,0:0:0:0:
351,69,180775,2,0,P|358:108|354:147,1,80,0|0,1:2|0:0,0:0:0:0:
266,294,181108,1,2,3:2:0:0:
139,71,181275,1,0,0:0:0:0:
116,261,181442,1,0,1:2:0:0:
131,224,181525,1,2,3:2:0:0:
161,198,181608,1,0,1:2:0:0:
199,186,181692,1,0,1:2:0:0:
238,192,181775,5,6,3:2:0:0:
256,192,181858,12,0,184275,0:0:0:0:
344,44,184442,5,6,1:2:0:0:
263,356,184608,1,6,1:2:0:0:
263,356,185275,2,0,P|261:316|248:271,1,80,6|0,1:2|0:0,0:0:0:0:
54,90,185608,2,0,P|89:108|135:119,1,80,6|0,1:2|0:0,0:0:0:0:
417,123,185942,1,6,1:2:0:0:
238,14,186108,2,0,P|219:49|208:95,1,80,6|0,1:2|0:0,0:0:0:0:
151,275,186442,6,0,P|198:261|257:284,1,100,0|0,0:0|0:0,0:0:0:0:
245,275,187108,1,6,0:2:0:0:
194,333,195108,5,2,0:2:0:0:
252,252,195442,1,0,0:0:0:0:
177,180,195775,2,0,P|130:191|88:85,1,175,2|0,0:2|0:0,0:0:0:0:
89,81,196442,6,0,B|137:224|42:174|92:342,1,244.999992523194,2|0,0:2|0:0,0:0:0:0:
99,330,197108,6,0,L|173:318,1,69.9999978637696,2|0,0:2|0:0,0:0:0:0:
230,240,197442,2,0,L|299:251,1,69.9999978637696,0|0,0:0|0:0,0:0:0:0:
328,377,197775,6,0,P|298:310|319:227,1,139.999995727539,2|2,0:2|0:2,0:0:0:0:
370,170,198275,1,0,0:0:0:0:
416,265,198442,2,0,L|510:283,2,69.9999978637696,0|0|0,0:0|0:0|0:0,0:0:0:0:
286,170,198942,6,0,B|214:157|224:213|148:192,1,139.999995727539,0|0,0:0|0:0,0:0:0:0:
81,246,199442,2,0,P|76:210|64:167,1,69.9999978637696,2|0,0:2|0:0,0:0:0:0:
124,112,199775,2,0,P|129:76|141:33,2,69.9999978637696,0|0|2,0:0|0:0|0:2,0:0:0:0:
321,75,200275,6,0,P|240:66|222:135,1,139.999995727539,0|0,0:0|0:0,0:0:0:0:
272,229,200775,2,0,P|282:195|285:160,1,69.9999978637696,2|0,0:2|0:0,0:0:0:0:
369,278,201108,2,0,P|359:244|356:209,1,69.9999978637696,0|0,0:0|0:0,0:0:0:0:
456,338,201442,2,0,P|465:304|468:269,1,69.9999978637696,2|0,0:2|0:0,0:0:0:0:
318,333,201775,6,0,L|136:358,1,179.999994506836,6|2,3:2|0:2,0:0:0:0:
484,250,202442,2,0,L|302:225,1,179.999994506836,6|2,3:2|0:2,0:0:0:0:
133,105,203108,6,0,B|180:152|180:152|154:281,1,179.999994506836,6|0,3:2|0:0,0:0:0:0:
103,383,203608,1,2,3:2:0:0:
329,237,203775,2,0,B|240:213|251:287|154:262,1,179.999994506836,0|2,1:2|0:2,0:0:0:0:
111,109,204275,1,0,3:2:0:0:
299,64,204442,5,6,3:2:0:0:
330,95,204525,1,2,3:2:0:0:
349,135,204608,1,2,3:2:0:0:
352,180,204692,1,2,3:2:0:0:
339,223,204775,1,2,1:2:0:0:
203,302,204942,2,0,P|298:305|339:386,1,179.999994506836,6|2,3:2|3:2,0:0:0:0:
352,180,205442,1,2,1:2:0:0:
253,380,205608,1,2,0:2:0:0:
94,197,205775,6,0,P|151:210|197:200,1,89.9999972534181,6|2,3:2|3:2,0:0:0:0:
291,70,206108,1,2,1:2:0:0:
421,295,206275,2,0,P|376:291|333:303,1,89.9999972534181,2|0,3:2|0:0,0:0:0:0:
237,133,206608,2,0,P|262:169|273:213,1,89.9999972534181,2|2,3:2|1:2,0:0:0:0:
108,369,206942,6,0,P|93:278|84:162,1,179.999994506836,2|2,3:2|3:2,0:0:0:0:
171,31,207442,1,2,1:2:0:0:
353,232,207608,2,0,L|262:219,1,89.9999972534181,2|0,3:2|0:0,0:0:0:0:
81,78,207942,1,2,3:2:0:0:
38,300,208108,1,2,1:2:0:0:
171,145,208275,1,2,0:2:0:0:
230,376,208442,6,0,P|218:332|220:287,1,89.9999972534181,2|2,3:2|0:2,0:0:0:0:
304,142,208775,1,2,1:2:0:0:
388,335,208942,2,0,P|399:291|398:246,1,89.9999972534181,2|0,3:2|0:0,0:0:0:0:
298,131,209275,1,2,3:2:0:0:
226,298,209442,1,2,1:2:0:0:
121,96,209608,6,0,B|231:71|189:137|293:119,1,179.999994506836,2|2,3:2|3:2,0:0:0:0:
413,21,210108,1,2,1:2:0:0:
209,78,210275,2,0,P|206:120|231:198,1,89.9999972534181,2|0,3:2|0:0,0:0:0:0:
367,309,210608,1,2,3:2:0:0:
159,230,210775,1,2,1:2:0:0:
311,144,210942,1,2,0:2:0:0:
221,359,211108,6,0,L|216:293,1,44.999998626709,6|0,3:2|0:0,0:0:0:0:
74,197,211275,5,2,0:2:0:0:
72,219,211358,1,2,0:2:0:0:
70,241,211442,2,0,L|64:304,1,44.999998626709,2|0,1:2|0:0,0:0:0:0:
316,209,211608,5,2,3:2:0:0:
313,182,211692,1,2,0:2:0:0:
312,156,211775,2,0,L|306:100,1,44.999998626709,2|0,0:2|0:0,0:0:0:0:
170,34,211942,5,2,3:2:0:0:
167,74,212025,1,2,0:0:0:0:
165,109,212108,2,0,L|159:165,1,44.999998626709,2|0,1:2|0:0,0:0:0:0:
351,373,212275,2,0,L|358:321,1,44.999998626709,2|0,0:2|0:0,0:0:0:0:
491,215,212442,5,0,3:2:0:0:
449,187,212525,1,0,1:2:0:0:
400,180,212608,1,8,0:3:0:0:
353,194,212692,1,4,0:3:0:0:
316,226,212775,1,2,1:2:0:0:
277,256,212858,1,0,1:2:0:0:
231,271,212942,1,8,0:3:0:0:
181,263,213025,1,4,0:3:0:0:
141,237,213108,6,0,L|129:149,1,44.999998626709,2|0,1:2|1:2,0:0:0:0:
351,11,213275,2,0,L|344:55,1,44.999998626709,0|0,1:2|1:2,0:0:0:0:
106,44,213442,2,0,L|94:-44,1,44.999998626709,2|0,1:2|1:2,0:0:0:0:
323,181,213608,2,0,L|316:225,1,44.999998626709,0|0,1:2|1:2,0:0:0:0:
70,295,213775,6,0,P|102:306|127:348,1,75,2|0,0:2|0:0,0:0:0:0:
128,351,214108,6,0,L|149:221,1,119.999996337891,14|0,1:2|0:0,0:0:0:0:
178,32,214442,1,2,3:2:0:0:
263,293,214608,1,2,3:2:0:0:
55,116,214775,1,2,1:2:0:0:
392,76,214942,6,0,B|252:49|284:149|163:113,1,239.999992675781,2|2,3:2|3:2,0:0:0:0:
376,282,215442,2,0,P|367:197|353:155,1,119.999996337891,2|0,1:2|0:0,0:0:0:0:
182,289,215775,1,2,3:2:0:0:
277,129,215942,1,2,3:2:0:0:
327,348,216108,1,2,1:2:0:0:
144,130,216275,6,0,P|164:248|171:367,1,239.999992675781,2|0,0:2|0:0,0:0:0:0:
39,163,216775,2,0,P|42:103|58:45,1,119.999996337891,2|0,1:2|0:0,0:0:0:0:
247,161,217108,1,2,3:2:0:0:
68,254,217275,1,2,3:2:0:0:
253,172,217442,1,2,1:2:0:0:
74,31,217608,6,0,B|161:23|161:23|209:55|209:55|303:46,1,239.999992675781,2|2,3:2|3:2,0:0:0:0:
454,87,218108,2,0,P|391:125|377:185,1,119.999996337891,2|0,1:2|0:0,0:0:0:0:
384,358,218442,1,0,3:2:0:0:
487,195,218608,1,2,3:2:0:0:
487,195,218692,1,0,3:2:0:0:
487,195,218775,1,2,1:2:0:0:
275,297,218942,1,2,3:2:0:0:
381,27,219108,6,0,L|524:-4,1,119.999996337891,6|0,3:2|0:0,0:0:0:0:
401,313,219442,2,0,L|283:287,1,119.999996337891,2|0,1:2|0:0,0:0:0:0:
152,69,219775,1,2,3:2:0:0:
81,348,219942,2,0,P|73:261|29:210,1,119.999996337891,2|0,3:2|1:2,0:0:0:0:
266,215,220275,6,0,P|126:274|25:209,1,239.999992675781,6|2,3:2|3:2,0:0:0:0:
292,88,220775,1,2,1:2:0:0:
382,363,220942,1,0,0:0:0:0:
460,204,221108,1,2,3:2:0:0:
191,147,221275,1,2,3:2:0:0:
461,74,221442,1,2,1:2:0:0:
296,339,221608,6,0,P|292:208|272:83,1,239.999992675781,2|2,0:2|0:2,0:0:0:0:
248,60,222025,1,0,3:0:0:0:
248,60,222108,1,2,1:2:0:0:
62,260,222275,2,0,P|124:263|182:224,1,119.999996337891,2|2,1:2|3:2,0:0:0:0:
410,358,222608,1,2,3:2:0:0:
410,358,222692,1,0,3:0:0:0:
410,358,222775,1,2,1:2:0:0:
349,91,222942,6,0,P|331:198|326:351,1,239.999992675781,2|2,3:2|3:2,0:0:0:0:
496,138,223442,2,0,P|493:73|474:5,1,119.999996337891,2|2,1:2|3:2,0:0:0:0:
161,33,223775,1,8,0:3:0:0:
163,91,223858,1,8,0:3:0:0:
203,134,223942,1,0,3:2:0:0:
261,139,224025,1,0,1:2:0:0:
304,101,224108,2,0,P|315:76|321:35,1,59.9999981689454,2|0,1:2|1:2,0:0:0:0:
164,289,224275,2,0,P|169:318|180:346,1,59.9999981689454,8|4,0:3|0:3,0:0:0:0:
394,255,224442,6,0,L|244:240,1,119.999996337891,6|0,3:2|0:0,0:0:0:0:
16,262,224775,2,0,P|89:243|125:123,1,179.999994506836,10|0,1:2|0:0,0:0:0:0:
121,133,225108,1,2,3:2:0:0:
194,350,225275,1,2,3:2:0:0:
265,38,225442,1,2,1:2:0:0:
323,299,225608,6,0,P|361:183|466:183,1,239.999992675781,6|2,3:2|3:2,0:0:0:0:
155,384,226108,2,0,P|145:325|121:266,1,119.999996337891,2|0,1:2|0:0,0:0:0:0:
0,122,226442,1,2,3:2:0:0:
255,236,226608,1,2,3:2:0:0:
33,311,226775,1,2,1:2:0:0:
194,128,226942,6,0,B|330:88|290:189|423:153,1,239.999992675781,2|0,0:2|0:0,0:0:0:0:
275,343,227442,2,0,P|263:271|243:224,1,119.999996337891,2|0,1:2|0:0,0:0:0:0:
0,150,227775,1,2,3:2:0:0:
40,131,227858,1,0,3:2:0:0:
85,132,227942,1,0,3:2:0:0:
124,153,228025,1,0,3:2:0:0:
149,189,228108,2,0,P|153:222|148:251,1,59.9999981689454,2|0,1:2|0:0,0:0:0:0:
272,359,228275,1,0,0:0:0:0:
464,116,228442,6,0,P|422:158|354:160,1,119.999996337891,6|0,3:2|0:0,0:0:0:0:
89,41,228775,2,0,P|147:46|189:88,1,119.999996337891,2|0,1:2|0:0,0:0:0:0:
230,361,229108,1,6,3:2:0:0:
106,128,229275,1,0,3:2:0:0:
374,172,229442,2,0,L|361:315,1,119.999996337891,2|0,1:2|0:0,0:0:0:0:
53,43,229775,6,0,P|106:68|165:60,1,119.999996337891,6|0,3:2|0:0,0:0:0:0:
499,167,230108,2,0,P|440:159|386:184,1,119.999996337891,0|8,1:2|0:3,0:0:0:0:
358,233,230358,1,0,0:0:0:0:
358,233,230442,1,0,3:2:0:0:
157,69,230608,1,0,3:2:0:0:
145,365,230775,1,0,1:2:0:0:
277,32,230942,1,0,3:2:0:0:
332,350,231108,5,6,3:2:0:0:
94,211,231275,1,2,0:2:0:0:
387,135,231442,1,2,1:2:0:0:
152,274,231608,2,0,B|277:235|254:339|381:288,1,239.999992675781,6|2,3:2|3:2,0:0:0:0:
470,100,232108,1,2,1:2:0:0:
470,100,232192,1,2,1:2:0:0:
470,100,232275,1,2,0:2:0:0:
102,153,232442,5,6,3:2:0:0:
389,304,232608,1,2,0:2:0:0:
287,34,232775,1,2,1:2:0:0:
215,373,232942,2,0,P|214:259|169:93,1,239.999992675781,2|2,3:2|3:2,0:0:0:0:
46,305,233442,1,2,1:2:0:0:
365,218,233608,6,0,B|233:195|260:290|132:254,1,239.999992675781,2|2,3:2|3:2,0:0:0:0:
53,88,234108,1,2,1:2:0:0:
240,199,234275,1,2,3:2:0:0:
57,352,234442,2,0,P|34:219|34:218,1,119.999996337891,0|2,0:0|3:2,0:0:0:0:
183,37,234775,2,0,P|176:96|160:154,1,119.999996337891,2|2,1:2|3:2,0:0:0:0:
386,200,235108,6,0,P|242:213|247:344,1,300,6|0,1:2|0:0,0:0:0:0:
36,256,235775,2,0,B|151:244|151:244|224:289|224:289|322:277,1,300,0|0,1:2|0:0,0:0:0:0:
371,102,236442,6,0,B|305:172|305:172|346:390,1,300,6|0,1:2|0:0,0:0:0:0:
440,177,237108,2,0,L|422:296,1,100,0|0,1:2|0:0,0:0:0:0:
209,354,237442,1,0,1:2:0:0:
215,305,237525,1,0,1:2:0:0:
220,259,237608,1,2,1:2:0:0:
225,212,237692,1,0,1:2:0:0:
230,165,237775,6,0,L|147:182,1,80,2|2,0:2|0:2,0:0:0:0:
296,250,238108,2,0,L|379:267,1,80,2|2,0:2|0:2,0:0:0:0:
506,138,238442,2,0,P|465:184|472:266,1,120,2|0,0:2|0:0,0:0:0:0:
462,252,238775,2,0,P|439:207|406:185,1,80,2|2,1:2|0:2,0:0:0:0:
208,134,239108,6,0,P|276:132|318:108,1,80,6|2,3:2|0:2,0:0:0:0:
370,271,239442,2,0,P|331:261|291:265,1,80,0|2,1:2|0:2,0:0:0:0:
169,346,239775,1,8,0:3:0:0:
117,133,239942,2,0,P|147:195|149:228,1,80,2|2,3:2|0:2,0:0:0:0:
24,330,240275,6,0,B|119:312|82:371|177:352,1,160,6|2,3:2|3:2,0:0:0:0:
274,273,240775,1,2,3:2:0:0:
148,216,240942,1,8,0:3:0:0:
239,65,241108,5,2,3:2:0:0:
244,104,241220,1,8,0:3:0:0:
249,144,241331,1,8,0:3:0:0:
294,216,241442,5,2,3:2:0:0:
288,255,241553,1,0,1:2:0:0:
283,295,241664,1,0,0:0:0:0:
246,371,241775,6,0,B|300:366|300:366|340:388|340:388|399:384,1,160,6|2,3:2|1:2,0:0:0:0:
481,149,242275,1,2,1:2:0:0:
367,297,242442,1,2,3:2:0:0:
353,47,242608,1,2,1:2:0:0:
368,72,242692,1,0,1:2:0:0:
379,100,242775,1,8,0:3:0:0:
385,130,242858,1,8,0:3:0:0:
385,159,242942,2,0,L|375:233,1,40,4|4,0:3|0:3,0:0:0:0:
254,258,243108,6,0,P|178:249|136:347,1,160,6|8,3:2|0:3,0:0:0:0:
337,336,243608,1,8,0:3:0:0:
301,128,243775,5,2,1:2:0:0:
261,127,243886,1,2,1:2:0:0:
224,142,243997,1,0,1:2:0:0:
142,105,244108,5,2,3:2:0:0:
102,105,244220,1,8,0:3:0:0:
65,90,244331,1,4,0:3:0:0:
28,21,244442,6,0,L|17:224,1,160,6|0,3:2|1:2,0:0:0:0:
73,274,244942,1,6,3:2:0:0:
256,192,245025,12,0,249108,0:0:0:0:
371,141,249275,5,0,1:0:0:0:
375,160,249358,1,0,3:0:0:0:
379,180,249442,1,0,3:0:0:0:
381,199,249525,1,0,3:0:0:0:
382,219,249608,1,0,3:2:0:0:
