osu file format v14

[General]
AudioFilename: audio.mp3
AudioLeadIn: 0
PreviewTime: 121025
Countdown: 0
SampleSet: Soft
StackLeniency: 0.5
Mode: 0
LetterboxInBreaks: 0
WidescreenStoryboard: 1

[Editor]
Bookmarks: 160442,187108,197775,244442
DistanceSpacing: 0.6
BeatDivisor: 4
GridSize: 16
TimelineZoom: 1.7

[Metadata]
Title:EXTRA MAGIC HOUR
TitleUnicode:エクストラ・マジック・アワー
Artist:AKINO with bless4
ArtistUnicode:AKINO with bless4
Creator:Xayah
Version:Rizen's Insane
Source:甘城ブリリアントパーク
Tags:Rizen Asuka Asuka_- Linada Amagi Brilliant Park anime japanese lit120 -Hakurei- DakiniBrave
BeatmapID:2027198
BeatmapSetID:956309

[Difficulty]
HPDrainRate:6
CircleSize:4.5
OverallDifficulty:8
ApproachRate:9
SliderMultiplier:1.7
SliderTickRate:1

[Events]
//Background and Video events
0,0,"raizen.jpg",0,0
//Break Periods
2,187108,196442
//Storyboard Layer 0 (Background)
//Storyboard Layer 1 (Fail)
//Storyboard Layer 2 (Pass)
//Storyboard Layer 3 (Foreground)
//Storyboard Layer 4 (Overlay)
//Storyboard Sound Samples

[TimingPoints]
7109,333.333333333333,4,2,1,60,1,0
8775,-303.030303030303,4,2,1,60,0,0
9775,-113.636363636364,4,2,1,60,0,0
9969,-113.636363636364,4,2,1,60,0,0
11109,333.333333333333,4,2,1,60,1,0
11109,-83.3333333333333,4,2,1,60,0,0
21775,-125,4,2,1,60,0,0
32442,-100,4,2,1,60,0,0
43108,-125,4,2,1,60,0,0
48442,-100,4,2,1,60,0,0
53775,-200,4,2,1,60,0,0
54108,-66.6666666666667,4,2,1,60,0,0
54442,-83.3333333333333,4,2,1,60,0,0
64442,-200,4,2,1,60,0,0
64775,-66.6666666666667,4,2,1,60,0,0
65108,-83.3333333333333,4,2,1,60,0,0
78442,-125,4,2,1,60,0,0
79108,-100,4,2,1,60,0,0
79775,-200,4,2,1,60,0,0
81775,-83.3333333333333,4,2,1,60,0,0
89775,-125,4,2,1,60,0,0
100442,-100,4,2,1,60,0,0
111108,-125,4,2,1,60,0,0
116442,-100,4,2,1,60,0,0
121775,-200,4,2,1,60,0,0
122108,-66.6666666666667,4,2,1,60,0,0
122442,-83.3333333333333,4,2,1,60,0,0
132442,-200,4,2,1,60,0,0
132775,-66.6666666666667,4,2,1,60,0,0
133108,-83.3333333333333,4,2,1,60,0,0
146442,-125,4,2,1,60,0,0
147108,-100,4,2,1,60,0,0
147775,-200,4,2,1,60,0,0
149775,-100,4,2,1,60,0,0
150275,-113.636363636364,4,2,1,60,0,0
150942,-200,4,2,1,60,0,0
152442,-100,4,2,1,60,0,0
152942,-113.636363636364,4,2,1,60,0,0
153608,-151.515151515152,4,2,1,60,0,0
155108,-100,4,2,1,60,0,0
155608,-113.636363636364,4,2,1,60,0,0
156275,-151.515151515152,4,2,1,60,0,0
157775,-100,4,2,1,60,0,0
158275,-113.636363636364,4,2,1,60,0,0
158942,-151.515151515152,4,2,1,60,0,0
160442,-100,4,2,1,60,0,0
171108,-90.9090909090909,4,2,1,60,0,0
181775,-200,4,2,1,60,0,0
184442,-100,4,2,1,60,0,0
197775,-151.515151515152,4,2,1,60,0,0
202108,-303.030303030303,4,2,1,60,0,0
202442,-151.515151515152,4,2,1,60,0,0
202775,-303.030303030303,4,2,1,60,0,0
203108,-113.636363636364,4,2,1,60,0,0
205775,-100,4,2,1,60,0,0
213775,-151.515151515152,4,2,1,60,0,0
214108,-66.6666666666667,4,2,1,60,0,0
214442,-83.3333333333333,4,2,1,60,0,0
224442,-200,4,2,1,60,0,0
224775,-66.6666666666667,4,2,1,60,0,0
225108,-83.3333333333333,4,2,1,60,0,0
235775,-125,4,2,1,60,0,0
236442,-100,4,2,1,60,0,0
237108,-200,4,2,1,60,0,0
239108,-83.3333333333333,4,2,1,60,0,0
244942,-169.491525423729,4,2,1,60,0,0

[Colours]
Combo1 : 227,28,28
Combo2 : 36,203,217
Combo3 : 61,211,136
Combo4 : 205,143,61

[HitObjects]
124,305,7108,5,2,3:2:0:0:
216,153,7275,2,0,P|228:193|224:235,1,85,8|4,0:3|0:3,0:0:0:0:
124,305,7608,1,2,3:2:0:0:
44,232,7775,2,0,P|46:150|116:109,1,170,2|4,3:2|0:3,0:0:0:0:
215,153,8275,2,0,P|173:153|135:135,1,85,6|0,3:2|0:0,0:0:0:0:
194,66,8608,1,2,1:2:0:0:
290,231,8775,6,0,B|302:120|302:120|290:94,1,140.249999571991,6|0,3:2|0:0,0:0:0:0:
134,134,9775,5,0,1:2:0:0:
170,150,9858,1,0,1:2:0:0:
213,153,9942,1,8,0:3:0:0:
290,94,10108,1,0,3:2:0:0:
242,239,10275,1,0,1:2:0:0:
199,242,10358,1,0,1:2:0:0:
163,258,10442,1,0,1:2:0:0:
138,290,10525,1,4,0:3:0:0:
127,331,10608,2,0,L|129:368,1,37.4000011413575,8|0,0:3|0:0,0:0:0:0:
63,254,10775,2,0,L|25:251,1,37.4000011413575,4|0,0:3|0:0,0:0:0:0:
215,325,10942,2,0,L|252:322,1,37.4000011413575,0|0,1:2|0:0,0:0:0:0:
363,230,11108,5,6,3:2:0:0:
410,371,11275,1,2,0:2:0:0:
503,264,11442,2,0,P|508:213|488:167,1,101.999996887207,10|2,1:2|0:2,0:0:0:0:
402,100,11775,1,2,3:2:0:0:
363,230,11942,2,0,L|464:221,1,101.999996887207,2|0,0:2|1:2,0:0:0:0:
402,100,12275,1,2,0:2:0:0:
289,162,12442,6,0,B|283:90|283:90|291:61,1,101.999996887207,2|2,3:2|0:2,0:0:0:0:
193,19,12775,2,0,B|199:91|199:91|190:119,1,101.999996887207,2|2,1:2|0:2,0:0:0:0:
23,105,13108,1,2,1:2:0:0:
59,101,13192,1,2,0:2:0:0:
90,114,13275,1,2,1:2:0:0:
108,142,13358,1,2,1:2:0:0:
114,181,13442,2,0,L|106:231,2,50.9999984436036,2|2|2,1:2|0:2|1:2,0:0:0:0:
13,224,13692,2,0,L|20:274,1,50.9999984436036,2|2,1:2|3:2,0:0:0:0:
147,349,13942,5,2,0:2:0:0:
253,270,14108,2,0,P|303:266|352:279,1,101.999996887207,2|2,1:2|0:2,0:0:0:0:
486,329,14442,1,2,3:2:0:0:
455,183,14608,2,0,P|405:179|356:192,1,101.999996887207,2|0,0:2|1:2,0:0:0:0:
253,270,14942,1,2,0:2:0:0:
253,270,15025,1,2,0:2:0:0:
253,270,15108,6,0,L|262:168,1,101.999996887207,2|2,3:2|0:2,0:0:0:0:
326,26,15442,1,2,1:2:0:0:
223,66,15608,2,0,P|173:70|124:57,1,101.999996887207,2|2,0:2|3:2,0:0:0:0:
0,161,15942,2,0,P|49:147|99:151,1,101.999996887207,8|2,0:3|1:2,0:0:0:0:
230,76,16275,2,0,P|180:80|131:67,1,101.999996887207,2|0,0:2|3:2,0:0:0:0:
5,177,16608,5,2,0:2:0:0:
49,45,16775,1,2,1:2:0:0:
138,154,16942,1,2,0:2:0:0:
91,285,17108,2,0,P|139:269|189:272,1,101.999996887207,2|2,3:2|0:2,0:0:0:0:
319,341,17442,1,0,1:2:0:0:
342,186,17608,1,2,0:2:0:0:
246,223,17775,6,0,L|144:213,1,101.999996887207,2|2,3:2|0:2,0:0:0:0:
328,329,18108,2,0,L|429:319,1,101.999996887207,2|2,1:2|0:2,0:0:0:0:
478,201,18442,1,2,3:2:0:0:
430,183,18525,1,2,0:2:0:0:
389,192,18608,1,2,0:2:0:0:
342,186,18692,1,2,0:2:0:0:
309,157,18775,2,0,P|300:133|299:107,1,50.9999984436036,2|2,1:2|0:2,0:0:0:0:
347,44,18942,2,0,P|355:19|370:0,1,50.9999984436036,2|2,0:2|0:2,0:0:0:0:
380,115,19108,6,0,B|261:163|292:89|181:119,1,203.999993774414,2|0,1:2|3:2,0:0:0:0:
51,248,19608,6,0,B|170:295|139:221|249:251,1,203.999993774414,2|0,1:2|0:0,0:0:0:0:
98,81,20108,2,0,P|92:131|111:177,1,101.999996887207,2|0,1:2|0:0,0:0:0:0:
204,330,20442,5,2,1:2:0:0:
51,248,20608,1,2,1:2:0:0:
51,248,20942,1,0,1:2:0:0:
231,235,21108,2,0,L|281:240,1,50.9999984436036,0|8,1:2|0:3,0:0:0:0:
247,226,21275,2,0,L|297:231,1,50.9999984436036,0|0,3:2|0:0,0:0:0:0:
393,292,21442,2,0,L|443:286,1,50.9999984436036,0|0,1:2|1:2,0:0:0:0:
377,283,21608,2,0,L|427:277,1,50.9999984436036,0|0,1:2|1:2,0:0:0:0:
489,133,21775,6,0,P|423:131|379:181,1,136,6|2,3:2|3:2,0:0:0:0:
293,137,22275,2,0,B|257:114|245:78|272:39|272:39|292:48,1,136,2|2,0:2|0:2,0:0:0:0:
166,93,22775,2,0,L|30:85,1,136,2|0,3:2|3:2,0:0:0:0:
75,270,23442,2,0,L|67:337,1,68,2|0,3:2|0:0,0:0:0:0:
200,250,23775,2,0,L|207:317,1,68,2|0,3:2|0:0,0:0:0:0:
65,182,24108,2,0,L|57:249,1,68,2|0,3:2|0:0,0:0:0:0:
185,223,24442,6,0,P|118:221|64:181,1,136,2|0,3:2|3:2,0:0:0:0:
99,91,24942,2,0,B|213:80|213:80|194:68,1,136,2|0,0:2|0:0,0:0:0:0:
287,137,25442,2,0,P|307:73|283:11,2,136,0|2|0,3:2|3:2|3:2,0:0:0:0:
194,68,26442,1,2,3:2:0:0:
283,10,26775,1,0,3:2:0:0:
463,56,27108,6,0,B|478:156|478:156|465:188,1,136,2|2,3:2|3:2,0:0:0:0:
359,245,27608,2,0,P|341:183|391:143,1,136,2|2,0:2|0:2,0:0:0:0:
504,203,28108,2,0,L|436:212,1,68,2|0,3:2|0:0,0:0:0:0:
334,261,28442,2,0,B|359:245|359:245|346:350,1,136,2|2,3:2|3:2,0:0:0:0:
248,234,28942,2,0,B|223:218|223:218|235:323,1,136,0|0,0:0|0:0,0:0:0:0:
162,156,29442,2,0,P|191:138|224:133,1,68,2|0,3:2|0:0,0:0:0:0:
322,168,29775,5,2,3:2:0:0:
312,159,30108,2,0,L|308:260,1,102,0|0,3:2|0:0,0:0:0:0:
318,269,30442,2,0,L|321:167,1,102,2|0,3:2|0:0,0:0:0:0:
330,176,30775,2,0,L|326:277,1,102,0|0,3:2|0:0,0:0:0:0:
264,347,31108,5,2,3:2:0:0:
222,341,31192,1,0,3:2:0:0:
183,322,31275,1,0,3:2:0:0:
156,291,31358,1,0,3:2:0:0:
145,244,31442,1,0,1:2:0:0:
252,234,31608,1,2,3:2:0:0:
252,234,31942,1,2,3:2:0:0:
134,142,32108,2,0,L|66:135,1,68,8|0,0:3|1:2,0:0:0:0:
238,131,32442,6,0,L|322:140,1,85,6|2,3:2|0:2,0:0:0:0:
494,80,32775,1,2,1:2:0:0:
417,30,32942,2,0,B|377:115|441:105|400:194,1,170,2|2,0:2|3:2,0:0:0:0:
334,269,33442,2,0,P|369:291|411:295,1,85,2|0,1:2|0:0,0:0:0:0:
307,173,33775,5,2,3:2:0:0:
238,242,33942,1,2,3:2:0:0:
169,133,34108,2,0,P|161:91|159:48,1,85,2|2,1:2|3:2,0:0:0:0:
30,158,34442,2,0,P|37:116|39:73,1,85,2|2,0:2|3:2,0:0:0:0:
149,233,34775,2,0,P|141:191|139:148,1,85,2|0,1:2|0:0,0:0:0:0:
13,298,35108,6,0,B|108:284|83:344|175:325,1,170,2|2,3:2|1:2,0:0:0:0:
261,255,35608,1,2,0:2:0:0:
430,310,35775,1,2,3:2:0:0:
331,329,35942,1,2,3:2:0:0:
261,255,36108,1,2,1:2:0:0:
361,178,36275,6,0,B|404:218|389:286|376:329|341:306,1,170,2|2,3:2|3:2,0:0:0:0:
261,255,36775,2,0,L|264:170,1,85,2|0,1:2|0:0,0:0:0:0:
361,178,37108,2,0,L|357:93,1,85,2|2,3:2|3:2,0:0:0:0:
280,36,37442,1,2,1:2:0:0:
198,86,37608,1,2,0:2:0:0:
52,18,37775,6,0,P|93:11|136:13,1,85,6|2,3:2|0:2,0:0:0:0:
198,86,38108,1,2,1:2:0:0:
141,166,38275,2,0,P|63:182|28:111,1,170,2|2,3:2|3:2,0:0:0:0:
28,111,38775,1,2,1:2:0:0:
31,274,38942,6,0,B|52:231|52:231|28:112,1,170,6|2,3:2|3:2,0:0:0:0:
128,3,39442,2,0,L|118:87,1,85,2|0,1:2|3:2,0:0:0:0:
195,150,39775,1,2,3:2:0:0:
286,123,39942,1,0,3:2:0:0:
362,182,40108,2,0,P|362:224|349:264,1,85,2|2,1:2|0:2,0:0:0:0:
188,243,40442,6,0,P|224:221|265:212,1,85,6|0,3:2|0:0,0:0:0:0:
427,295,40775,2,0,P|390:273|349:264,1,85,2|0,1:2|0:0,0:0:0:0:
265,316,41108,1,2,3:2:0:0:
174,277,41275,1,2,3:2:0:0:
150,179,41442,1,2,1:2:0:0:
40,288,41608,6,0,L|50:203,1,85,6|0,3:2|0:0,0:0:0:0:
88,106,41942,2,0,L|98:21,1,85,2|2,3:2|1:2,0:0:0:0:
244,41,42275,2,0,L|234:126,1,85,2|0,0:2|1:2,0:0:0:0:
242,228,42608,2,0,L|232:313,1,85,8|0,0:3|1:2,0:0:0:0:
132,347,42942,1,4,0:3:0:0:
246,229,43108,6,0,B|378:186|357:330|498:271,1,272,6|0,3:2|1:2,0:0:0:0:
511,174,43942,1,2,0:2:0:0:
465,93,44108,2,0,L|397:96,1,68,2|2,0:2|0:2,0:0:0:0:
439,201,44442,6,0,L|431:65,2,136,2|2|2,3:2|3:2|1:2,0:0:0:0:
312,246,45442,1,2,3:2:0:0:
180,203,45775,6,0,P|183:135|203:70,1,136,2|2,3:2|0:2,0:0:0:0:
288,113,46275,2,0,P|308:177|311:245,1,136,2|2,3:2|0:2,0:0:0:0:
186,237,46775,2,0,P|196:204|216:177,1,68,2|0,3:2|0:0,0:0:0:0:
288,113,47108,5,2,3:2:0:0:
310,245,47275,2,0,P|243:238|185:271,1,136,2|2,1:2|0:2,0:0:0:0:
116,361,47775,1,2,1:2:0:0:
116,361,48108,2,0,P|116:327|111:293,1,68,2|0,3:2|3:2,0:0:0:0:
59,196,48442,5,4,3:2:0:0:
59,196,48775,2,0,P|139:211|203:159,1,170,2|2,1:2|3:2,0:0:0:0:
192,67,49275,1,2,3:2:0:0:
99,43,49442,2,0,P|97:85|114:123,2,85,2|2|0,1:2|3:2|0:0,0:0:0:0:
203,159,49942,5,2,3:2:0:0:
289,61,50108,2,0,L|204:52,1,85,2|2,1:2|3:2,0:0:0:0:
390,29,50442,2,0,L|474:20,1,85,2|2,0:2|3:2,0:0:0:0:
391,141,50775,1,2,1:2:0:0:
376,46,50942,1,2,0:2:0:0:
308,175,51108,6,0,B|365:143|419:192|403:241|403:241|385:232,1,170,6|0,1:2|3:2,0:0:0:0:
245,239,51608,2,0,B|244:304|174:326|140:288|140:288|156:277,1,170,6|0,1:2|0:0,0:0:0:0:
105,377,52108,1,6,1:2:0:0:
110,334,52192,1,0,1:2:0:0:
115,288,52275,1,0,1:2:0:0:
121,243,52358,1,0,1:2:0:0:
126,201,52442,5,6,1:2:0:0:
245,239,52608,1,6,1:2:0:0:
225,148,53108,2,0,L|218:190,3,42.5,2|2|2|2,0:2|0:2|0:2|0:2,0:0:0:0:
291,90,53442,2,0,B|227:102|227:102|171:73,1,127.5,2|2,0:2|0:2,0:0:0:0:
96,97,53775,6,0,P|95:65|107:35,1,63.75,6|0,3:2|0:0,0:0:0:0:
106,34,54108,2,0,P|134:90|134:153,1,127.500004863739,10|0,1:2|0:0,0:0:0:0:
27,236,54442,1,2,3:2:0:0:
117,194,54608,1,2,3:2:0:0:
200,248,54775,1,2,1:2:0:0:
211,349,54942,6,0,B|305:292|301:377|403:311,1,203.999993774414,2|2,3:2|3:2,0:0:0:0:
354,149,55442,2,0,P|327:191|330:242,1,101.999996887207,2|0,1:2|0:0,0:0:0:0:
497,276,55775,1,2,3:2:0:0:
403,310,55942,1,2,3:2:0:0:
329,241,56108,1,2,1:2:0:0:
354,149,56275,5,2,0:2:0:0:
444,113,56442,2,0,P|462:65|459:14,1,101.999996887207,0|2,3:2|0:2,0:0:0:0:
360,51,56775,2,0,B|311:31|311:31|212:50,1,152.999995330811,2|0,1:2|0:0,0:0:0:0:
185,88,57108,1,2,3:2:0:0:
91,119,57275,1,2,3:2:0:0:
11,51,57442,1,2,1:2:0:0:
179,109,57608,6,0,B|164:223|101:162|87:283,1,203.999993774414,2|2,3:2|3:2,0:0:0:0:
9,163,58108,2,0,P|41:124|91:119,1,101.999996887207,2|0,1:2|0:0,0:0:0:0:
180,270,58442,2,0,P|229:275|261:314,1,101.999996887207,0|2,3:2|3:2,0:0:0:0:
371,282,58775,1,2,1:2:0:0:
378,295,58942,1,2,3:2:0:0:
387,310,59108,6,0,L|379:208,1,101.999996887207,6|0,3:2|0:0,0:0:0:0:
487,178,59442,2,0,L|494:76,1,101.999996887207,2|0,1:2|0:0,0:0:0:0:
398,10,59775,1,2,3:2:0:0:
299,60,59942,2,0,P|248:64|200:47,1,101.999996887207,2|0,3:2|1:2,0:0:0:0:
152,148,60275,6,0,P|181:62|93:41,1,203.999993774414,6|2,3:2|3:2,0:0:0:0:
50,135,60775,2,0,L|56:236,1,101.999996887207,2|0,1:2|0:0,0:0:0:0:
123,366,61108,1,2,3:2:0:0:
87,252,61275,1,2,3:2:0:0:
15,345,61442,5,2,1:2:0:0:
139,339,61608,1,2,0:2:0:0:
259,331,61775,2,0,P|292:293|303:243,1,101.999996887207,0|2,3:2|0:2,0:0:0:0:
183,164,62108,1,2,1:2:0:0:
183,164,62275,1,0,1:2:0:0:
249,103,62442,1,2,3:2:0:0:
210,250,62608,2,0,L|160:244,2,50.9999984436036,2|0|2,3:2|3:0|1:2,0:0:0:0:
321,157,62942,6,0,B|480:171|480:171|443:145,1,203.999993774414,2|2,3:2|3:2,0:0:0:0:
400,288,63442,2,0,P|404:338|430:382,1,101.999996887207,2|2,1:2|3:2,0:0:0:0:
486,246,63775,1,2,3:2:0:0:
447,250,63858,1,2,3:2:0:0:
404,255,63942,1,0,3:2:0:0:
362,259,64025,1,0,1:2:0:0:
321,264,64108,2,0,L|270:257,1,50.9999984436036,2|0,1:2|1:2,0:0:0:0:
152,203,64275,2,0,L|202:196,1,50.9999984436036,8|4,0:3|0:3,0:0:0:0:
152,299,64442,6,0,P|123:285|91:287,1,63.75,6|0,3:2|0:0,0:0:0:0:
90,287,64775,2,0,P|144:316|203:298,1,127.500004863739,10|0,1:2|0:0,0:0:0:0:
152,203,65108,1,2,3:2:0:0:
206,286,65275,1,2,3:2:0:0:
318,274,65442,1,2,1:2:0:0:
351,176,65608,6,0,B|328:221|328:221|356:372,1,203.999993774414,6|2,3:2|3:2,0:0:0:0:
512,245,66108,2,0,P|461:250|413:235,1,101.999996887207,2|0,1:2|0:0,0:0:0:0:
492,59,66442,1,2,3:2:0:0:
437,138,66608,1,2,3:2:0:0:
351,176,66775,1,2,1:2:0:0:
256,160,66942,1,2,0:2:0:0:
175,96,67108,6,0,P|177:46|196:0,1,101.999996887207,0|0,3:2|0:0,0:0:0:0:
346,129,67442,2,0,P|314:89|271:62,1,101.999996887207,2|0,1:2|0:0,0:0:0:0:
91,48,67775,1,2,3:2:0:0:
63,52,67858,1,0,3:2:0:0:
37,58,67942,2,0,L|40:7,2,50.9999984436036,0|0|2,3:2|3:2|1:2,0:0:0:0:
96,144,68275,1,0,3:2:0:0:
0,265,68442,6,0,P|41:237|90:246,1,101.999996887207,6|0,3:2|0:0,0:0:0:0:
176,194,68775,2,0,P|224:184|266:212,1,101.999996887207,2|0,1:2|0:0,0:0:0:0:
390,173,69108,1,6,3:2:0:0:
374,279,69275,1,0,3:2:0:0:
274,335,69442,2,0,L|261:233,1,101.999996887207,2|0,1:2|0:0,0:0:0:0:
293,40,69775,6,0,L|306:142,1,101.999996887207,6|0,3:2|0:0,0:0:0:0:
404,173,70108,1,0,1:2:0:0:
483,118,70275,1,0,1:2:0:0:
477,87,70358,1,0,1:2:0:0:
470,55,70442,2,0,P|420:50|379:78,1,101.999996887207,0|0,3:2|3:2,0:0:0:0:
189,50,70775,2,0,B|273:58|257:126|304:139,1,152.999995330811,0|0,1:2|0:0,0:0:0:0:
305,140,71108,5,6,3:2:0:0:
200,136,71275,1,2,3:2:0:0:
89,131,71442,1,2,1:2:0:0:
19,274,71608,2,0,B|53:169|-29:193|11:76,1,203.999993774414,6|2,3:2|3:2,0:0:0:0:
163,71,72108,2,0,P|135:112|88:130,1,101.999996887207,2|2,1:2|0:2,0:0:0:0:
264,234,72442,6,0,P|236:192|189:174,1,101.999996887207,6|2,3:2|0:2,0:0:0:0:
108,240,72775,1,2,1:2:0:0:
235,337,72942,2,0,B|263:222|309:278|335:164,1,203.999993774414,2|2,3:2|3:2,0:0:0:0:
293,71,73442,1,2,1:2:0:0:
427,49,73608,6,0,P|439:141|347:154,1,203.999993774414,2|2,3:2|3:2,0:0:0:0:
293,71,74108,2,0,L|394:79,2,101.999996887207,2|2|0,1:2|3:2|0:0,0:0:0:0:
205,0,74608,1,2,3:2:0:0:
93,140,74775,1,2,1:2:0:0:
113,32,74942,1,2,3:2:0:0:
218,163,75108,6,0,P|226:212|207:259,1,101.999996887207,2|2,3:2|3:2,0:0:0:0:
107,313,75442,1,2,1:2:0:0:
260,348,75608,2,0,B|150:297|231:278|111:214,1,203.999993774414,2|2,3:2|3:2,0:0:0:0:
107,313,76108,1,2,1:2:0:0:
267,255,76275,6,0,B|282:99|282:99|252:136,1,203.999993774414,2|2,3:2|3:2,0:0:0:0:
350,195,76775,1,2,1:2:0:0:
478,160,76942,2,0,B|462:4|462:4|492:41,1,203.999993774414,2|2,3:2|3:2,0:0:0:0:
380,48,77442,1,2,1:2:0:0:
352,45,77525,1,0,3:0:0:0:
328,43,77608,1,0,3:2:0:0:
252,135,77775,6,0,B|168:124|151:9|185:-20|185:-20|197:19|181:77|119:106,1,356.999989105225,6|0,1:2|0:0,0:0:0:0:
22,94,78442,6,0,B|35:56|35:56|47:151|47:151|39:196|39:196|47:251,1,238,2|0,1:2|0:0,0:0:0:0:
179,324,79108,6,0,B|91:291|97:353|2:326|2:326|52:370|109:341,1,297.5,6|0,1:2|0:0,0:0:0:0:
156,232,79775,6,0,B|147:147|147:147|126:229,1,170,2|2,1:2|0:2,0:0:0:0:
242,247,81442,1,2,1:2:0:0:
247,262,81775,6,0,P|296:273|343:255,1,101.999996887207,6|0,3:2|0:0,0:0:0:0:
428,179,82108,1,10,1:2:0:0:
393,341,82275,2,0,B|345:248|393:132|415:167,1,203.999993774414,0|0,0:0|3:2,0:0:0:0:
497,19,82775,2,0,P|504:69|495:119,1,101.999996887207,0|0,1:2|3:2,0:0:0:0:
312,76,83108,6,0,L|413:68,1,101.999996887207,0|0,3:2|0:0,0:0:0:0:
422,75,83442,2,0,L|320:82,1,101.999996887207,0|0,1:2|0:0,0:0:0:0:
143,14,83775,1,0,1:2:0:0:
223,94,83942,1,0,1:2:0:0:
221,73,84025,1,0,1:2:0:0:
220,56,84108,1,0,1:2:0:0:
117,124,84275,1,0,1:2:0:0:
282,160,84442,6,0,P|237:182|187:175,1,101.999996887207,6|2,1:2|0:2,0:0:0:0:
115,108,84775,1,2,1:2:0:0:
35,252,84942,2,0,L|24:150,1,101.999996887207,6|0,3:2|0:0,0:0:0:0:
140,270,85275,1,2,3:2:0:0:
115,108,85442,1,2,1:2:0:0:
35,252,85608,1,0,3:2:0:0:
187,175,85775,6,0,P|236:167|281:190,1,101.999996887207,6|2,3:2|0:2,0:0:0:0:
313,282,86108,1,2,1:2:0:0:
215,367,86275,2,0,L|219:265,1,101.999996887207,6|0,3:2|0:0,0:0:0:0:
118,372,86608,1,2,3:2:0:0:
219,379,86775,1,2,1:2:0:0:
316,384,86942,1,2,3:2:0:0:
449,316,87108,6,0,B|459:242|459:242|444:219,1,101.999996887207,2|2,1:2|0:2,0:0:0:0:
334,137,87442,2,0,B|324:63|324:63|338:40,1,101.999996887207,2|2,0:2|0:2,0:0:0:0:
437,18,87775,1,2,0:2:0:0:
480,148,87942,2,0,B|436:136|436:136|390:154|390:154|334:137,1,152.999995330811,2|0,1:2|0:0,0:0:0:0:
274,70,88275,2,0,P|310:127|250:160,1,152.999995330811,2|0,1:2|0:0,0:0:0:0:
235,148,88608,1,2,1:2:0:0:
121,168,88775,6,0,B|143:143|143:143|133:211,1,101.999996887207,2|2,1:2|0:2,0:0:0:0:
54,313,89108,2,0,L|46:363,2,50.9999984436036,2|0|2,1:2|0:0|3:2,0:0:0:0:
165,292,89442,1,2,1:2:0:0:
182,297,89525,1,0,1:2:0:0:
197,301,89608,1,2,1:2:0:0:
212,305,89692,1,0,1:2:0:0:
229,310,89775,6,0,B|297:289|288:333|362:307,1,136,6|2,3:2|3:2,0:0:0:0:
479,219,90275,2,0,P|450:279|467:343,1,136,2|2,0:2|0:2,0:0:0:0:
321,229,90775,2,0,L|330:93,1,136,2|0,3:2|3:2,0:0:0:0:
330,93,91442,2,0,L|397:101,1,68,2|0,3:2|0:0,0:0:0:0:
184,46,91775,2,0,L|251:38,1,68,2|0,3:2|0:0,0:0:0:0:
101,121,92108,2,0,L|34:113,1,68,2|0,3:2|0:0,0:0:0:0:
127,204,92442,6,0,P|131:142|193:145,1,136,2|0,3:2|3:2,0:0:0:0:
226,247,92942,1,2,0:2:0:0:
194,348,93108,2,0,P|164:364|131:373,1,68,2|0,3:2|0:0,0:0:0:0:
67,261,93442,2,0,P|96:277|129:286,1,68,2|0,3:2|0:0,0:0:0:0:
274,312,93775,2,0,L|263:176,1,136,2|0,3:2|3:2,0:0:0:0:
286,322,94442,1,2,3:2:0:0:
278,183,94775,1,0,3:2:0:0:
150,289,95108,6,0,P|207:324|273:311,1,136,2|2,3:2|3:2,0:0:0:0:
76,243,95608,2,0,B|64:283|64:283|79:376,1,136,2|2,0:2|0:2,0:0:0:0:
71,162,96108,2,0,L|3:172,1,68,2|0,3:2|0:0,0:0:0:0:
133,104,96442,2,0,B|130:80|160:74|170:106|178:147|153:188,1,136,2|2,3:2|3:2,0:0:0:0:
219,258,96942,1,2,0:2:0:0:
315,171,97108,2,0,L|247:165,1,68,2|0,3:2|0:0,0:0:0:0:
225,50,97442,2,0,P|258:55|287:72,1,68,2|0,3:2|0:0,0:0:0:0:
315,171,97775,5,2,3:2:0:0:
315,171,98108,2,0,L|416:175,1,102,0|0,3:2|0:0,0:0:0:0:
425,185,98442,2,0,L|323:182,1,102,2|0,3:2|0:0,0:0:0:0:
330,194,98775,2,0,L|431:198,1,102,0|0,3:2|0:0,0:0:0:0:
484,59,99108,5,2,3:2:0:0:
454,89,99192,1,0,3:2:0:0:
416,110,99275,1,0,3:2:0:0:
375,113,99358,1,0,3:2:0:0:
331,95,99442,1,0,1:2:0:0:
166,129,99608,1,2,3:2:0:0:
166,129,99942,1,2,3:2:0:0:
248,176,100108,2,0,L|241:244,1,68,8|0,0:3|1:2,0:0:0:0:
121,312,100442,6,0,P|134:271|131:229,1,85,6|2,3:2|0:2,0:0:0:0:
62,146,100775,1,2,1:2:0:0:
18,265,100942,2,0,P|70:328|153:326,1,170,2|2,0:2|3:2,0:0:0:0:
274,273,101442,2,0,P|308:286|284:314,1,85,2|0,1:2|0:0,0:0:0:0:
182,200,101775,5,2,3:2:0:0:
142,306,101942,1,2,3:2:0:0:
273,273,102108,2,0,P|292:234|296:192,1,85,2|2,1:2|3:2,0:0:0:0:
276,61,102442,2,0,P|299:95|334:120,1,85,2|2,0:2|3:2,0:0:0:0:
459,171,102775,2,0,P|416:174|378:191,1,85,2|0,1:2|0:0,0:0:0:0:
198,152,103108,5,2,3:2:0:0:
226,241,103275,1,2,0:2:0:0:
316,259,103442,1,2,1:2:0:0:
378,190,103608,1,2,0:2:0:0:
183,140,103775,1,2,3:2:0:0:
195,256,103942,1,2,3:2:0:0:
209,373,104108,1,2,1:2:0:0:
43,285,104275,6,0,P|45:207|123:201,1,170,2|2,3:2|3:2,0:0:0:0:
183,272,104775,2,0,L|267:265,1,85,2|0,1:2|0:0,0:0:0:0:
443,219,105108,2,0,L|358:212,1,85,2|0,3:2|3:2,0:0:0:0:
305,355,105442,1,2,1:2:0:0:
278,254,105608,1,0,0:0:0:0:
335,116,105775,6,0,L|419:109,1,85,6|2,3:2|0:2,0:0:0:0:
255,60,106108,1,2,1:2:0:0:
174,188,106275,2,0,P|137:113|162:34,1,170,2|2,3:2|3:2,0:0:0:0:
255,60,106775,1,2,1:2:0:0:
174,188,106942,6,0,B|125:206|125:206|9:183,1,170,6|2,3:2|3:2,0:0:0:0:
0,301,107442,2,0,P|38:284|80:283,1,85,2|0,1:2|3:2,0:0:0:0:
186,361,107775,1,2,0:2:0:0:
261,291,107942,1,0,3:2:0:0:
281,193,108108,2,0,P|277:150|256:114,1,85,2|0,1:2|0:0,0:0:0:0:
93,195,108442,6,0,L|177:186,1,85,6|0,3:2|0:0,0:0:0:0:
166,82,108775,2,0,L|81:73,1,85,2|0,1:2|0:0,0:0:0:0:
249,8,109108,1,2,3:2:0:0:
256,114,109275,1,2,3:2:0:0:
177,186,109442,1,2,1:2:0:0:
276,129,109608,6,0,P|318:128|356:146,1,85,6|0,3:2|0:0,0:0:0:0:
500,195,109942,2,0,P|457:194|419:212,1,85,2|2,3:2|1:2,0:0:0:0:
332,377,110275,1,2,0:2:0:0:
479,347,110442,1,0,1:0:0:0:
479,347,110525,1,0,1:0:0:0:
479,347,110608,2,0,P|449:315|409:301,1,85,8|0,0:3|1:2,0:0:0:0:
239,318,110942,1,4,0:3:0:0:
283,218,111108,6,0,B|151:175|172:319|31:260,1,272,6|0,3:2|1:2,0:0:0:0:
90,167,111942,1,2,0:2:0:0:
188,120,112108,2,0,P|221:112|255:116,1,68,2|2,0:2|0:2,0:0:0:0:
382,178,112442,6,0,P|352:117|366:52,2,136,2|2|2,3:2|3:2|1:2,0:0:0:0:
459,107,113442,1,2,3:2:0:0:
366,52,113775,6,0,B|272:66|272:66|233:52,1,136,2|2,3:2|0:2,0:0:0:0:
267,157,114275,2,0,B|178:122|178:122|152:90,1,136,2|2,3:2|0:2,0:0:0:0:
70,122,114775,2,0,P|65:87|73:54,1,68,2|0,3:2|0:0,0:0:0:0:
152,9,115108,5,2,3:2:0:0:
146,175,115275,2,0,P|87:207|21:200,1,136,2|2,1:2|0:2,0:0:0:0:
188,273,115775,1,2,1:2:0:0:
188,273,116108,2,0,L|255:261,1,68,2|0,3:2|0:0,0:0:0:0:
378,332,116442,5,4,3:2:0:0:
378,332,116775,2,0,L|395:162,1,170,2|2,1:2|3:2,0:0:0:0:
452,23,117275,1,2,3:2:0:0:
298,53,117442,2,0,P|335:71|377:72,1,85,2|2,1:2|3:2,0:0:0:0:
240,171,117775,5,0,0:0:0:0:
277,59,117942,1,2,3:2:0:0:
219,180,118108,2,0,L|134:171,1,85,2|2,1:2|3:2,0:0:0:0:
54,318,118442,5,2,0:2:0:0:
17,206,118608,1,2,3:2:0:0:
75,327,118775,2,0,L|160:318,1,85,2|2,1:2|0:2,0:0:0:0:
317,241,119108,6,0,B|396:247|370:290|435:294|435:294|427:270|416:264,1,170,6|0,1:2|3:2,0:0:0:0:
318,156,119608,2,0,B|239:162|265:205|199:209|199:209|208:185|218:179,1,170,6|0,1:2|0:0,0:0:0:0:
140,56,120108,1,6,1:2:0:0:
183,61,120192,1,0,1:0:0:0:
229,66,120275,1,0,1:2:0:0:
274,72,120358,1,0,1:2:0:0:
316,77,120442,5,6,3:2:0:0:
218,179,120608,1,6,1:2:0:0:
218,179,121108,2,0,L|176:171,3,42.5,2|2|2|2,0:2|0:2|0:2|0:2,0:0:0:0:
283,128,121442,2,0,B|254:184|254:184|266:248,1,127.5,2|2,0:2|0:2,0:0:0:0:
377,137,121775,6,0,P|376:169|388:199,1,63.75,6|0,3:2|0:0,0:0:0:0:
387,198,122108,2,0,P|387:134|359:78,1,127.500004863739,10|0,1:2|0:0,0:0:0:0:
254,45,122442,1,2,3:2:0:0:
176,121,122608,1,2,3:2:0:0:
70,94,122775,1,2,1:2:0:0:
40,205,122942,6,0,B|60:176|120:182|129:233|62:256|92:338,1,203.999993774414,6|2,3:2|3:2,0:0:0:0:
266,323,123442,2,0,P|215:319|173:292,1,101.999996887207,2|0,1:2|0:0,0:0:0:0:
282,324,123775,1,2,3:2:0:0:
369,275,123942,1,2,3:2:0:0:
389,173,124108,1,2,1:2:0:0:
330,84,124275,5,2,0:2:0:0:
241,62,124442,2,0,P|190:59|144:80,1,101.999996887207,0|2,3:2|0:2,0:0:0:0:
70,170,124775,2,0,B|51:71|51:71|71:22,1,152.999995330811,2|0,1:2|0:0,0:0:0:0:
104,17,125108,1,2,3:2:0:0:
209,152,125275,1,2,3:2:0:0:
241,62,125442,1,2,1:2:0:0:
331,191,125608,6,0,P|361:105|273:85,1,203.999993774414,2|2,3:2|3:2,0:0:0:0:
209,152,126108,2,0,L|217:253,1,101.999996887207,2|0,1:2|0:0,0:0:0:0:
16,222,126442,2,0,L|117:213,1,101.999996887207,0|2,3:2|3:2,0:0:0:0:
206,339,126775,1,2,1:2:0:0:
185,341,126942,1,2,0:2:0:0:
165,343,127108,6,0,L|63:351,1,101.999996887207,6|0,3:2|0:0,0:0:0:0:
217,253,127442,2,0,L|319:261,1,101.999996887207,2|0,1:2|0:0,0:0:0:0:
416,313,127775,1,2,3:2:0:0:
494,245,127942,2,0,P|510:197|506:146,1,101.999996887207,2|2,3:2|1:2,0:0:0:0:
434,13,128275,6,0,P|413:101|327:72,1,203.999993774414,6|2,3:2|3:2,0:0:0:0:
239,129,128775,2,0,L|233:28,1,101.999996887207,2|0,1:2|0:0,0:0:0:0:
141,86,129108,1,2,3:2:0:0:
43,44,129275,1,2,3:2:0:0:
28,165,129442,5,2,1:2:0:0:
126,123,129608,1,2,0:2:0:0:
206,195,129775,2,0,L|200:296,1,101.999996887207,0|2,3:2|0:2,0:0:0:0:
79,328,130108,1,2,1:2:0:0:
79,328,130275,1,0,1:2:0:0:
199,296,130442,1,2,3:2:0:0:
326,264,130608,2,0,L|276:258,2,50.9999984436036,2|0|2,3:2|3:0|1:2,0:0:0:0:
394,357,130942,6,0,P|365:272|453:257,1,203.999993774414,2|2,3:2|3:2,0:0:0:0:
356,182,131442,2,0,L|347:80,1,101.999996887207,2|2,1:2|3:2,0:0:0:0:
251,26,131775,1,2,3:2:0:0:
270,64,131858,1,0,3:2:0:0:
268,107,131942,1,0,3:2:0:0:
245,142,132025,1,0,1:2:0:0:
210,152,132108,2,0,L|159:145,1,50.9999984436036,2|8,1:2|0:3,0:0:0:0:
70,61,132275,2,0,L|121:68,1,50.9999984436036,4|4,0:3|0:3,0:0:0:0:
77,186,132442,6,0,P|45:187|17:173,1,63.75,6|0,3:2|0:0,0:0:0:0:
17,173,132775,2,0,P|48:227|41:289,1,127.500004863739,10|0,1:2|0:0,0:0:0:0:
137,257,133108,1,2,3:2:0:0:
232,293,133275,1,2,3:2:0:0:
280,382,133442,1,2,1:2:0:0:
391,265,133608,6,0,P|320:330|231:292,1,203.999993774414,6|2,3:2|3:2,0:0:0:0:
301,146,134108,2,0,L|307:247,1,101.999996887207,2|0,1:2|0:0,0:0:0:0:
206,197,134442,1,2,3:2:0:0:
301,146,134608,1,2,3:2:0:0:
186,96,134775,1,2,1:2:0:0:
285,49,134942,1,2,0:2:0:0:
171,0,135108,6,0,L|161:101,1,101.999996887207,0|0,3:2|0:0,0:0:0:0:
52,81,135442,2,0,P|73:126|70:176,1,101.999996887207,2|0,1:2|0:0,0:0:0:0:
6,279,135775,1,2,3:2:0:0:
34,275,135858,1,0,3:2:0:0:
60,269,135942,2,0,L|57:320,2,50.9999984436036,0|0|2,3:2|3:2|1:2,0:0:0:0:
70,176,136275,1,0,0:0:0:0:
143,305,136442,6,0,P|192:309|234:281,1,101.999996887207,6|0,3:2|0:0,0:0:0:0:
310,342,136775,2,0,P|339:301|335:251,1,101.999996887207,2|0,1:2|0:0,0:0:0:0:
435,274,137108,1,6,3:2:0:0:
404,167,137275,1,0,3:2:0:0:
301,147,137442,2,0,L|199:160,1,101.999996887207,2|0,1:2|0:0,0:0:0:0:
46,52,137775,6,0,L|148:65,1,101.999996887207,6|0,3:2|0:0,0:0:0:0:
199,159,138108,1,0,1:2:0:0:
147,263,138275,1,8,0:3:0:0:
115,258,138358,1,0,3:0:0:0:
83,253,138442,2,0,P|75:203|101:160,1,101.999996887207,0|0,3:2|3:2,0:0:0:0:
33,336,138775,2,0,P|83:282|154:299,1,152.999995330811,0|0,1:2|0:0,0:0:0:0:
173,326,139108,5,6,3:2:0:0:
277,319,139275,1,2,0:2:0:0:
376,308,139442,1,2,1:2:0:0:
455,159,139608,2,0,B|415:274|497:250|463:355,1,203.999993774414,6|2,3:2|3:2,0:0:0:0:
277,319,140108,2,0,P|325:303|375:308,1,101.999996887207,2|2,1:2|0:2,0:0:0:0:
307,203,140442,6,0,P|258:187|208:192,1,101.999996887207,6|2,3:2|0:2,0:0:0:0:
121,242,140775,1,2,1:2:0:0:
25,158,140942,2,0,P|88:217|121:137,1,203.999993774414,6|2,3:2|3:2,0:0:0:0:
54,60,141442,1,2,1:2:0:0:
198,72,141608,6,0,B|219:129|219:129|196:270,1,203.999993774414,2|2,3:2|3:2,0:0:0:0:
28,271,142108,2,0,P|64:236|113:222,1,101.999996887207,2|2,1:2|3:2,0:0:0:0:
195,270,142442,1,0,0:0:0:0:
331,245,142608,1,2,3:2:0:0:
284,381,142775,1,2,1:2:0:0:
257,226,142942,1,2,3:2:0:0:
394,294,143108,6,0,P|407:245|393:197,1,101.999996887207,2|2,3:2|3:2,0:0:0:0:
332,90,143442,1,2,1:2:0:0:
458,133,143608,2,0,B|396:112|396:112|259:135,1,203.999993774414,2|2,3:2|3:2,0:0:0:0:
166,194,144108,1,2,1:2:0:0:
72,77,144275,2,0,P|89:160|157:108,1,203.999993774414,2|2,3:2|3:2,0:0:0:0:
157,108,144775,1,2,1:2:0:0:
239,245,144942,2,0,P|221:328|153:276,1,203.999993774414,2|2,3:2|3:2,0:0:0:0:
266,347,145442,1,2,1:2:0:0:
290,349,145525,1,0,1:0:0:0:
318,352,145608,1,2,3:2:0:0:
433,319,145775,6,0,B|331:263|361:155|407:102|407:102|415:171|392:203,1,356.999989105225,6|0,1:2|0:0,0:0:0:0:
268,255,146442,6,0,B|207:278|133:259|114:212|114:212|136:226|175:223,1,238,2|0,1:2|0:0,0:0:0:0:
286,105,147108,6,0,P|200:14|158:131,1,297.5,6|0,1:2|0:0,0:0:0:0:
268,255,147775,6,0,B|401:247|401:247|367:231,1,170,2|2,1:2|0:2,0:0:0:0:
367,231,149442,1,2,1:2:0:0:
182,191,149775,6,0,B|221:146|316:155|316:155|307:177,1,170,6|2,3:2|0:2,0:0:0:0:
434,76,150275,6,0,B|459:152|385:255|385:255|365:229,1,224.400006848145,6|2,3:2|0:2,0:0:0:0:
361,357,150942,6,0,B|302:344|262:258|262:258|287:255,1,170,6|8,3:2|0:3,0:0:0:0:
192,307,151775,2,0,P|192:328|187:348,1,42.5,2|8,0:2|0:3,0:0:0:0:
176,215,152108,2,0,P|175:193|180:173,1,42.5,2|2,3:2|3:2,0:0:0:0:
90,275,152442,6,0,P|47:202|48:118,1,170,6|2,3:2|0:2,0:0:0:0:
135,38,152942,2,0,B|201:88|277:63|277:63|286:31|252:0,1,224.400006848145,6|2,3:2|0:2,0:0:0:0:
240,157,153608,1,6,3:2:0:0:
307,254,153775,5,0,1:2:0:0:
378,266,153886,1,0,1:2:0:0:
446,238,153997,1,0,1:2:0:0:
492,181,154108,2,0,L|489:143,1,37.3999998858643,8|0,0:3|0:0,0:0:0:0:
426,24,154331,1,8,0:3:0:0:
407,59,154442,1,8,0:3:0:0:
409,87,154553,1,8,0:3:0:0:
415,104,154664,1,0,3:2:0:0:
336,122,154775,1,4,0:3:0:0:
341,137,154886,1,0,3:2:0:0:
352,152,154997,1,0,3:2:0:0:
360,161,155108,6,0,B|272:191|306:132|195:161,1,170,6|2,3:2|1:2,0:0:0:0:
164,280,155608,2,0,B|171:338|241:342|241:342|292:288|245:241,1,224.400006848145,6|4,3:2|0:3,0:0:0:0:
113,203,156275,2,0,P|102:148|125:98,1,112.199999657593,6|4,3:2|2:3,0:0:0:0:
125,98,156942,1,4,0:3:0:0:
326,60,157108,1,4,0:3:0:0:
238,112,157275,1,8,0:3:0:0:
135,87,157442,1,2,3:2:0:0:
75,5,157608,1,4,0:3:0:0:
81,180,157775,6,0,P|95:97|61:21,1,170,6|2,3:2|1:2,0:0:0:0:
7,246,158275,2,0,B|81:265|81:265|151:244,1,149.60000456543,6|8,3:2|0:3,0:0:0:0:
211,148,158775,1,4,0:3:0:0:
230,334,158942,2,0,P|232:279|269:238,1,112.199999657593,6|8,3:2|0:3,0:0:0:0:
441,323,159442,1,2,1:2:0:0:
458,237,159608,1,4,0:3:0:0:
346,307,159775,1,2,3:2:0:0:
367,206,159942,1,2,3:2:0:0:
449,345,160108,1,2,1:2:0:0:
479,218,160275,1,2,1:2:0:0:
268,238,160442,5,6,3:2:0:0:
233,134,161108,2,0,B|240:74|240:74|256:55,2,85,2|2|2,1:2|0:2|1:2,0:0:0:0:
167,220,161608,2,0,P|107:236|55:202,1,127.5,6|0,3:2|0:0,0:0:0:0:
6,269,161942,2,0,P|65:285|117:251,1,127.5,2|0,1:2|0:0,0:0:0:0:
186,298,162275,1,2,0:2:0:0:
251,173,162442,2,0,L|258:258,1,85,0|0,1:2|0:0,0:0:0:0:
127,75,162775,2,0,L|121:160,1,85,2|2,3:2|1:2,0:0:0:0:
337,155,163108,6,0,P|287:89|205:92,2,170,6|2|2,3:2|3:2|1:2,0:0:0:0:
251,173,163942,1,2,0:2:0:0:
316,76,164108,1,2,3:2:0:0:
422,124,164275,2,0,P|422:166|412:207,1,85,6|0,3:2|0:0,0:0:0:0:
321,253,164608,1,2,1:2:0:0:
167,173,164775,2,0,B|196:164|196:164|250:172,1,85,2|0,3:2|3:2,0:0:0:0:
207,264,165108,2,0,B|200:293|200:293|166:336,1,85,2|0,1:2|3:2,0:0:0:0:
101,249,165442,2,0,B|78:228|78:228|58:177,1,85,2|0,3:2|1:2,0:0:0:0:
54,342,165775,6,0,P|74:260|58:177,1,170,6|0,3:2|3:2,0:0:0:0:
8,85,166275,1,2,3:2:0:0:
152,153,166442,2,0,P|159:111|158:68,1,85,2|2,1:2|0:2,0:0:0:0:
78,15,166775,1,2,3:2:0:0:
141,166,166942,2,0,P|204:154|268:154,1,127.5,6|0,3:2|0:0,0:0:0:0:
317,213,167275,2,0,P|254:201|190:201,1,127.5,2|0,1:2|0:0,0:0:0:0:
175,272,167608,2,0,P|216:261|258:264,1,85,2|0,3:2|1:2,0:0:0:0:
366,314,167942,1,2,0:2:0:0:
391,309,168108,1,0,3:2:0:0:
422,304,168275,1,0,1:2:0:0:
512,246,168442,6,0,P|428:258|351:226,1,170,6|0,3:2|3:2,0:0:0:0:
350,225,169108,2,0,P|318:199|296:162,1,85,2|2,1:2|0:2,0:0:0:0:
281,55,169442,1,2,1:2:0:0:
189,234,169608,2,0,P|199:171|180:111,1,127.5,2|0,3:2|0:0,0:0:0:0:
102,93,169942,2,0,B|90:143|90:143|112:259,1,170,2|0,1:2|0:0,0:0:0:0:
0,236,170442,2,0,L|4:193,3,42.5,2|0|0|0,1:2|0:0|1:2|1:2,0:0:0:0:
24,312,170775,1,2,1:2:0:0:
61,308,170858,1,0,1:2:0:0:
98,303,170942,1,0,1:2:0:0:
133,298,171025,1,0,1:2:0:0:
167,295,171108,6,0,L|259:305,1,93.5000028533936,6|0,3:2|0:0,0:0:0:0:
355,256,171442,2,0,L|447:245,1,93.5000028533936,2|2,1:2|0:2,0:0:0:0:
412,65,171775,2,0,P|385:102|385:148,1,93.5000028533936,2|0,3:2|3:2,0:0:0:0:
254,101,172108,2,0,P|254:54|227:17,1,93.5000028533936,2|0,1:2|0:0,0:0:0:0:
46,84,172442,6,0,L|139:90,1,93.5000028533936,2|0,3:2|0:0,0:0:0:0:
190,198,172775,2,0,L|96:204,1,93.5000028533936,2|0,1:2|0:0,0:0:0:0:
32,295,173108,1,2,3:2:0:0:
159,320,173275,1,2,0:2:0:0:
44,312,173442,1,2,1:2:0:0:
168,337,173608,1,2,0:2:0:0:
283,292,173775,6,0,P|289:246|279:201,1,93.5000028533936,6|0,3:2|0:0,0:0:0:0:
405,161,174108,2,0,P|394:206|401:252,1,93.5000028533936,2|0,1:2|0:0,0:0:0:0:
508,336,174442,1,2,3:2:0:0:
396,271,174608,1,0,0:0:0:0:
274,308,174775,2,0,L|180:300,1,93.5000028533936,2|0,1:2|0:0,0:0:0:0:
0,350,175108,6,0,P|44:362|90:358,1,93.5000028533936,2|0,3:2|0:0,0:0:0:0:
148,222,175442,2,0,P|103:234|57:230,1,93.5000028533936,2|0,1:2|0:0,0:0:0:0:
180,116,175775,1,2,3:2:0:0:
166,234,175942,1,0,0:0:0:0:
94,69,176108,1,2,1:2:0:0:
119,41,176192,1,0,1:0:0:0:
153,25,176275,1,0,1:2:0:0:
189,24,176358,1,0,1:2:0:0:
227,36,176442,6,0,P|261:68|275:112,1,93.5000028533936,6|0,3:2|0:0,0:0:0:0:
368,67,176775,2,0,P|381:111|370:156,1,93.5000028533936,2|0,1:2|0:0,0:0:0:0:
233,295,177108,2,0,P|220:251|231:206,1,93.5000028533936,2|0,3:2|0:0,0:0:0:0:
375,326,177442,2,0,P|342:294|328:250,1,93.5000028533936,2|0,1:2|0:0,0:0:0:0:
135,318,177775,6,0,P|198:382|289:380,1,187.000005706787,2|2,3:2|1:2,0:0:0:0:
233,295,178275,1,0,0:0:0:0:
66,369,178442,2,0,P|58:322|60:276,1,93.5000028533936,2|0,3:2|0:0,0:0:0:0:
111,189,178775,2,0,P|118:142|116:96,1,93.5000028533936,2|2,1:2|0:2,0:0:0:0:
37,80,179025,1,2,0:2:0:0:
37,80,179108,6,0,P|72:108|115:95,1,93.5000028533936,6|0,3:2|0:0,0:0:0:0:
197,208,179442,2,0,P|240:220|275:192,1,93.5000028533936,2|0,1:2|0:0,0:0:0:0:
435,311,179775,1,2,3:2:0:0:
450,197,179942,1,0,0:0:0:0:
413,95,180108,1,2,1:2:0:0:
330,24,180275,1,0,0:0:0:0:
192,97,180442,6,0,B|186:151|229:175|229:175|259:137|234:86,1,187.000005706787,6|0,3:2|1:2,0:0:0:0:
84,66,180942,1,0,0:0:0:0:
3,223,181108,2,0,L|96:215,1,93.5000028533936,2|0,3:2|0:0,0:0:0:0:
263,307,181442,1,0,1:2:0:0:
234,305,181525,1,0,1:0:0:0:
202,303,181608,1,0,1:2:0:0:
172,300,181692,1,0,1:2:0:0:
141,296,181775,1,6,3:2:0:0:
256,192,181858,12,0,184275,0:0:0:0:
81,181,184442,5,6,1:2:0:0:
336,146,184608,1,6,1:2:0:0:
350,151,185275,1,6,1:2:0:0:
364,157,185608,2,0,P|355:219|329:162,1,170,6|6,1:2|1:2,0:0:0:0:
422,275,186108,1,6,1:2:0:0:
108,92,197775,6,0,P|162:84|204:119,1,112.199999657593,2|2,0:2|0:2,0:0:0:0:
260,302,198442,2,0,L|254:357,2,56.0999998287964,0|0|0,0:0|0:0|0:0,0:0:0:0:
338,252,198942,2,0,L|329:140,1,112.199999657593,0|0,0:0|0:0,0:0:0:0:
364,58,199442,1,2,0:2:0:0:
495,151,199775,2,0,L|500:206,2,56.0999998287964,0|0|2,0:0|0:0|0:2,0:0:0:0:
441,265,200275,6,0,P|386:275|337:251,1,112.199999657593,0|0,0:0|0:0,0:0:0:0:
252,261,200775,2,0,P|239:235|235:208,1,56.0999998287964,2|0,0:2|0:0,0:0:0:0:
118,223,201108,2,0,L|125:167,1,56.0999998287964,0|0,0:0|0:0,0:0:0:0:
233,190,201442,2,0,L|225:134,1,56.0999998287964,2|0,0:2|0:0,0:0:0:0:
110,64,201775,6,0,P|151:66|188:47,1,84.1499997431946,6|0,3:2|0:0,0:0:0:0:
265,62,202108,2,0,L|260:20,1,42.0749998715973,2|0,0:2|0:0,0:0:0:0:
376,178,202442,6,0,P|334:180|297:161,1,84.1499997431946,6|0,3:2|0:0,0:0:0:0:
221,176,202775,2,0,L|225:134,1,42.0749998715973,2|0,0:2|0:0,0:0:0:0:
118,60,203108,6,0,L|130:209,1,149.60000456543,6|0,3:2|0:0,0:0:0:0:
1,300,203608,1,2,3:2:0:0:
1,300,203692,1,0,3:0:0:0:
1,299,203775,2,0,P|28:274|64:265,1,74.8000022827149,0|0,1:2|3:2,0:0:0:0:
148,299,204108,2,0,P|175:323|211:332,1,74.8000022827149,2|0,0:2|3:2,0:0:0:0:
294,277,204442,5,6,3:2:0:0:
148,299,204608,1,2,3:2:0:0:
8,317,204775,1,2,1:2:0:0:
61,146,204942,2,0,P|114:162|170:163,1,112.200003424072,6|0,3:2|0:0,0:0:0:0:
193,156,205275,1,2,3:2:0:0:
341,236,205442,1,2,1:2:0:0:
268,79,205608,1,2,0:2:0:0:
236,248,205775,6,0,L|320:257,1,85,6|2,3:2|3:2,0:0:0:0:
409,213,206108,1,2,1:2:0:0:
512,318,206275,2,0,P|432:295|365:342,1,170,2|2,3:2|3:2,0:0:0:0:
365,342,206775,1,2,1:2:0:0:
279,224,206942,6,0,B|250:341|250:341|273:384,1,170,2|2,3:2|3:2,0:0:0:0:
273,384,207442,1,2,1:2:0:0:
172,269,207608,2,0,P|129:273|92:293,1,85,2|0,3:2|0:0,0:0:0:0:
29,381,207942,1,2,3:2:0:0:
154,350,208108,2,0,P|169:311|172:269,1,85,2|2,1:2|0:2,0:0:0:0:
82,180,208442,6,0,P|67:140|64:98,1,85,2|2,3:2|0:2,0:0:0:0:
130,17,208775,1,2,1:2:0:0:
176,120,208942,2,0,B|256:85|258:156|339:107,1,170,2|2,3:2|3:2,0:0:0:0:
287,30,209442,1,2,1:2:0:0:
219,207,209608,6,0,L|225:291,1,85,2|0,3:2|0:0,0:0:0:0:
111,199,209942,1,2,3:2:0:0:
231,221,210108,1,2,1:2:0:0:
346,240,210275,2,0,L|429:254,1,85,2|0,3:2|0:0,0:0:0:0:
512,194,210608,1,2,3:2:0:0:
455,345,210775,1,2,1:2:0:0:
422,241,210942,1,2,0:2:0:0:
398,84,211108,6,0,L|388:125,2,42.5,6|0|0,3:2|0:0|0:0,0:0:0:0:
250,31,211442,2,0,L|259:72,2,42.5,2|0|0,1:2|0:0|3:2,0:0:0:0:
177,157,211775,2,0,P|135:161|95:147,1,85,2|0,0:2|3:2,0:0:0:0:
37,32,212108,1,2,1:2:0:0:
75,132,212275,1,2,0:2:0:0:
62,243,212442,5,0,3:2:0:0:
54,268,212525,1,0,1:2:0:0:
38,289,212608,1,8,0:3:0:0:
191,269,212775,1,2,1:2:0:0:
171,286,212858,1,0,1:2:0:0:
147,296,212942,1,8,0:3:0:0:
277,341,213108,5,2,1:2:0:0:
293,343,213192,1,0,1:2:0:0:
308,344,213275,1,0,1:2:0:0:
320,346,213358,1,0,1:2:0:0:
336,347,213442,2,0,B|358:317|358:317|346:227,1,127.5,2|0,1:2|1:2,0:0:0:0:
383,123,213775,6,0,L|378:207,1,84.1499997431946,2|0,0:2|0:0,0:0:0:0:
294,93,214108,6,0,P|331:43|392:32,1,127.500004863739,14|0,1:2|0:0,0:0:0:0:
511,111,214442,1,2,3:2:0:0:
383,123,214608,1,2,3:2:0:0:
259,134,214775,1,2,1:2:0:0:
172,26,214942,6,0,B|196:128|130:77|112:203|176:198|192:171,1,203.999993774414,2|2,3:2|3:2,0:0:0:0:
97,57,215442,2,0,P|47:50|0:69,1,101.999996887207,2|0,1:2|0:0,0:0:0:0:
58,147,215775,1,2,3:2:0:0:
89,240,215942,1,2,3:2:0:0:
184,274,216108,1,2,1:2:0:0:
273,230,216275,1,2,0:2:0:0:
355,377,216442,6,0,P|365:327|361:276,1,101.999996887207,0|0,3:2|0:0,0:0:0:0:
458,203,216775,2,0,B|354:188|354:188|308:203,1,152.999995330811,2|0,1:2|0:0,0:0:0:0:
273,230,217108,1,2,3:2:0:0:
361,276,217275,1,2,3:2:0:0:
346,106,217442,1,2,1:2:0:0:
478,89,217608,6,0,P|391:113|379:23,1,203.999993774414,2|2,3:2|3:2,0:0:0:0:
161,86,218108,2,0,L|262:76,1,101.999996887207,2|0,1:2|0:0,0:0:0:0:
309,205,218442,1,0,3:2:0:0:
258,92,218608,1,2,3:2:0:0:
141,162,218775,1,2,1:2:0:0:
122,156,218942,1,2,3:2:0:0:
105,152,219108,6,0,P|54:152|7:170,1,101.999996887207,6|0,3:2|0:0,0:0:0:0:
155,339,219442,2,0,L|149:237,1,101.999996887207,2|0,1:2|0:0,0:0:0:0:
265,194,219775,1,2,3:2:0:0:
331,272,219942,2,0,P|286:294|236:288,1,101.999996887207,2|0,3:2|1:2,0:0:0:0:
385,195,220275,6,0,B|374:358|374:358|400:328,1,203.999993774414,6|2,3:2|3:2,0:0:0:0:
491,240,220775,2,0,L|480:138,1,101.999996887207,2|0,1:2|0:0,0:0:0:0:
512,8,221108,1,2,3:2:0:0:
461,102,221275,1,2,3:2:0:0:
361,129,221442,1,2,1:2:0:0:
258,96,221608,1,2,0:2:0:0:
205,12,221775,6,0,P|216:61|214:112,1,101.999996887207,0|2,3:2|0:2,0:0:0:0:
130,176,222108,1,2,1:2:0:0:
0,114,222275,1,2,1:2:0:0:
8,96,222358,1,0,1:0:0:0:
18,78,222442,2,0,L|119:72,1,101.999996887207,2|2,3:2|3:2,0:0:0:0:
214,112,222775,1,2,1:2:0:0:
352,61,222942,6,0,P|269:19|225:100,1,203.999993774414,2|2,3:2|3:2,0:0:0:0:
309,171,223442,2,0,L|300:273,1,101.999996887207,2|2,1:2|3:2,0:0:0:0:
225,358,223775,1,8,0:3:0:0:
187,377,223858,1,0,3:0:0:0:
144,375,223942,1,0,3:2:0:0:
109,352,224025,1,0,1:2:0:0:
99,317,224108,2,0,L|106:266,1,50.9999984436036,2|0,1:2|1:2,0:0:0:0:
190,177,224275,2,0,L|183:228,1,50.9999984436036,8|4,0:3|0:3,0:0:0:0:
38,144,224442,6,0,L|46:80,1,63.75,6|0,3:2|0:0,0:0:0:0:
46,80,224775,2,0,B|24:88|29:110|66:113|85:84|115:87|141:95,1,127.500004863739,10|0,1:2|0:0,0:0:0:0:
274,26,225108,1,2,3:2:0:0:
264,127,225275,1,2,3:2:0:0:
255,230,225442,1,2,1:2:0:0:
423,200,225608,6,0,P|330:176|269:251,1,203.999993774414,6|2,3:2|3:2,0:0:0:0:
371,363,226108,2,0,L|360:261,1,101.999996887207,2|0,1:2|0:0,0:0:0:0:
215,317,226442,1,2,3:2:0:0:
198,204,226608,1,2,3:2:0:0:
100,337,226775,1,2,1:2:0:0:
81,223,226942,1,2,0:2:0:0:
233,308,227108,6,0,L|131:302,1,101.999996887207,0|0,3:2|0:0,0:0:0:0:
299,198,227442,2,0,L|197:203,1,101.999996887207,2|0,1:2|0:0,0:0:0:0:
332,308,227775,1,2,3:2:0:0:
360,312,227858,1,0,3:2:0:0:
386,318,227942,2,0,L|383:267,2,50.9999984436036,0|0|2,3:2|3:2|1:2,0:0:0:0:
481,251,228275,1,0,0:0:0:0:
387,124,228442,6,0,P|393:74|425:35,1,101.999996887207,6|0,3:2|0:0,0:0:0:0:
288,80,228775,2,0,P|242:58|215:16,1,101.999996887207,2|0,1:2|0:0,0:0:0:0:
491,121,229108,1,6,3:2:0:0:
374,144,229275,1,0,3:2:0:0:
276,99,229442,2,0,L|175:113,1,101.999996887207,2|0,1:2|0:0,0:0:0:0:
29,50,229775,6,0,P|78:58|125:39,1,101.999996887207,6|0,3:2|0:0,0:0:0:0:
0,134,230108,1,0,1:2:0:0:
57,264,230275,1,8,0:3:0:0:
79,268,230358,1,0,3:0:0:0:
101,272,230442,2,0,L|90:170,1,101.999996887207,0|0,3:2|3:2,0:0:0:0:
200,277,230775,2,0,P|133:284|155:348,1,152.999995330811,0|0,1:2|0:0,0:0:0:0:
181,357,231108,5,6,3:2:0:0:
200,194,231275,1,2,0:2:0:0:
216,52,231442,1,2,1:2:0:0:
68,134,231608,2,0,B|173:100|149:182|264:142,1,203.999993774414,6|2,3:2|3:2,0:0:0:0:
416,66,232108,2,0,P|368:50|318:55,1,101.999996887207,2|2,1:2|0:2,0:0:0:0:
424,232,232442,6,0,P|401:186|362:154,1,101.999996887207,6|2,3:2|0:2,0:0:0:0:
264,141,232775,1,2,1:2:0:0:
128,260,232942,2,0,B|187:288|187:288|321:255,1,203.999993774414,2|2,3:2|3:2,0:0:0:0:
424,232,233442,1,2,1:2:0:0:
303,353,233608,6,0,P|229:289|245:192,1,203.999993774414,2|2,3:2|3:2,0:0:0:0:
245,192,234108,1,2,1:2:0:0:
115,275,234275,2,0,P|93:229|97:179,1,101.999996887207,2|0,3:2|0:0,0:0:0:0:
143,96,234608,1,2,3:2:0:0:
264,211,234775,1,2,1:2:0:0:
115,195,234942,1,2,3:2:0:0:
308,117,235108,6,0,B|378:160|384:223|344:293|344:293|382:278|382:278|356:332|391:386,1,356.999989105225,6|0,1:2|0:0,0:0:0:0:
481,325,235775,6,0,B|486:295|486:295|429:328|412:262|312:305|302:350,1,238,0|0,1:2|0:0,0:0:0:0:
138,227,236442,6,0,B|217:233|234:342|194:385|194:385|171:353|180:293,1,297.5,6|0,1:2|0:0,0:0:0:0:
278,174,237108,6,0,B|348:163|348:163|371:177|371:177|442:164,1,170,0|2,1:2|0:2,0:0:0:0:
442,164,238775,1,2,1:2:0:0:
454,179,239108,6,0,L|352:171,1,101.999996887207,6|2,3:2|0:2,0:0:0:0:
235,24,239442,1,0,1:2:0:0:
334,80,239608,1,2,0:2:0:0:
330,186,239775,1,8,0:3:0:0:
130,135,239942,2,0,L|231:127,1,101.999996887207,2|2,3:2|0:2,0:0:0:0:
35,164,240275,6,0,B|23:78|60:91|70:50|38:0|19:3|-4:17|8:49,1,203.999993774414,6|2,3:2|3:2,0:0:0:0:
139,154,240775,2,0,L|240:146,1,101.999996887207,2|8,3:2|0:3,0:0:0:0:
374,201,241108,5,2,3:2:0:0:
393,274,241220,1,8,0:3:0:0:
365,343,241331,1,8,0:3:0:0:
284,320,241442,5,2,3:2:0:0:
268,261,241553,1,0,1:2:0:0:
291,206,241664,1,0,0:0:0:0:
380,189,241775,6,0,L|480:206,2,101.999996887207,6|2|2,3:2|0:2|1:2,0:0:0:0:
345,77,242275,1,2,1:2:0:0:
165,93,242442,2,0,P|214:96|251:130,1,101.999996887207,2|2,3:2|1:2,0:0:0:0:
224,249,242775,1,8,0:3:0:0:
189,258,242858,1,8,0:3:0:0:
159,240,242942,1,4,0:3:0:0:
154,207,243025,1,4,0:3:0:0:
178,181,243108,6,0,B|201:222|201:222|175:376,1,203.999993774414,6|8,3:2|0:3,0:0:0:0:
69,340,243608,1,8,0:3:0:0:
271,314,243775,1,2,1:2:0:0:
346,325,243886,1,2,1:2:0:0:
419,337,243997,1,0,1:2:0:0:
484,285,244108,1,2,3:2:0:0:
427,292,244220,1,8,0:3:0:0:
374,300,244331,1,4,0:3:0:0:
308,243,244442,6,0,B|286:190|327:148|327:148|380:162|394:218,1,203.999993774414,6|0,3:2|1:2,0:0:0:0:
108,204,244942,2,0,B|163:142|269:167|210:299|205:360|92:349|-82:334|-64:87|120:109|154:103|154:103|203:104|272:69|201:-15|201:-15|160:44|43:217|217:197|85:349|98:383|63:412|25:406|3:365|21:325|45:343|38:341,1,1253.74995599938,6|0,3:2|0:0,0:0:0:0:
251,332,249275,2,0,P|215:367|169:384,1,100.29999647995,0|0,1:0|3:0,0:0:0:0:
