osu file format v14

[General]
AudioFilename: audio.mp3
AudioLeadIn: 0
PreviewTime: 121025
Countdown: 0
SampleSet: Soft
StackLeniency: 0.8
Mode: 0
LetterboxInBreaks: 0
WidescreenStoryboard: 1

[Editor]
Bookmarks: 160442,187108
DistanceSpacing: 0.8
BeatDivisor: 4
GridSize: 4
TimelineZoom: 2.1

[Metadata]
Title:EXTRA MAGIC HOUR
TitleUnicode:エクストラ・マジック・アワー
Artist:AKINO with bless4
ArtistUnicode:AKINO with bless4
Creator:Xayah
Version:Asuka_-'s Hard
Source:甘城ブリリアントパーク
Tags:Rizen Asuka Asuka_- Linada Amagi Brilliant Park anime japanese lit120 -Hakurei- DakiniBrave
BeatmapID:2021372
BeatmapSetID:956309

[Difficulty]
HPDrainRate:5
CircleSize:3.8
OverallDifficulty:6.2
ApproachRate:8
SliderMultiplier:1.3
SliderTickRate:1

[Events]
//Background and Video events
0,0,"HELICOPTEEEEEEEEEEER.jpg",0,0
//Break Periods
2,187108,196442
//Storyboard Layer 0 (Background)
//Storyboard Layer 1 (Fail)
//Storyboard Layer 2 (Pass)
//Storyboard Layer 3 (Foreground)
//Storyboard Layer 4 (Overlay)
//Storyboard Sound Samples

[TimingPoints]
7109,333.333333333333,4,2,1,60,1,0
11109,333.333333333333,4,2,1,60,1,0
21775,-125,4,2,1,60,0,0
32442,-111.111111111111,4,2,1,60,0,0
43108,-125,4,2,1,60,0,0
48442,-111.111111111111,4,2,1,60,0,0
53775,-100,4,2,1,60,0,1
81775,-100,4,2,1,60,0,0
89775,-125,4,2,1,60,0,0
100442,-111.111111111111,4,2,1,60,0,0
111108,-125,4,2,1,60,0,0
116442,-111.111111111111,4,2,1,60,0,0
121775,-100,4,2,1,60,0,1
149775,-111.111111111111,4,2,1,60,0,0
160442,-125,4,2,1,60,0,0
171108,-111.111111111111,4,2,1,60,0,0
180442,-76.9230769230769,4,2,1,60,0,0
184442,-125,4,2,1,60,0,0
203108,-111.111111111111,4,2,1,60,0,0
205775,-100,4,2,1,60,0,0
213775,-100,4,2,1,60,0,1
239108,-100,4,2,1,60,0,0

[Colours]
Combo1 : 241,146,146
Combo2 : 91,217,227
Combo3 : 255,255,130
Combo4 : 199,199,199

[HitObjects]
111,328,7108,5,2,3:2:0:0:
185,287,7275,2,0,P|197:329|190:359,1,65,8|4,0:3|0:3,0:0:0:0:
111,328,7608,1,2,3:2:0:0:
28,347,7775,2,0,L|39:211,1,130,2|4,3:2|0:3,0:0:0:0:
4,139,8275,6,0,P|40:129|83:141,1,65,6|0,3:2|0:0,0:0:0:0:
135,182,8608,1,2,1:2:0:0:
135,182,8775,2,0,P|210:189|114:97,1,325,6|0,3:2|0:0,0:0:0:0:
66,133,9775,6,0,L|52:166,2,32.5,0|0|8,1:2|1:2|0:3,0:0:0:0:
45,244,10108,1,0,3:2:0:0:
135,182,10275,2,0,L|116:226,2,32.5,0|0|0,1:2|1:2|1:2,0:0:0:0:
152,288,10608,2,0,P|215:319|278:287,1,130,8|0,0:3|1:2,0:0:0:0:
350,280,11108,6,0,L|339:364,1,65,6|2,3:2|0:2,0:0:0:0:
267,298,11442,2,0,L|279:218,1,65,10|2,1:2|0:2,0:0:0:0:
354,201,11775,1,2,3:2:0:0:
354,201,11942,2,0,L|363:119,1,65,2|0,0:2|1:2,0:0:0:0:
313,66,12275,5,2,0:2:0:0:
313,66,12442,2,0,P|339:49|390:56,1,65,2|2,3:2|0:2,0:0:0:0:
279,142,12775,2,0,L|192:129,1,65,2|2,1:2|0:2,0:0:0:0:
134,104,13108,2,0,L|123:144,3,32.5,2|2|2|2,1:2|0:2|1:2|1:2,0:0:0:0:
138,176,13442,2,0,L|146:222,3,32.5,2|2|2|2,1:2|0:2|1:2|1:2,0:0:0:0:
128,248,13775,6,0,L|116:336,1,65,2|2,3:2|0:2,0:0:0:0:
198,342,14108,2,0,L|209:260,1,65,2|2,1:2|0:2,0:0:0:0:
291,269,14442,1,2,3:2:0:0:
291,269,14608,2,0,L|279:362,1,65,2|0,0:2|1:2,0:0:0:0:
242,202,14942,5,2,0:2:0:0:
242,202,15108,2,0,P|276:183|319:191,1,65,2|2,3:2|0:2,0:0:0:0:
368,235,15442,2,0,L|438:229,1,65,2|2,1:2|0:2,0:0:0:0:
497,284,15775,2,0,B|516:238|516:238|500:149,1,130,2|2,3:2|1:2,0:0:0:0:
448,93,16275,1,2,0:2:0:0:
373,132,16442,6,0,P|341:146|294:137,1,65,0|2,3:2|0:2,0:0:0:0:
246,89,16775,2,0,P|209:77|169:86,1,65,2|2,1:2|0:2,0:0:0:0:
112,125,17108,1,2,3:2:0:0:
112,125,17275,2,0,L|103:204,1,65,2|0,0:2|1:2,0:0:0:0:
133,269,17608,5,2,0:2:0:0:
133,269,17775,2,0,P|92:276|56:249,1,65,2|2,3:2|0:2,0:0:0:0:
183,202,18108,2,0,L|256:216,1,65,2|2,1:2|0:2,0:0:0:0:
295,284,18442,2,0,P|329:228|305:158,1,130,2|2,3:2|1:2,0:0:0:0:
242,123,18942,1,2,0:2:0:0:
242,123,19108,5,2,1:2:0:0:
61,332,19608,5,2,1:2:0:0:
376,359,20108,5,2,1:2:0:0:
478,224,20442,1,2,1:2:0:0:
478,224,20608,1,2,1:2:0:0:
369,93,20942,1,0,1:2:0:0:
294,131,21108,2,0,L|307:172,2,32.5,0|8|0,1:2|0:3|3:2,0:0:0:0:
213,102,21442,2,0,L|217:56,3,32.5,0|0|0|0,1:2|1:2|1:2|1:2,0:0:0:0:
195,32,21775,6,0,P|139:18|94:49,1,104,6|2,3:2|3:2,0:0:0:0:
53,95,22275,2,0,L|67:213,1,104,2|2,0:2|0:2,0:0:0:0:
106,258,22775,1,2,3:2:0:0:
218,165,23108,1,0,3:2:0:0:
329,259,23442,2,0,P|366:254|392:245,1,52,2|0,3:2|0:0,0:0:0:0:
427,305,23775,2,0,P|449:270|435:200,1,104,2|2,3:2|3:2,0:0:0:0:
455,64,24442,6,0,P|402:70|341:72,1,104,2|0,3:2|3:2,0:0:0:0:
303,16,24942,1,2,0:2:0:0:
303,16,25108,2,0,P|278:56|290:117,1,104,2|0,3:2|3:2,0:0:0:0:
389,213,25775,2,0,L|378:332,1,104,2|0,3:2|3:2,0:0:0:0:
329,369,26275,1,0,0:0:0:0:
331,374,26442,2,0,P|299:379|272:368,1,52,2|0,3:2|0:0,0:0:0:0:
217,336,26775,1,0,3:2:0:0:
78,381,27108,6,0,L|61:262,1,104,2|2,3:2|3:2,0:0:0:0:
45,207,27608,2,0,P|91:177|148:197,1,104,2|2,0:2|0:2,0:0:0:0:
186,239,28108,1,2,3:2:0:0:
304,154,28442,1,2,3:2:0:0:
211,42,28775,2,0,P|185:32|144:33,1,52,2|0,3:2|0:0,0:0:0:0:
95,61,29108,2,0,L|105:179,1,104,2|2,3:2|3:2,0:0:0:0:
79,308,29775,6,0,P|142:308|182:273,1,104,2|0,3:2|3:2,0:0:0:0:
230,238,30275,1,2,0:2:0:0:
230,238,30442,2,0,L|341:251,1,104,2|0,3:2|3:2,0:0:0:0:
442,346,31108,1,2,3:2:0:0:
480,283,31275,2,0,L|509:289,2,26,0|0|0,3:2|3:2|1:2,0:0:0:0:
447,217,31608,2,0,P|439:191|437:153,1,52,2|0,3:2|0:0,0:0:0:0:
477,105,31942,2,0,P|438:127|364:110,1,104,2|0,3:2|1:2,0:0:0:0:
313,73,32442,6,0,L|183:84,1,116.999996429443,6|2,3:2|1:2,0:0:0:0:
128,37,32942,2,0,P|115:68|122:113,1,58.4999982147217,2|0,0:2|3:2,0:0:0:0:
57,150,33275,1,2,3:2:0:0:
57,150,33442,2,0,P|106:178|167:158,1,116.999996429443,2|2,1:2|3:2,0:0:0:0:
292,261,34108,6,0,L|355:266,1,58.4999982147217,2|2,1:2|3:2,0:0:0:0:
382,189,34442,2,0,L|316:184,1,58.4999982147217,2|2,0:2|3:2,0:0:0:0:
306,104,34775,2,0,L|374:107,1,58.4999982147217,2|0,1:2|0:0,0:0:0:0:
401,33,35108,6,0,P|448:105|429:154,1,116.999996429443,2|2,3:2|1:2,0:0:0:0:
382,189,35608,1,2,0:2:0:0:
382,189,35775,2,0,L|383:262,1,58.4999982147217,2|2,3:2|3:2,0:0:0:0:
302,264,36108,1,2,1:2:0:0:
302,264,36275,6,0,L|299:121,1,116.999996429443,2|2,3:2|3:2,0:0:0:0:
267,71,36775,2,0,P|236:70|205:88,1,58.4999982147217,2|0,1:2|0:0,0:0:0:0:
167,150,37108,2,0,P|107:163|53:123,1,116.999996429443,2|2,3:2|1:2,0:0:0:0:
12,70,37608,1,2,0:2:0:0:
12,70,37775,6,0,L|-2:204,1,116.999996429443,6|2,3:2|1:2,0:0:0:0:
22,265,38275,2,0,P|80:248|143:284,1,116.999996429443,2|2,3:2|3:2,0:0:0:0:
201,309,38775,1,2,1:2:0:0:
201,309,38942,6,0,L|214:188,1,116.999996429443,6|2,3:2|3:2,0:0:0:0:
201,111,39442,2,0,B|243:109|243:109|270:128|270:128|336:127,2,116.999996429443,2|2|2,1:2|3:2|1:2,0:0:0:0:
346,35,40442,6,0,P|409:80|413:133,1,116.999996429443,6|2,3:2|1:2,0:0:0:0:
371,184,40942,1,0,0:0:0:0:
371,184,41108,2,0,L|376:261,1,58.4999982147217,2|2,3:2|3:2,0:0:0:0:
421,310,41442,1,2,1:2:0:0:
421,310,41608,6,0,P|377:281|302:298,1,116.999996429443,6|2,3:2|3:2,0:0:0:0:
253,342,42108,2,0,P|191:335|128:328,1,116.999996429443,2|0,1:2|1:2,0:0:0:0:
22,210,42775,1,0,1:2:0:0:
82,77,43108,6,0,P|142:74|184:113,1,104,6|0,3:2|0:0,0:0:0:0:
269,210,43775,1,0,1:2:0:0:
269,210,43942,2,0,L|281:100,1,104,2|2,0:2|0:2,0:0:0:0:
317,43,44442,6,0,P|363:75|422:66,1,104,2|2,3:2|3:2,0:0:0:0:
490,192,45108,1,2,1:2:0:0:
435,327,45442,2,0,P|403:322|375:304,1,52,2|0,3:2|0:0,0:0:0:0:
316,352,45775,6,0,P|312:284|341:244,1,104,2|2,3:2|0:2,0:0:0:0:
304,111,46442,1,0,1:2:0:0:
196,208,46775,2,0,L|132:202,1,52,2|0,3:2|0:0,0:0:0:0:
71,211,47108,6,0,P|63:142|57:86,1,104,2|0,3:2|3:2,0:0:0:0:
169,12,47775,1,2,1:2:0:0:
296,82,48108,1,2,3:2:0:0:
449,23,48442,6,0,P|462:58|455:102,1,58.4999982147217,4|0,3:2|0:0,0:0:0:0:
502,150,48775,2,0,P|446:118|385:148,1,116.999996429443,2|2,1:2|3:2,0:0:0:0:
338,187,49275,1,2,3:2:0:0:
338,187,49442,2,0,L|355:306,1,116.999996429443,2|0,1:2|0:0,0:0:0:0:
305,368,49942,6,0,P|269:369|238:349,1,58.4999982147217,2|2,3:2|1:2,0:0:0:0:
199,294,50275,1,2,3:2:0:0:
199,294,50442,2,0,P|164:289|121:308,1,58.4999982147217,2|2,0:2|3:2,0:0:0:0:
88,357,50775,2,0,P|45:362|15:338,1,58.4999982147217,2|2,1:2|0:2,0:0:0:0:
6,278,51108,6,0,L|29:159,1,116.999996429443,6|0,1:2|3:2,0:0:0:0:
111,235,51608,6,0,L|133:107,1,116.999996429443,6|0,1:2|0:0,0:0:0:0:
219,206,52108,6,0,L|226:163,2,29.2499991073609,6|0|0,1:2|1:2|1:2,0:0:0:0:
323,171,52442,5,6,1:2:0:0:
323,171,52608,1,6,1:2:0:0:
488,283,53775,6,0,L|481:192,1,65,6|0,3:2|0:0,0:0:0:0:
405,308,54108,2,0,L|398:207,1,97.5,10|0,1:2|0:0,0:0:0:0:
373,175,54442,1,2,3:2:0:0:
296,211,54608,1,2,3:2:0:0:
217,179,54775,1,2,1:2:0:0:
140,216,54942,6,0,P|131:153|170:103,1,130,2|2,3:2|3:2,0:0:0:0:
224,38,55442,1,2,1:2:0:0:
224,38,55775,1,2,3:2:0:0:
266,111,55942,1,2,3:2:0:0:
217,179,56108,1,2,1:2:0:0:
258,252,56275,6,0,P|331:265|375:221,1,130,2|2,0:2|0:2,0:0:0:0:
449,202,56775,2,0,L|459:274,1,65,2|0,1:2|0:0,0:0:0:0:
382,154,57108,1,2,3:2:0:0:
382,154,57275,2,0,L|369:65,1,65,2|2,3:2|1:2,0:0:0:0:
411,14,57608,6,0,P|372:56|280:34,1,130,2|2,3:2|3:2,0:0:0:0:
227,17,58108,2,0,L|93:31,1,130,2|0,1:2|3:2,0:0:0:0:
38,91,58608,1,2,3:2:0:0:
74,167,58775,1,2,1:2:0:0:
37,243,58942,1,2,3:2:0:0:
99,298,59108,6,0,L|177:284,1,65,6|0,3:2|0:0,0:0:0:0:
98,384,59442,2,0,L|201:364,1,97.5,2|0,1:2|0:0,0:0:0:0:
226,339,59775,1,2,3:2:0:0:
302,374,59942,2,0,P|311:336|296:288,1,65,2|0,3:2|1:2,0:0:0:0:
252,246,60275,6,0,P|317:284|374:260,1,130,6|2,3:2|3:2,0:0:0:0:
428,212,60775,2,0,L|436:134,1,65,2|0,1:2|0:0,0:0:0:0:
354,120,61108,1,2,3:2:0:0:
354,120,61275,2,0,L|346:199,1,65,2|2,3:2|1:2,0:0:0:0:
283,71,61608,6,0,B|324:31|324:31|399:41,1,130,2|2,0:2|0:2,0:0:0:0:
476,67,62108,2,0,P|481:104|470:152,1,65,2|0,1:2|1:2,0:0:0:0:
425,198,62442,1,2,3:2:0:0:
474,266,62608,2,0,L|489:311,2,32.5,2|0|2,3:2|3:0|1:2,0:0:0:0:
425,198,62942,6,0,P|359:190|306:245,1,130,2|2,3:2|3:2,0:0:0:0:
230,208,63442,2,0,P|225:235|240:275,1,65,2|2,1:2|3:2,0:0:0:0:
195,344,63775,2,0,L|232:353,3,32.5,2|0|0|0,3:2|0:0|3:2|1:2,0:0:0:0:
268,342,64108,2,0,L|308:329,3,32.5,2|0|8|4,1:2|1:2|0:3|0:3,0:0:0:0:
339,346,64442,6,0,L|349:273,1,65,6|0,3:2|0:0,0:0:0:0:
420,366,64775,2,0,L|432:257,1,97.5,10|0,1:2|0:0,0:0:0:0:
413,230,65108,1,2,3:2:0:0:
460,159,65275,1,2,3:2:0:0:
428,80,65442,1,2,1:2:0:0:
489,22,65608,6,0,P|438:-7|364:22,1,130,6|2,3:2|3:2,0:0:0:0:
312,72,66108,1,2,1:2:0:0:
312,72,66442,1,2,3:2:0:0:
232,43,66608,1,2,3:2:0:0:
149,61,66775,1,2,1:2:0:0:
66,43,66942,6,0,L|54:194,1,130,2|0,0:2|0:0,0:0:0:0:
82,252,67442,2,0,P|121:255|155:237,1,65,2|0,1:2|0:0,0:0:0:0:
219,207,67775,1,2,3:2:0:0:
219,207,67858,1,0,3:0:0:0:
219,207,67942,1,0,3:0:0:0:
289,254,68108,2,0,L|277:331,1,65,2|0,1:2|3:2,0:0:0:0:
352,200,68442,2,0,L|345:156,2,32.5,6|0|0,3:2|3:0|0:0,0:0:0:0:
421,251,68775,2,0,L|411:328,1,65,2|0,1:2|0:0,0:0:0:0:
346,367,69108,1,6,3:2:0:0:
278,318,69275,1,0,3:2:0:0:
206,363,69442,2,0,P|158:376|101:339,1,97.5,2|0,1:2|0:0,0:0:0:0:
84,333,69775,6,0,L|102:180,1,130,6|0,3:2|1:2,0:0:0:0:
30,154,70275,2,0,P|81:119|156:140,1,130,0|0,1:2|3:2,0:0:0:0:
211,78,70775,2,0,P|228:108|228:158,1,65,0|0,1:2|3:2,0:0:0:0:
185,208,71108,6,0,P|250:220|308:171,1,130,6|2,3:2|1:2,0:0:0:0:
352,251,71608,2,0,P|383:194|354:127,1,130,6|2,3:2|3:2,0:0:0:0:
439,100,72108,2,0,P|414:69|375:54,1,65,2|2,1:2|0:2,0:0:0:0:
321,9,72442,6,0,L|314:80,1,65,6|2,3:2|0:2,0:0:0:0:
250,128,72775,1,2,1:2:0:0:
186,72,72942,2,0,P|106:55|70:86,1,130,2|2,3:2|3:2,0:0:0:0:
33,156,73442,1,2,1:2:0:0:
81,224,73608,6,0,L|73:363,1,130,2|2,3:2|3:2,0:0:0:0:
162,286,74108,1,2,1:2:0:0:
162,286,74275,2,0,L|157:364,1,65,2|0,3:2|0:0,0:0:0:0:
239,374,74608,5,2,3:2:0:0:
319,347,74775,1,2,1:2:0:0:
398,376,74942,1,2,3:2:0:0:
474,340,75108,6,0,L|482:262,1,65,2|2,3:2|3:2,0:0:0:0:
422,212,75442,1,2,1:2:0:0:
492,165,75608,2,0,P|447:129|363:159,1,130,2|2,3:2|3:2,0:0:0:0:
304,179,76108,1,2,1:2:0:0:
226,145,76275,6,0,L|212:13,1,130,2|2,3:2|3:2,0:0:0:0:
136,121,76775,1,2,1:2:0:0:
136,121,76942,2,0,L|128:40,1,65,2|0,3:2|0:0,0:0:0:0:
60,6,77275,1,2,3:2:0:0:
5,70,77442,2,0,L|12:158,1,65,2|0,1:2|3:2,0:0:0:0:
78,184,77775,6,0,P|153:163|201:199,1,130,6|0,1:2|0:0,0:0:0:0:
246,254,78275,1,0,0:0:0:0:
320,214,78442,2,0,L|335:65,1,130,2|0,1:2|0:0,0:0:0:0:
333,84,79108,6,0,P|272:106|208:62,1,130,6|0,1:2|0:0,0:0:0:0:
147,29,79608,1,0,0:0:0:0:
76,75,79775,2,0,L|63:159,1,65,2|0,1:2|0:0,0:0:0:0:
118,205,80108,2,0,L|112:251,4,32.5,0|0|2|0|2,1:2|1:2|1:2|1:2|0:2,0:0:0:0:
111,210,81442,5,2,1:2:0:0:
111,210,81775,6,0,P|146:195|191:206,1,65,6|0,3:2|0:0,0:0:0:0:
249,162,82108,2,0,L|260:312,2,130,10|0|0,1:2|3:2|1:2,0:0:0:0:
249,162,83108,6,0,P|288:182|323:179,1,65,0|0,3:2|0:0,0:0:0:0:
391,200,83442,2,0,P|391:164|373:130,1,65,0|0,1:2|0:0,0:0:0:0:
306,94,83775,1,0,1:2:0:0:
306,94,83942,1,0,1:2:0:0:
348,21,84108,2,0,L|419:30,1,65,0|0,1:2|1:2,0:0:0:0:
492,0,84442,6,0,B|502:39|502:39|476:145,1,130,6|2,1:2|1:2,0:0:0:0:
436,198,84942,2,0,L|305:184,1,130,6|2,3:2|3:2,0:0:0:0:
268,108,85442,1,2,1:2:0:0:
268,108,85775,6,0,P|224:161|237:236,1,130,6|2,3:2|1:2,0:0:0:0:
153,259,86275,2,0,P|194:298|276:291,1,130,6|2,3:2|3:2,0:0:0:0:
338,337,86775,1,2,1:2:0:0:
338,337,87108,6,0,L|349:273,1,65,2|2,1:2|0:2,0:0:0:0:
428,241,87442,2,0,L|417:169,1,65,2|2,0:2|0:2,0:0:0:0:
472,111,87775,2,0,B|412:86|412:86|352:115,1,130,2|0,0:2|0:0,0:0:0:0:
285,164,88275,6,0,L|145:151,1,130,2|2,1:2|1:2,0:0:0:0:
84,105,88775,2,0,P|69:135|78:182,1,65,2|2,1:2|0:2,0:0:0:0:
123,231,89108,1,2,1:2:0:0:
123,231,89192,1,0,3:0:0:0:
123,231,89275,1,2,3:2:0:0:
205,252,89442,2,0,L|211:297,3,32.5,2|0|2|0,1:2|1:2|1:2|1:2,0:0:0:0:
233,311,89775,6,0,P|283:287|337:308,1,104,6|2,3:2|3:2,0:0:0:0:
375,354,90275,2,0,L|386:243,1,104,2|2,0:2|0:2,0:0:0:0:
436,198,90775,1,2,3:2:0:0:
352,79,91108,1,0,3:2:0:0:
282,207,91442,2,0,P|255:206|223:191,1,52,2|0,3:2|0:0,0:0:0:0:
182,250,91775,2,0,P|158:211|186:141,1,104,2|2,3:2|3:2,0:0:0:0:
96,30,92442,6,0,P|153:35|202:43,1,104,2|0,3:2|3:2,0:0:0:0:
268,20,92942,1,2,0:2:0:0:
268,20,93108,2,0,P|288:67|268:122,1,104,2|2,3:2|3:2,0:0:0:0:
133,158,93775,2,0,L|147:279,1,104,2|0,3:2|3:2,0:0:0:0:
185,333,94275,1,0,0:0:0:0:
185,333,94442,2,0,P|214:334|243:321,1,52,2|0,3:2|0:0,0:0:0:0:
263,259,94775,1,0,3:2:0:0:
368,352,95108,6,0,L|385:232,1,104,2|2,3:2|3:2,0:0:0:0:
444,210,95608,2,0,P|411:179|337:198,1,104,2|2,0:2|0:2,0:0:0:0:
307,237,96108,1,2,3:2:0:0:
190,148,96442,1,2,3:2:0:0:
289,42,96775,2,0,P|317:51|343:53,1,52,2|2,3:2|0:2,0:0:0:0:
409,33,97108,2,0,L|419:151,1,104,2|2,3:2|3:2,0:0:0:0:
495,260,97775,6,0,P|457:233|389:249,1,104,2|0,3:2|3:2,0:0:0:0:
336,269,98275,1,2,0:2:0:0:
336,269,98442,2,0,L|347:381,1,104,2|0,3:2|3:2,0:0:0:0:
212,313,99108,1,2,3:2:0:0:
144,285,99275,2,0,L|150:258,2,26,0|0|0,3:2|3:2|1:2,0:0:0:0:
74,306,99608,2,0,P|64:285|64:242,1,52,2|0,3:2|0:0,0:0:0:0:
10,203,99942,2,0,P|51:213|102:173,1,104,2|0,3:2|1:2,0:0:0:0:
144,122,100442,6,0,L|270:138,1,116.999996429443,6|2,3:2|1:2,0:0:0:0:
332,98,100942,2,0,P|342:127|334:171,1,58.4999982147217,2|0,0:2|3:2,0:0:0:0:
392,217,101275,1,2,3:2:0:0:
392,217,101442,2,0,P|355:236|283:212,1,116.999996429443,2|2,1:2|3:2,0:0:0:0:
135,279,102108,6,0,L|205:271,1,58.4999982147217,2|2,1:2|3:2,0:0:0:0:
179,190,102442,2,0,L|110:198,1,58.4999982147217,2|2,0:2|3:2,0:0:0:0:
116,114,102775,2,0,L|185:108,1,58.4999982147217,2|0,1:2|0:0,0:0:0:0:
251,136,103108,6,0,P|254:83|208:38,1,116.999996429443,2|2,3:2|1:2,0:0:0:0:
130,29,103608,1,2,0:2:0:0:
130,29,103775,2,0,L|57:36,1,58.4999982147217,2|2,3:2|3:2,0:0:0:0:
14,92,104108,1,2,1:2:0:0:
14,92,104275,6,0,B|31:139|31:139|23:224,1,116.999996429443,2|2,3:2|3:2,0:0:0:0:
12,286,104775,2,0,P|42:286|67:275,1,58.4999982147217,2|0,1:2|0:0,0:0:0:0:
126,217,105108,2,0,P|194:218|227:259,1,116.999996429443,2|2,3:2|1:2,0:0:0:0:
269,320,105608,1,0,0:0:0:0:
269,320,105775,6,0,L|284:188,1,116.999996429443,6|2,3:2|1:2,0:0:0:0:
248,129,106275,2,0,P|296:160|365:139,1,116.999996429443,2|2,3:2|3:2,0:0:0:0:
406,87,106775,1,2,1:2:0:0:
406,87,106942,6,0,P|452:88|499:153,1,116.999996429443,6|2,3:2|3:2,0:0:0:0:
457,210,107442,2,0,B|447:257|447:257|471:342,2,116.999996429443,2|2|2,1:2|0:2|1:2,0:0:0:0:
349,334,108442,6,0,P|290:329|221:326,1,116.999996429443,6|2,3:2|1:2,0:0:0:0:
162,369,108942,1,0,0:0:0:0:
162,369,109108,2,0,P|152:343|160:296,1,58.4999982147217,2|2,3:2|3:2,0:0:0:0:
208,251,109442,1,2,1:2:0:0:
208,251,109608,6,0,P|158:230|91:257,1,116.999996429443,6|2,3:2|3:2,0:0:0:0:
24,278,110108,2,0,L|9:140,1,116.999996429443,2|0,1:2|1:2,0:0:0:0:
47,1,110775,1,0,1:2:0:0:
107,133,111108,6,0,P|164:143|219:113,1,104,6|0,3:2|0:0,0:0:0:0:
307,22,111775,1,0,1:2:0:0:
307,22,111942,2,0,L|412:35,1,104,2|2,0:2|0:2,0:0:0:0:
473,0,112442,6,0,B|485:36|485:36|462:112,1,104,2|2,3:2|3:2,0:0:0:0:
350,187,113108,1,2,1:2:0:0:
486,238,113442,2,0,L|494:298,1,52,2|0,3:2|0:0,0:0:0:0:
445,344,113775,6,0,P|404:370|344:349,1,104,2|2,3:2|0:2,0:0:0:0:
233,273,114442,1,0,1:2:0:0:
106,345,114775,2,0,L|94:276,1,52,2|0,3:2|0:0,0:0:0:0:
46,240,115108,6,0,P|94:253|145:222,1,104,2|0,3:2|3:2,0:0:0:0:
259,145,115775,1,2,1:2:0:0:
136,71,116108,1,2,3:2:0:0:
273,23,116442,6,0,L|336:17,1,58.4999982147217,4|0,3:2|0:0,0:0:0:0:
413,14,116775,2,0,P|437:66|407:137,1,116.999996429443,2|2,1:2|3:2,0:0:0:0:
351,164,117275,1,2,3:2:0:0:
351,164,117442,2,0,B|338:206|338:206|358:284,1,116.999996429443,2|0,1:2|0:0,0:0:0:0:
337,356,117942,6,0,P|306:347|281:315,1,58.4999982147217,2|2,3:2|1:2,0:0:0:0:
209,303,118275,1,2,3:2:0:0:
209,303,118442,2,0,P|223:273|250:254,1,58.4999982147217,2|2,0:2|3:2,0:0:0:0:
260,177,118775,2,0,P|290:187|314:215,1,58.4999982147217,2|2,1:2|0:2,0:0:0:0:
348,277,119108,6,0,L|371:158,1,116.999996429443,6|0,1:2|3:2,0:0:0:0:
464,210,119608,6,0,L|481:84,1,116.999996429443,6|0,1:2|0:0,0:0:0:0:
382,58,120108,6,0,L|389:15,2,29.2499991073609,6|0|0,1:2|3:0|1:2,0:0:0:0:
494,0,120442,5,6,3:2:0:0:
494,0,120608,1,6,1:2:0:0:
100,52,121775,6,0,L|107:133,1,65,6|0,3:2|0:0,0:0:0:0:
180,28,122108,2,0,L|194:151,1,97.5,10|0,1:2|0:0,0:0:0:0:
180,166,122442,1,2,3:2:0:0:
225,237,122608,1,2,3:2:0:0:
184,311,122775,1,2,1:2:0:0:
247,367,122942,6,0,P|311:380|361:313,1,130,6|2,3:2|3:2,0:0:0:0:
357,251,123442,1,2,1:2:0:0:
357,251,123775,1,2,3:2:0:0:
389,172,123942,1,2,3:2:0:0:
355,94,124108,1,2,1:2:0:0:
405,25,124275,6,0,P|339:6|290:43,1,130,2|2,0:2|0:2,0:0:0:0:
218,79,124775,2,0,L|128:69,1,65,2|0,1:2|0:0,0:0:0:0:
292,128,125108,1,2,3:2:0:0:
292,128,125275,2,0,L|368:134,1,65,2|2,3:2|1:2,0:0:0:0:
213,157,125608,6,0,L|223:297,1,130,2|2,3:2|3:2,0:0:0:0:
279,349,126108,2,0,P|235:322|155:368,1,130,2|0,1:2|3:2,0:0:0:0:
87,378,126608,1,2,3:2:0:0:
49,301,126775,1,2,1:2:0:0:
91,227,126942,1,2,0:2:0:0:
46,155,127108,6,0,L|39:84,1,65,6|0,3:2|0:0,0:0:0:0:
125,155,127442,2,0,L|116:52,1,97.5,2|0,1:2|0:0,0:0:0:0:
140,22,127775,1,2,3:2:0:0:
213,63,127942,2,0,P|252:61|285:40,1,65,2|2,3:2|1:2,0:0:0:0:
351,14,128275,6,0,P|417:21|448:77,1,130,6|2,3:2|3:2,0:0:0:0:
422,152,128775,2,0,L|349:142,1,65,2|0,1:2|0:0,0:0:0:0:
325,222,129108,1,2,3:2:0:0:
325,222,129275,2,0,L|392:232,1,65,2|2,3:2|1:2,0:0:0:0:
271,148,129608,6,0,B|229:193|229:193|248:280,1,130,2|2,0:2|0:2,0:0:0:0:
229,343,130108,2,0,P|269:343|298:319,1,65,2|0,1:2|1:2,0:0:0:0:
359,282,130442,1,2,3:2:0:0:
426,332,130608,2,0,L|415:384,2,32.5,2|0|2,3:2|3:0|1:2,0:0:0:0:
359,282,130942,6,0,L|350:144,1,130,2|2,3:2|3:2,0:0:0:0:
306,79,131442,2,0,P|341:63|370:71,1,65,2|2,1:2|3:2,0:0:0:0:
439,26,131775,2,0,L|461:65,3,32.5,2|0|0|0,3:2|3:2|3:2|1:2,0:0:0:0:
450,96,132108,2,0,L|445:144,3,32.5,2|8|4|4,1:2|0:3|0:3|0:3,0:0:0:0:
456,169,132442,6,0,L|375:174,1,65,6|0,3:2|0:0,0:0:0:0:
474,246,132775,2,0,L|361:254,1,97.5,10|0,1:2|0:0,0:0:0:0:
338,235,133108,1,2,3:2:0:0:
263,274,133275,1,2,3:2:0:0:
184,239,133442,1,2,1:2:0:0:
104,263,133608,6,0,P|70:206|106:131,1,130,6|2,3:2|3:2,0:0:0:0:
148,90,134108,1,2,1:2:0:0:
148,90,134442,1,2,3:2:0:0:
227,117,134608,1,2,3:2:0:0:
302,77,134775,1,2,1:2:0:0:
381,106,134942,6,0,L|369:257,1,130,2|0,0:2|0:0,0:0:0:0:
452,258,135442,2,0,L|459:172,1,65,2|0,1:2|0:0,0:0:0:0:
391,313,135775,6,0,L|401:367,2,32.5,2|0|0,3:2|3:2|3:2,0:0:0:0:
370,235,136108,2,0,L|279:220,1,65,2|0,1:2|0:0,0:0:0:0:
227,257,136442,1,6,3:2:0:0:
227,257,136525,1,0,3:0:0:0:
227,257,136608,1,0,3:0:0:0:
155,301,136775,2,0,L|75:290,1,65,2|0,1:2|0:0,0:0:0:0:
29,233,137108,1,6,3:2:0:0:
29,233,137275,1,0,3:2:0:0:
92,176,137442,2,0,P|116:125|96:73,1,97.5,2|0,1:2|0:0,0:0:0:0:
76,57,137775,6,0,L|219:71,1,130,6|0,3:2|1:2,0:0:0:0:
263,8,138275,2,0,P|295:65|277:124,1,130,8|0,0:3|3:2,0:0:0:0:
196,149,138775,2,0,P|179:191|190:237,1,65,0|0,1:2|0:0,0:0:0:0:
127,276,139108,6,0,P|155:295|202:288,1,65,6|2,3:2|0:2,0:0:0:0:
230,367,139442,1,2,1:2:0:0:
230,367,139608,2,0,P|266:316|243:242,1,130,6|2,3:2|3:2,0:0:0:0:
179,209,140108,2,0,L|190:143,1,65,2|2,1:2|0:2,0:0:0:0:
276,109,140442,6,0,L|265:182,1,65,6|2,3:2|0:2,0:0:0:0:
202,63,140775,1,2,1:2:0:0:
202,63,140942,2,0,P|252:22|317:35,1,130,6|2,3:2|3:2,0:0:0:0:
396,22,141442,1,2,1:2:0:0:
396,22,141608,6,0,L|377:157,1,130,2|2,3:2|3:2,0:0:0:0:
468,117,142108,1,2,1:2:0:0:
468,117,142275,2,0,L|456:197,1,65,2|0,3:2|0:0,0:0:0:0:
393,235,142608,5,2,3:2:0:0:
311,212,142775,1,2,1:2:0:0:
230,238,142942,1,2,3:2:0:0:
150,210,143108,6,0,P|134:170|148:126,1,65,2|2,3:2|3:2,0:0:0:0:
58,114,143442,1,2,1:2:0:0:
58,114,143608,2,0,P|101:64|163:63,1,130,2|2,3:2|3:2,0:0:0:0:
239,28,144108,1,2,1:2:0:0:
239,28,144275,6,0,L|250:171,1,130,2|2,3:2|3:2,0:0:0:0:
323,68,144775,1,2,1:2:0:0:
323,68,144942,2,0,L|330:159,1,65,2|0,3:2|0:0,0:0:0:0:
405,88,145275,1,2,3:2:0:0:
396,172,145442,2,0,P|435:171|465:145,1,65,2|2,1:2|3:2,0:0:0:0:
483,77,145775,6,0,P|448:20|369:24,1,130,6|0,1:2|0:0,0:0:0:0:
323,68,146275,1,0,0:0:0:0:
243,39,146442,2,0,L|105:23,1,130,2|0,1:2|0:0,0:0:0:0:
113,24,147108,6,0,P|79:69|98:158,1,130,6|0,1:2|0:0,0:0:0:0:
134,208,147608,1,0,0:0:0:0:
210,172,147775,2,0,P|242:164|294:180,1,65,2|0,1:2|0:0,0:0:0:0:
343,216,148108,2,0,L|337:259,4,32.5,0|0|2|0|2,1:2|1:2|1:2|1:2|0:2,0:0:0:0:
343,216,149442,5,2,1:2:0:0:
343,216,149775,6,0,L|357:90,1,116.999996429443,6|2,3:2|0:2,0:0:0:0:
309,39,150275,2,0,P|260:14|190:42,1,116.999996429443,6|2,3:2|0:2,0:0:0:0:
92,136,150942,6,0,L|105:263,1,116.999996429443,6|2,3:2|0:2,0:0:0:0:
162,301,151442,1,2,0:2:0:0:
162,301,151608,2,0,B|113:294|113:294|88:311|88:311|32:304,2,116.999996429443,8|8|2,0:3|0:3|3:2,0:0:0:0:
233,328,152442,6,0,P|265:271|239:210,1,116.999996429443,6|2,3:2|0:2,0:0:0:0:
194,173,152942,2,0,L|207:47,1,116.999996429443,6|2,3:2|0:2,0:0:0:0:
353,18,153608,1,6,3:2:0:0:
416,59,153775,6,0,L|434:107,2,38.9999988098145,0|0|0,1:2|1:2|1:2,0:0:0:0:
378,92,154108,2,0,L|368:142,2,38.9999988098145,8|0|8,0:3|0:0|0:3,0:0:0:0:
326,93,154442,6,0,L|302:135,2,38.9999988098145,8|8|0,0:3|0:3|3:2,0:0:0:0:
286,60,154775,2,0,L|226:81,2,38.9999988098145,4|0|0,0:3|3:2|3:2,0:0:0:0:
264,14,155108,6,0,L|125:9,1,116.999996429443,6|2,3:2|1:2,0:0:0:0:
75,36,155608,2,0,P|45:84|63:152,1,116.999996429443,6|8,3:2|0:3,0:0:0:0:
98,203,156108,1,4,0:3:0:0:
98,203,156275,6,0,L|223:208,1,116.999996429443,6|4,3:2|2:3,0:0:0:0:
273,257,156775,2,0,P|288:232|289:190,1,58.4999982147217,2|4,3:2|0:3,0:0:0:0:
252,135,157108,2,0,L|171:130,1,58.4999982147217,4|8,0:3|0:3,0:0:0:0:
291,203,157442,2,0,L|358:203,1,58.4999982147217,2|4,3:2|0:3,0:0:0:0:
425,197,157775,6,0,P|452:158|439:84,1,116.999996429443,6|2,3:2|1:2,0:0:0:0:
380,49,158275,2,0,P|326:42|261:37,1,116.999996429443,6|8,3:2|0:3,0:0:0:0:
189,17,158775,1,4,0:3:0:0:
189,17,158942,6,0,P|197:86|200:148,1,116.999996429443,6|8,3:2|0:3,0:0:0:0:
254,186,159442,2,0,P|241:214|238:269,1,58.4999982147217,2|4,1:2|0:3,0:0:0:0:
203,309,159775,2,0,P|215:345|212:375,1,58.4999982147217,2|2,3:2|3:2,0:0:0:0:
138,353,160108,1,2,1:2:0:0:
138,353,160275,1,2,1:2:0:0:
67,320,160442,6,0,L|78:193,1,104,6|0,3:2|0:0,0:0:0:0:
128,166,160942,1,0,3:2:0:0:
128,166,161108,2,0,P|72:180|26:148,1,104,2|2,1:2|1:2,0:0:0:0:
30,85,161608,2,0,B|70:64|70:64|143:84,2,104,6|2|2,3:2|1:2|0:2,0:0:0:0:
33,158,162442,1,0,1:2:0:0:
175,184,162775,2,0,L|238:172,1,52,2|2,3:2|1:2,0:0:0:0:
279,125,163108,6,0,P|301:176|278:229,1,104,6|2,3:2|3:2,0:0:0:0:
222,254,163608,1,0,3:2:0:0:
222,254,163775,2,0,L|212:366,1,104,2|2,1:2|3:2,0:0:0:0:
282,379,164275,1,6,3:2:0:0:
377,269,164608,1,2,1:2:0:0:
377,269,164775,2,0,B|415:273|415:273|432:284|432:284|495:291,2,104,2|2|2,3:2|1:2|3:2,0:0:0:0:
388,123,165775,6,0,L|279:114,1,104,6|0,3:2|3:2,0:0:0:0:
237,58,166275,1,2,3:2:0:0:
237,58,166442,2,0,P|210:98|221:155,1,104,2|2,1:2|3:2,0:0:0:0:
267,204,166942,2,0,L|277:317,2,104,6|2|2,3:2|1:2|3:2,0:0:0:0:
218,150,167775,1,0,1:2:0:0:
176,210,167942,2,0,P|134:228|73:205,1,104,2|0,0:2|1:2,0:0:0:0:
30,157,168442,6,0,L|48:37,1,104,6|0,3:2|3:2,0:0:0:0:
108,17,168942,1,0,3:2:0:0:
108,17,169108,2,0,P|159:17|199:66,1,104,2|2,1:2|1:2,0:0:0:0:
246,103,169608,2,0,L|368:87,1,104,2|2,3:2|1:2,0:0:0:0:
419,122,170108,1,0,3:2:0:0:
419,122,170275,1,0,0:0:0:0:
357,164,170442,6,0,L|350:212,3,26,2|0|0|0,1:2|0:0|1:2|1:2,0:0:0:0:
372,220,170775,2,0,L|381:268,3,26,2|0|0|0,1:2|1:2|1:2|1:2,0:0:0:0:
353,279,171108,5,6,3:2:0:0:
229,170,171442,2,0,L|221:229,1,58.4999982147217,2|2,1:2|0:2,0:0:0:0:
157,133,171775,2,0,L|168:61,1,58.4999982147217,2|0,3:2|3:2,0:0:0:0:
81,168,172108,2,0,L|69:243,1,58.4999982147217,2|0,1:2|0:0,0:0:0:0:
6,138,172442,6,0,L|27:9,2,116.999996429443,2|2|2,3:2|1:2|3:2,0:0:0:0:
81,168,173275,1,2,0:2:0:0:
81,168,173442,2,0,L|70:244,1,58.4999982147217,2|2,1:2|0:2,0:0:0:0:
157,133,173775,5,6,3:2:0:0:
263,257,174108,2,0,L|272:322,1,58.4999982147217,2|0,1:2|0:0,0:0:0:0:
328,210,174442,2,0,L|315:138,1,58.4999982147217,2|0,3:2|0:0,0:0:0:0:
404,227,174775,2,0,L|419:300,1,58.4999982147217,2|0,1:2|0:0,0:0:0:0:
465,179,175108,6,0,L|440:54,2,116.999996429443,2|2|2,3:2|1:2|3:2,0:0:0:0:
404,227,175942,1,0,0:0:0:0:
404,227,176108,2,0,L|418:300,1,58.4999982147217,2|0,1:2|1:2,0:0:0:0:
328,210,176442,5,6,3:2:0:0:
220,333,176775,2,0,P|190:317|180:294,1,58.4999982147217,2|0,1:2|0:0,0:0:0:0:
99,281,177108,2,0,P|111:248|141:222,1,58.4999982147217,2|0,3:2|0:0,0:0:0:0:
117,149,177442,2,0,P|158:154|182:174,1,58.4999982147217,2|0,1:2|0:0,0:0:0:0:
230,105,177775,6,0,P|257:150|224:227,2,116.999996429443,2|2|2,3:2|1:2|3:2,0:0:0:0:
153,74,178608,1,0,0:0:0:0:
153,74,178775,2,0,L|161:8,1,58.4999982147217,2|2,1:2|0:2,0:0:0:0:
75,101,179108,5,6,3:2:0:0:
51,273,179442,6,0,L|126:296,1,58.4999982147217,2|0,1:2|0:0,0:0:0:0:
170,218,179775,2,0,L|91:195,1,58.4999982147217,2|0,3:2|0:0,0:0:0:0:
75,101,180108,2,0,L|150:124,1,58.4999982147217,2|0,1:2|0:0,0:0:0:0:
188,49,180442,6,0,B|251:62|251:62|289:42|289:42|439:70,1,253.499988395691,6|0,3:2|0:0,0:0:0:0:
483,4,181108,6,0,P|514:87|469:152,1,168.999992263794,2|0,3:2|1:2,0:0:0:0:
384,151,181608,1,0,1:0:0:0:
384,151,181692,1,0,1:0:0:0:
384,151,181775,1,6,3:2:0:0:
256,192,181942,12,0,184108,0:0:0:0:
86,80,184442,5,6,1:2:0:0:
86,80,184608,1,6,1:2:0:0:
302,274,185275,5,6,1:2:0:0:
302,274,185608,2,0,L|426:268,1,104,6|6,1:2|1:2,0:0:0:0:
471,301,186108,1,6,1:2:0:0:
105,303,197775,6,0,L|97:184,2,104,2|2|0,0:2|0:2|0:0,0:0:0:0:
163,346,198608,2,0,P|189:353|221:351,1,52,0|0,0:0|0:0,0:0:0:0:
274,311,198942,2,0,B|307:275|376:289|376:289|403:334,1,156,0|2,0:0|0:2,0:0:0:0:
465,198,199775,1,0,0:0:0:0:
465,198,199942,2,0,L|474:136,1,52,0|2,0:0|0:2,0:0:0:0:
505,81,200275,6,0,B|469:122|414:113|414:113|368:57,1,156,0|2,0:0|0:2,0:0:0:0:
244,16,201108,1,0,0:0:0:0:
112,78,201442,1,2,0:2:0:0:
250,122,201775,6,0,L|241:215,1,78,6|0,3:2|0:0,0:0:0:0:
228,233,202108,1,2,0:2:0:0:
92,178,202442,2,0,L|81:269,1,78,6|0,3:2|0:0,0:0:0:0:
65,287,202775,1,2,0:2:0:0:
209,363,203108,6,0,P|261:331|325:351,1,116.999996429443,6|0,3:2|0:0,0:0:0:0:
386,377,203608,2,0,L|399:247,1,116.999996429443,2|0,3:2|3:2,0:0:0:0:
351,192,204108,1,2,0:2:0:0:
465,74,204442,6,0,P|434:82|393:83,1,58.4999982147217,6|2,3:2|3:2,0:0:0:0:
335,44,204775,1,2,1:2:0:0:
335,44,204942,2,0,P|278:36|214:25,1,116.999996429443,6|2,3:2|3:2,0:0:0:0:
149,68,205442,1,2,1:2:0:0:
149,68,205608,1,2,0:2:0:0:
74,15,205775,6,0,P|61:53|63:88,1,65,6|2,3:2|3:2,0:0:0:0:
115,142,206108,1,2,1:2:0:0:
115,142,206275,2,0,P|165:101|230:114,1,130,2|2,3:2|3:2,0:0:0:0:
269,183,206775,1,2,1:2:0:0:
269,183,206942,6,0,P|339:175|410:168,1,130,2|2,3:2|3:2,0:0:0:0:
481,182,207442,1,2,1:2:0:0:
481,182,207608,2,0,P|481:150|462:120,1,65,2|0,3:2|0:0,0:0:0:0:
400,66,207942,5,2,3:2:0:0:
321,97,208108,1,2,1:2:0:0:
241,68,208275,1,2,0:2:0:0:
169,112,208442,6,0,P|153:72|167:28,1,65,2|2,3:2|0:2,0:0:0:0:
109,165,208775,1,2,1:2:0:0:
109,165,208942,2,0,P|160:148|227:199,1,130,2|2,3:2|3:2,0:0:0:0:
263,259,209442,1,2,1:2:0:0:
263,259,209608,6,0,L|279:118,1,130,2|2,3:2|3:2,0:0:0:0:
232,58,210108,1,2,1:2:0:0:
232,58,210275,2,0,P|257:45|300:45,1,65,2|0,3:2|0:0,0:0:0:0:
352,103,210608,1,2,3:2:0:0:
414,45,210775,2,0,P|433:78|426:124,1,65,2|2,1:2|0:2,0:0:0:0:
504,150,211108,6,0,P|455:189|391:172,1,130,6|2,3:2|1:2,0:0:0:0:
352,103,211608,1,0,3:2:0:0:
286,156,211775,2,0,L|148:140,1,130,2|2,0:2|1:2,0:0:0:0:
91,87,212275,6,0,B|61:130|61:130|90:234,1,130,2|8,0:2|0:3,0:0:0:0:
131,273,212775,1,2,1:2:0:0:
131,273,212942,1,8,0:3:0:0:
68,328,213108,2,0,P|139:315|184:367,1,130,2|2,1:2|1:2,0:0:0:0:
345,375,213775,5,2,0:2:0:0:
345,375,214108,2,0,L|357:256,1,97.5,14|0,1:2|0:0,0:0:0:0:
378,242,214442,1,2,3:2:0:0:
305,199,214608,1,2,3:2:0:0:
229,238,214775,1,2,1:2:0:0:
149,209,214942,6,0,P|120:153|162:82,1,130,2|2,3:2|3:2,0:0:0:0:
203,34,215442,1,2,1:2:0:0:
203,34,215775,1,2,3:2:0:0:
281,64,215942,1,2,3:2:0:0:
357,27,216108,1,2,1:2:0:0:
433,62,216275,6,0,L|420:206,1,130,2|0,0:2|0:0,0:0:0:0:
481,251,216775,2,0,P|445:272|395:267,1,65,2|0,1:2|0:0,0:0:0:0:
346,236,217108,1,2,3:2:0:0:
346,236,217275,2,0,L|280:226,1,65,2|2,3:2|1:2,0:0:0:0:
219,168,217608,6,0,P|242:238|203:289,1,130,2|2,3:2|3:2,0:0:0:0:
169,353,218108,2,0,L|40:331,1,130,2|0,1:2|3:2,0:0:0:0:
19,249,218608,1,2,3:2:0:0:
61,176,218775,1,2,1:2:0:0:
20,101,218942,1,2,3:2:0:0:
62,28,219108,6,0,P|102:33|128:60,1,65,6|0,3:2|0:0,0:0:0:0:
164,121,219442,2,0,L|267:101,1,97.5,2|0,1:2|0:0,0:0:0:0:
291,74,219775,1,2,3:2:0:0:
369,106,219942,2,0,P|378:68|363:20,1,65,2|0,3:2|1:2,0:0:0:0:
312,160,220275,6,0,P|376:143|431:182,1,130,6|2,3:2|3:2,0:0:0:0:
471,246,220775,2,0,L|460:328,1,65,2|0,1:2|0:0,0:0:0:0:
372,304,221108,1,2,3:2:0:0:
372,304,221275,2,0,L|385:226,1,65,2|2,3:2|1:2,0:0:0:0:
414,373,221608,6,0,B|357:385|357:385|275:347,1,130,2|2,0:2|0:2,0:0:0:0:
207,362,222108,2,0,P|209:326|247:283,1,65,2|2,1:2|1:2,0:0:0:0:
302,270,222442,1,2,3:2:0:0:
244,208,222608,2,0,L|233:149,2,32.5,2|0|2,3:2|3:0|1:2,0:0:0:0:
302,270,222942,6,0,P|368:271|405:212,1,130,2|2,3:2|3:2,0:0:0:0:
481,190,223442,2,0,P|462:163|430:144,1,65,2|2,1:2|3:2,0:0:0:0:
438,61,223775,2,0,L|390:71,3,32.5,8|0|0|0,0:3|0:0|3:2|1:2,0:0:0:0:
367,84,224108,2,0,L|310:75,3,32.5,2|0|8|4,1:2|1:2|0:3|0:3,0:0:0:0:
294,66,224442,6,0,L|303:147,1,65,6|0,3:2|0:0,0:0:0:0:
210,68,224775,2,0,L|223:185,1,97.5,10|0,1:2|0:0,0:0:0:0:
222,207,225108,1,2,3:2:0:0:
142,178,225275,1,2,3:2:0:0:
71,225,225442,1,2,1:2:0:0:
5,172,225608,6,0,P|-9:114|36:57,1,130,6|2,3:2|3:2,0:0:0:0:
105,22,226108,1,2,1:2:0:0:
105,22,226442,1,2,3:2:0:0:
182,54,226608,1,2,3:2:0:0:
260,21,226775,1,2,1:2:0:0:
334,61,226942,6,0,L|322:212,1,130,2|0,0:2|0:0,0:0:0:0:
376,256,227442,2,0,P|350:272|314:268,1,65,2|0,1:2|0:0,0:0:0:0:
243,225,227775,6,0,L|207:231,2,32.5,2|0|0,3:2|3:2|3:2,0:0:0:0:
240,309,228108,2,0,L|162:322,1,65,2|0,1:2|0:0,0:0:0:0:
92,313,228442,1,6,3:2:0:0:
92,313,228525,1,0,3:3:0:0:
92,313,228608,1,0,3:3:0:0:
8,298,228775,2,0,L|16:233,1,65,2|0,1:2|0:0,0:0:0:0:
61,162,229108,1,6,3:2:0:0:
30,83,229275,1,0,3:2:0:0:
78,13,229442,2,0,P|130:12|163:42,1,97.5,2|0,1:2|0:0,0:0:0:0:
187,74,229775,6,0,L|330:60,1,130,6|0,3:2|1:2,0:0:0:0:
396,56,230275,2,0,P|444:96|439:166,1,130,8|0,0:3|3:2,0:0:0:0:
367,197,230775,2,0,P|357:153|376:116,1,65,0|0,1:2|3:2,0:0:0:0:
431,249,231108,6,0,L|298:236,1,130,6|2,3:2|1:2,0:0:0:0:
227,276,231608,2,0,P|254:215|229:152,1,130,6|2,3:2|3:2,0:0:0:0:
208,77,232108,2,0,P|173:96|157:120,1,65,2|2,1:2|0:2,0:0:0:0:
76,137,232442,6,0,L|2:129,1,65,6|2,3:2|0:2,0:0:0:0:
133,197,232775,1,2,1:2:0:0:
79,264,232942,2,0,P|133:232|192:254,1,130,2|2,3:2|3:2,0:0:0:0:
258,307,233442,1,2,1:2:0:0:
312,242,233608,6,0,L|325:88,1,130,2|2,3:2|3:2,0:0:0:0:
242,87,234108,1,2,1:2:0:0:
242,87,234275,2,0,L|230:178,1,65,2|0,3:2|0:0,0:0:0:0:
160,58,234608,1,2,3:2:0:0:
160,58,234775,2,0,L|150:142,1,65,2|2,1:2|3:2,0:0:0:0:
167,205,235108,6,0,P|126:165|53:178,1,130,6|0,1:2|0:0,0:0:0:0:
7,241,235608,1,0,0:0:0:0:
7,241,235775,2,0,L|27:376,1,130,0|0,1:2|0:0,0:0:0:0:
194,348,236442,6,0,P|245:310|316:340,1,130,6|0,1:2|0:0,0:0:0:0:
375,373,236942,1,0,0:0:0:0:
375,373,237108,2,0,P|385:338|376:292,1,65,0|0,1:2|0:0,0:0:0:0:
332,241,237442,2,0,L|340:193,4,32.5,0|0|2|0|2,1:2|1:2|1:2|1:2|0:2,0:0:0:0:
332,241,238775,5,2,1:2:0:0:
422,98,239108,6,0,P|379:58|300:82,1,130,6|0,3:2|1:2,0:0:0:0:
242,115,239608,1,2,0:2:0:0:
242,115,239775,2,0,P|190:77|120:97,1,130,8|2,0:3|0:2,0:0:0:0:
65,145,240275,6,0,B|45:189|45:189|63:273,1,130,6|2,3:2|3:2,0:0:0:0:
74,352,240775,2,0,P|107:341|133:302,1,65,2|8,3:2|0:3,0:0:0:0:
145,236,241108,6,0,L|205:252,2,43.3333333333333,2|8|8,3:2|0:3|0:3,0:0:0:0:
230,264,241442,2,0,L|283:258,2,43.3333333333333,2|0|0,3:2|1:2|0:0,0:0:0:0:
317,268,241775,6,0,P|348:209|316:142,1,130,6|2,3:2|1:2,0:0:0:0:
271,89,242275,1,2,1:2:0:0:
271,89,242442,2,0,P|227:91|195:111,1,65,2|2,3:2|1:2,0:0:0:0:
133,139,242775,2,0,L|96:135,3,32.5,8|8|4|4,0:3|0:3|0:3|0:3,0:0:0:0:
59,127,243108,6,0,B|74:183|74:183|57:259,1,130,6|8,3:2|0:3,0:0:0:0:
16,327,243608,1,8,0:3:0:0:
79,381,243775,6,0,P|92:358|95:324,2,43.3333333333333,2|2|0,1:2|1:2|1:2,0:0:0:0:
140,318,244108,2,0,P|138:285|126:256,2,43.3333333333333,2|8|4,3:2|0:3|0:3,0:0:0:0:
158,229,244442,6,0,P|116:194|28:222,1,130,6|0,3:2|1:2,0:0:0:0:
5,279,244942,1,6,3:2:0:0:
