osu file format v14

[General]
AudioFilename: Extra Magic Hours.mp3
AudioLeadIn: 1500
PreviewTime: 53055
Countdown: 0
SampleSet: Soft
StackLeniency: 0.7
Mode: 2
LetterboxInBreaks: 0
WidescreenStoryboard: 1

[Editor]
DistanceSpacing: 1
BeatDivisor: 4
GridSize: 8
TimelineZoom: 1.5

[Metadata]
Title:EXTRA MAGIC HOUR
TitleUnicode:エクストラ・マジック・アワー
Artist:AKINO with bless4
ArtistUnicode:AKINO with bless4
Creator:Latifah-sama
Version:Magic
Source:Amagi Brilliant Park
Tags:甘城ブリリアントパーク TV Size opening
BeatmapID:1073865
BeatmapSetID:237548

[Difficulty]
HPDrainRate:6
CircleSize:4
OverallDifficulty:9
ApproachRate:9.2
SliderMultiplier:1.92
SliderTickRate:1

[Events]
//Background and Video events
0,0,"uriage4613.jpg",0,0
//Break Periods
//Storyboard Layer 0 (Background)
//Storyboard Layer 1 (Fail)
//Storyboard Layer 2 (Pass)
//Storyboard Layer 3 (Foreground)
//Storyboard Sound Samples

[TimingPoints]
472,333.333333333333,4,2,2,80,1,0
472,-120.481927710843,4,2,2,80,0,0
4763,-120.481927710843,4,2,1,60,0,0
5805,-120.481927710843,4,2,1,50,0,0
6471,-120.481927710843,4,2,1,40,0,0
7138,-100,4,2,1,75,0,0
7971,-100,4,2,1,55,0,0
8055,-100,4,2,1,75,0,0
8138,-100,4,2,1,55,0,0
8221,-100,4,2,1,75,0,0
9971,-100,4,2,1,40,0,0
10138,-100,4,2,1,50,0,0
10305,-100,4,2,1,75,0,0
10471,-100,4,2,1,40,0,0
10805,-100,4,2,1,50,0,0
10971,-100,4,2,1,75,0,0
11138,-100,4,1,1,75,0,0
19138,-100,4,1,1,65,0,0
19221,-100,4,1,1,45,0,0
19638,-100,4,1,1,65,0,0
19721,-100,4,1,1,45,0,0
20138,-100,4,1,1,65,0,0
20221,-100,4,1,1,45,0,0
20471,-100,4,1,1,65,0,0
21138,-100,4,2,1,60,0,0
21805,-120.481927710843,4,2,1,70,0,0
31638,-120.481927710843,4,1,1,70,0,0
31971,-120.481927710843,4,2,1,70,0,0
37555,-120.481927710843,4,2,1,40,0,0
37805,-100,4,2,1,75,0,0
42471,-100,4,2,1,40,0,0
42971,-100,4,2,1,50,0,0
43138,-172.413793103448,4,2,1,70,0,0
45471,-172.413793103448,4,2,1,60,0,0
46138,-172.413793103448,4,2,1,70,0,0
47805,-120.481927710843,4,2,1,70,0,0
48471,-120.481927710843,4,2,1,75,0,0
52221,-120.481927710843,4,2,1,50,0,0
52471,-120.481927710843,4,2,1,75,0,0
53138,-172.413793103448,4,2,1,70,0,0
53805,-100,4,2,2,70,0,1
53971,-100,4,2,1,80,0,1
57138,-100,4,2,1,60,0,1
57471,-100,4,2,1,80,0,1
61638,-100,4,2,1,60,0,1
61805,-100,4,2,1,80,0,1
63805,-100,4,2,1,50,0,1
64138,-100,4,2,1,60,0,1
64388,-100,4,2,1,60,0,0
64471,-100,4,2,2,80,0,1
64638,-100,4,2,1,80,0,1
66471,-100,4,2,1,60,0,1
66638,-100,4,2,1,80,0,1
67888,-100,4,2,1,60,0,1
68055,-100,4,2,1,80,0,1
70221,-100,4,2,1,60,0,1
70305,-100,4,2,1,80,0,1
70471,-100,4,2,1,60,0,1
70721,-100,4,2,1,80,0,1
73305,-100,4,2,1,60,0,1
73388,-100,4,2,1,80,0,1
74888,-100,4,2,1,50,0,1
75138,-100,4,2,1,80,0,1
77471,-100,4,2,1,50,0,1
77805,-100,4,2,1,80,0,0
78471,-172.413793103448,4,2,1,80,0,0
79138,-100,4,2,2,70,0,0
79305,-100,4,2,1,75,0,0
81138,-100,4,2,1,45,0,0
81583,-100,4,2,1,75,0,0
84138,-100,4,2,1,45,0,0
84471,-100,4,2,1,75,0,0
84971,344.827586206897,4,2,2,75,1,0
85315,-100,4,2,1,75,0,0
85919,-100,4,2,1,30,0,0
88074,-100,4,2,1,75,0,0

[Colours]
Combo1 : 255,255,255
Combo2 : 255,255,255
Combo3 : 255,255,255
Combo4 : 255,255,255

[HitObjects]
440,120,472,6,0,L|360:120,1,79.6800011550293,2|0,0:0|0:0,0:0:0:0:
56,224,805,1,0,0:0:0:0:
176,256,971,1,0,0:0:0:0:
288,288,1138,1,0,0:0:0:0:
400,328,1305,1,0,0:0:0:0:
216,128,1471,6,0,L|176:58,1,79.6800011550293,2|0,0:0|0:0,0:0:0:0:
72,336,1805,1,0,0:0:0:0:
184,280,1971,1,0,0:0:0:0:
312,240,2138,1,0,0:0:0:0:
472,272,2305,1,0,0:0:0:0:
224,128,2471,6,0,L|192:55,1,79.6800011550293,2|0,0:0|0:0,0:0:0:0:
392,264,2846,1,0,0:0:0:0:
256,128,3471,6,0,L|328:80,1,79.6800011550293,2|0,0:0|0:0,0:0:0:0:
144,208,3805,1,0,0:0:0:0:
256,128,4471,6,0,L|239:49,1,79.6800011550293,2|0,0:0|0:0,0:0:0:0:
88,144,4763,2,0,L|40:104,1,59.760000866272
192,168,4992,2,0,L|128:184,2,59.760000866272,0|0|0,0:0|0:0|0:0,0:0:0:0:
288,48,5388,1,0,0:0:0:0:
352,48,5471,5,0,0:0:0:0:
416,48,5555,1,0,0:0:0:0:
224,48,5638,1,0,0:0:0:0:
160,48,5721,1,0,0:0:0:0:
96,48,5805,1,0,0:0:0:0:
288,192,5888,1,0,0:0:0:0:
360,192,5971,1,0,0:0:0:0:
432,192,6055,1,0,0:0:0:0:
224,192,6138,1,0,0:0:0:0:
152,192,6221,1,0,0:0:0:0:
80,192,6305,1,0,0:0:0:0:
288,312,6388,1,0,0:0:0:0:
368,312,6471,1,0,0:0:0:0:
448,312,6554,1,0,0:0:0:0:
224,312,6637,1,0,0:0:0:0:
144,312,6721,1,0,0:0:0:0:
64,312,6804,1,0,0:0:0:0:
144,248,6887,1,0,0:0:0:0:
216,192,6971,1,0,0:0:0:0:
152,192,7054,1,0,0:0:0:0:
88,192,7138,1,8,0:0:0:0:
440,144,7305,5,8,1:3:0:0:
360,144,7388,1,0,0:0:0:0:
272,144,7471,2,0,P|251:86|251:38,1,96,4|8,1:3|0:0,0:0:0:0:
168,208,7805,2,0,L|224:208,1,48,12|0,0:0|0:0,0:0:0:0:
104,128,7971,2,0,L|168:128,1,48,8|0,0:3|0:0,0:0:0:0:
32,48,8138,2,0,L|96:48,1,48,4|0,0:3|0:0,0:0:0:0:
432,128,8305,6,0,B|388:148|340:132|340:132|328:156|332:180,1,144,12|0,0:0|0:0,0:0:0:0:
184,272,8638,2,0,P|192:232|192:216,1,48,8|0,0:0|0:0,0:0:0:0:
408,232,8805,1,12,0:0:0:0:
256,192,8888,12,8,9805,0:0:0:0:
224,48,9971,5,8,0:0:0:0:
280,96,10055,1,8,0:0:0:0:
336,144,10138,1,4,0:3:0:0:
392,192,10221,1,4,0:3:0:0:
448,240,10305,1,8,0:0:0:0:
120,344,10471,5,8,0:0:0:0:
184,312,10555,1,8,0:0:0:0:
248,280,10638,1,8,0:0:0:0:
312,248,10721,1,8,0:0:0:0:
376,216,10805,1,4,0:3:0:0:
432,168,10888,1,4,0:3:0:0:
368,136,10971,1,8,0:0:0:0:
80,312,11138,6,0,L|192:328,1,96,4|2,0:2|0:0,0:0:0:0:
256,280,11388,1,0,0:0:0:0:
352,256,11471,2,0,L|464:272,1,96,2|0,0:3|0:0,0:0:0:0:
176,64,11805,1,2,0:0:0:0:
104,80,11888,1,0,0:0:0:0:
32,96,11971,1,0,0:0:0:0:
336,96,12138,1,0,0:0:0:0:
128,176,12305,5,2,0:0:0:0:
200,208,12388,1,0,0:0:0:0:
280,240,12471,2,0,L|296:336,1,96,0|0,0:0|0:0,0:0:0:0:
184,280,12721,1,0,0:0:0:0:
80,224,12805,2,0,L|96:320,1,96,2|0,0:0|0:0,0:0:0:0:
328,368,13138,5,8,0:3:0:0:
256,368,13221,1,0,0:0:0:0:
184,360,13305,2,0,L|120:360,1,48
488,256,13471,1,4,0:3:0:0:
416,256,13555,1,0,0:0:0:0:
344,256,13638,2,0,L|288:256,1,48
136,184,13805,6,0,L|232:200,1,96,4|2,0:0|0:0,0:0:0:0:
264,128,14055,1,0,0:0:0:0:
312,56,14138,2,0,L|408:72,1,96
48,168,14471,1,2,0:0:0:0:
248,336,14638,1,0,0:0:0:0:
184,304,14721,1,0,0:0:0:0:
120,272,14805,1,0,0:0:0:0:
360,88,14971,5,2,0:0:0:0:
304,120,15055,1,0,0:0:0:0:
240,152,15138,2,0,L|184:128,1,48
416,264,15305,2,0,L|464:288,1,48
248,272,15471,2,0,L|200:320,1,48,2|0,0:0|0:0,0:0:0:0:
416,144,15638,2,0,L|464:112,1,48
312,136,15805,5,0,0:0:0:0:
144,136,15971,1,8,0:3:0:0:
240,192,16138,1,4,0:3:0:0:
32,192,16305,1,0,0:0:0:0:
152,232,16471,6,0,L|256:256,1,96,4|2,0:0|0:0,0:0:0:0:
88,264,16721,1,0,0:0:0:0:
0,296,16805,2,0,L|104:320,1,96
416,328,17138,1,2,0:0:0:0:
344,288,17221,1,0,0:0:0:0:
264,280,17305,1,0,0:0:0:0:
416,80,17471,5,0,0:0:0:0:
80,40,17638,1,2,0:0:0:0:
152,48,17721,1,0,0:0:0:0:
224,56,17805,2,0,L|312:128,1,96
152,112,18055,1,0,0:0:0:0:
64,144,18138,2,0,L|56:240,1,96,2|0,0:0|0:0,0:0:0:0:
424,352,18471,5,0,0:0:0:0:
352,352,18555,1,0,0:0:0:0:
264,352,18638,2,0,L|216:336,1,48
64,232,18805,1,4,0:3:0:0:
112,184,18888,1,0,0:0:0:0:
232,184,18971,2,0,L|280:184,1,48
440,216,19138,2,0,L|496:240,3,48,2|0|0|0,0:0|0:0|0:0|0:0,0:0:0:0:
120,240,19638,2,0,L|168:216,4,48,2|0|0|0|0,0:0|0:0|0:0|0:0|0:0,0:0:0:0:
432,32,20138,2,0,L|488:56,3,48,2|0|0|0,0:0|0:0|0:0|0:0,0:0:0:0:
256,120,20471,5,2,0:0:0:0:
40,192,20638,2,0,P|104:192|176:224,1,144,2|0,0:0|0:0,0:0:0:0:
392,296,20971,1,8,0:3:0:0:
232,240,21138,1,8,0:0:0:0:
304,208,21221,1,8,0:0:0:0:
384,200,21305,1,8,0:0:0:0:
48,352,21471,1,8,0:0:0:0:
128,344,21555,1,8,0:0:0:0:
208,328,21638,1,8,0:0:0:0:
288,296,21721,1,8,0:0:0:0:
360,248,21805,6,0,L|432:200,1,79.6800011550293,4|0,1:2|0:0,0:0:0:0:
176,80,22138,1,0,1:0:0:0:
296,96,22305,2,0,P|360:112|392:112,1,79.6800011550293,2|0,0:0|1:0,0:0:0:0:
168,200,22638,1,2,0:0:0:0:
472,208,22805,2,0,P|432:216|392:240,1,79.6800011550293,0|0,1:0|0:0,0:0:0:0:
112,312,23138,5,0,1:0:0:0:
304,296,23305,1,0,0:0:0:0:
40,288,23471,2,0,P|96:304|144:304,1,79.6800011550293,2|0,1:2|0:0,0:0:0:0:
296,184,23805,2,0,L|200:200,1,79.6800011550293,0|0,1:0|0:0,0:0:0:0:
408,64,24138,2,0,P|448:88|504:88,1,79.6800011550293,0|0,1:0|0:0,0:0:0:0:
96,272,24471,6,0,B|280:240,1,159.360002310059,2|0,1:2|1:0,0:0:0:0:
424,336,24971,1,0,0:0:0:0:
216,248,25138,2,0,P|192:192|200:160,1,79.6800011550293,0|0,1:0|0:0,0:0:0:0:
64,96,25471,1,0,1:0:0:0:
240,56,25638,1,0,0:0:0:0:
392,120,25805,6,0,L|480:104,1,79.6800011550293,2|0,1:2|0:0,0:0:0:0:
320,120,26138,1,0,1:0:0:0:
208,208,26305,2,0,L|136:184,1,39.8400005775147,0|2,0:0|0:0,0:0:0:0:
408,248,26471,2,0,L|496:280,1,79.6800011550293,0|0,1:0|0:0,0:0:0:0:
152,336,26805,1,0,1:0:0:0:
304,352,26971,1,0,0:0:0:0:
32,240,27138,6,0,P|72:256|120:264,1,79.6800011550293,4|0,1:0|0:0,0:0:0:0:
440,280,27471,1,0,1:0:0:0:
312,96,27638,2,0,L|288:176,1,79.6800011550293,2|0,0:0|1:0,0:0:0:0:
112,232,27971,1,2,0:0:0:0:
232,64,28138,2,0,P|256:112|280:136,1,79.6800011550293,0|0,1:0|0:0,0:0:0:0:
480,280,28471,6,0,P|448:240|392:232,1,79.6800011550293,0|2,1:0|0:0,0:0:0:0:
256,136,28805,1,0,1:0:0:0:
464,104,28971,1,2,0:0:0:0:
304,256,29138,2,0,L|216:272,1,79.6800011550293,0|0,1:0|0:0,0:0:0:0:
32,296,29471,1,0,1:0:0:0:
160,120,29638,1,0,0:0:0:0:
384,96,29805,6,0,B|448:120|448:192|448:192|432:176|416:176,1,159.360002310059,2|0,1:2|1:0,1:0:0:0:
64,208,30305,1,0,0:0:0:0:
288,88,30471,2,0,P|328:64|360:56,1,79.6800011550293,0|2,1:0|0:0,0:0:0:0:
224,224,30805,2,0,P|177:216|148:202,1,79.6800011550293,0|2,1:0|0:0,0:0:0:0:
480,56,31138,5,6,1:0:0:0:
256,160,31305,1,8,0:0:0:0:
336,136,31388,1,8,0:0:0:0:
416,128,31471,1,8,0:0:0:0:
200,64,31638,2,2,B|153:72|129:96|129:96|89:112|49:96,1,159.360002310059,2|8,0:0|0:3,0:0:0:0:
256,40,32138,1,0,0:0:0:0:
32,160,32305,1,8,0:0:0:0:
136,328,32471,6,0,L|48:312,1,79.6800011550293,4|0,0:0|0:0,0:0:0:0:
224,160,32805,1,8,0:0:0:0:
40,64,32971,2,0,L|128:72,1,79.6800011550293,2|0,0:0|0:0,0:0:0:0:
408,112,33305,1,0,0:0:0:0:
264,280,33471,2,0,L|168:264,1,79.6800011550293,10|0,0:0|0:0,0:0:0:0:
480,152,33805,5,2,0:0:0:0:
208,288,33971,1,0,0:0:0:0:
376,216,34138,2,0,L|312:272,1,79.6800011550293,8|0,0:0|0:0,0:0:0:0:
8,128,34471,1,2,0:0:0:0:
144,184,34638,1,0,0:0:0:0:
368,96,34805,2,0,L|480:56,1,119.520001732544,8|0,0:0|0:0,0:0:0:0:
392,152,35138,6,0,L|296:184,1,79.6800011550293,2|0,0:0|0:0,0:0:0:0:
104,152,35471,2,0,L|32:104,1,79.6800011550293,8|0,0:0|0:0,0:0:0:0:
376,320,35805,1,0,0:0:0:0:
216,328,35971,1,0,0:0:0:0:
472,184,36138,1,8,0:0:0:0:
240,112,36305,6,0,B|272:144|272:144|280:224,1,119.520001732544,2|0,0:0|0:0,0:0:0:0:
440,224,36638,1,0,0:0:0:0:
208,192,36805,2,0,P|160:176|112:176,1,79.6800011550293,8|0,0:0|0:0,0:0:0:0:
24,360,37138,1,2,0:0:0:0:
256,288,37305,1,0,0:0:0:0:
104,136,37471,1,8,0:0:0:0:
32,136,37555,1,8,0:0:0:0:
152,80,37638,1,8,0:0:0:0:
224,80,37721,1,8,0:0:0:0:
296,80,37805,6,0,L|432:80,1,96,4|0,0:0|0:0,0:0:0:0:
488,160,38138,1,8,0:0:0:0:
248,360,38305,2,0,B|288:352|288:352|312:240,1,144,2|0,0:0|0:0,0:0:0:0:
192,184,38638,1,0,0:0:0:0:
144,128,38721,1,0,0:0:0:0:
72,112,38805,1,8,0:0:0:0:
328,344,38971,6,0,L|360:192,1,144,4|0,0:0|0:0,0:0:0:0:
464,152,39305,1,2,0:0:0:0:
248,16,39471,2,0,P|200:40|168:80,1,96,8|0,0:0|0:0,0:0:0:0:
32,240,39805,2,0,L|128:216,1,96,0|2,0:0|0:0,0:0:0:0:
480,256,40138,1,8,0:0:0:0:
256,320,40305,1,0,0:0:0:0:
80,192,40471,6,0,P|64:152|64:96,1,96,4|0,0:0|0:0,0:0:0:0:
256,280,40805,1,8,0:0:0:0:
440,208,40971,1,0,0:0:0:0:
80,144,41138,2,0,L|144:232,1,96,2|0,0:0|0:0,0:0:0:0:
464,120,41471,1,8,0:0:0:0:
240,80,41638,6,0,B|336:104|336:104|352:168,1,144,4|0,0:0|0:0,0:0:0:0:
168,184,41971,1,0,0:0:0:0:
432,336,42138,2,0,P|472:288|472:248,1,96,8|0,0:0|0:0,0:0:0:0:
88,40,42471,2,0,L|32:40,1,48,8|8,0:0|0:0,0:0:0:0:
184,88,42638,2,0,L|128:88,1,48,8|8,0:0|0:0,0:0:0:0:
288,128,42805,6,0,L|224:128,1,48
384,176,42971,2,0,L|320:176,1,48,4|0,0:3|0:0,0:0:0:0:
168,272,43138,6,0,B|216:224|320:232,1,139.200004248047,4|0,0:0|0:0,0:0:0:0:
472,328,43805,1,8,0:0:0:0:
32,328,43971,2,0,L|88:296,1,55.6800016992188,4|0,0:3|0:0,0:0:0:0:
368,328,44305,1,0,0:0:0:0:
72,112,44471,6,0,B|200:96,1,111.360003398438,2|0,0:0|0:0,0:0:0:0:
480,192,44971,1,0,0:0:0:0:
424,192,45055,1,0,0:0:0:0:
368,192,45138,2,0,L|328:144,1,55.6800016992188,8|0,0:0|0:0,0:0:0:0:
144,192,45471,2,0,L|184:144,1,55.6800016992188,4|0,0:3|0:0,0:0:0:0:
464,296,45805,6,0,P|432:336|376:360,1,111.360003398438,4|0,0:3|0:0,0:0:0:0:
168,336,46305,1,0,0:0:0:0:
232,336,46388,1,0,0:0:0:0:
296,336,46471,1,8,0:0:0:0:
56,232,46638,1,0,0:0:0:0:
224,248,46805,2,0,L|360:232,1,111.360003398438,4|0,0:3|0:0,0:0:0:0:
464,296,47305,1,8,0:0:0:0:
464,296,47805,6,0,P|416:288|384:272,1,79.6800011550293,8|0,0:0|0:0,0:0:0:0:
72,288,48138,1,8,0:3:0:0:
256,240,48305,1,4,0:3:0:0:
48,176,48471,6,0,L|136:152,1,79.6800011550293,4|0,0:0|0:0,0:0:0:0:
440,32,48805,2,0,P|416:80|416:128,1,79.6800011550293,8|0,0:0|0:0,0:0:0:0:
176,192,49138,1,2,0:0:0:0:
456,264,49305,1,0,0:0:0:0:
208,360,49471,1,8,0:0:0:0:
392,264,49638,6,0,P|392:200|376:160,1,79.6800011550293,0|2,0:0|0:0,0:0:0:0:
256,48,49971,1,0,0:0:0:0:
136,128,50138,2,0,L|56:104,1,79.6800011550293,8|0,0:0|0:0,0:0:0:0:
256,208,50471,1,2,0:0:0:0:
48,304,50638,1,0,0:0:0:0:
256,128,50805,1,8,0:0:0:0:
24,208,50971,2,0,L|64:184,1,39.8400005775147
480,192,51138,2,0,L|384:192,2,79.6800011550293,8|0|0,0:0|0:0|0:0,0:0:0:0:
24,192,51638,2,0,L|104:192,2,79.6800011550293,8|0|0,0:0|0:0|0:0,0:0:0:0:
440,88,52138,1,8,0:0:0:0:
344,88,52221,1,8,0:0:0:0:
256,88,52305,1,8,0:0:0:0:
168,88,52388,1,8,0:0:0:0:
80,88,52471,1,12,0:0:0:0:
448,312,52638,1,8,0:0:0:0:
232,312,53138,6,0,P|264:280|272:248,1,74.2400022656251
32,176,53471,2,0,L|76:256,1,74.2400022656251
304,48,53805,6,0,L|192:88,1,96,4|0,1:0|0:0,0:0:0:0:
424,320,54138,2,0,P|464:280|480:232,1,96,2|0,1:3|0:0,0:0:0:0:
120,104,54471,1,2,0:0:0:0:
440,48,54638,1,4,0:3:0:0:
304,224,54805,1,8,0:0:0:0:
192,48,54971,6,0,P|104:40|48:64,1,144,4|0,0:0|0:0,0:0:0:0:
184,352,55305,1,0,0:0:0:0:
104,352,55471,2,0,L|120:256,1,96,10|0,0:0|0:0,0:0:0:0:
360,112,55805,1,4,0:3:0:0:
280,224,55971,1,2,0:0:0:0:
200,216,56055,1,0,0:0:0:0:
120,208,56138,1,8,0:0:0:0:
432,32,56305,6,0,P|464:80|464:144,1,96
224,240,56638,1,2,0:0:0:0:
392,120,56805,2,0,L|296:136,1,96,8|0,0:0|0:0,0:0:0:0:
8,160,57138,1,4,0:3:0:0:
248,288,57305,1,4,0:3:0:0:
56,72,57471,1,8,0:0:0:0:
288,288,57638,6,0,B|312:184|312:184|352:144,1,144,2|0,0:0|0:0,0:0:0:0:
448,96,57971,1,0,0:0:0:0:
224,56,58138,2,0,P|168:56|128:72,1,96,10|0,0:0|0:0,0:0:0:0:
288,128,58471,1,4,0:3:0:0:
32,256,58638,1,0,0:0:0:0:
112,264,58721,1,0,0:0:0:0:
192,272,58805,1,8,0:0:0:0:
384,288,58971,1,2,0:0:0:0:
144,320,59138,6,0,P|200:344|256:336,1,96,4|0,0:0|0:0,0:0:0:0:
512,112,59471,2,0,L|408:120,1,96,8|0,0:0|0:0,0:0:0:0:
192,136,59805,1,2,0:0:0:0:
304,200,59971,1,0,0:0:0:0:
384,208,60055,1,0,0:0:0:0:
464,224,60138,1,8,0:0:0:0:
184,24,60305,6,0,P|96:16|32:48,1,144,4|0,0:0|0:0,0:0:0:0:
160,336,60638,1,4,0:3:0:0:
224,320,60805,2,0,L|320:296,1,96,10|0,0:0|0:0,0:0:0:0:
488,232,61138,1,0,0:0:0:0:
256,176,61305,1,2,0:0:0:0:
184,160,61388,1,0,0:0:0:0:
112,144,61471,1,8,0:0:0:0:
416,112,61638,6,0,P|464:136|496:176,1,96,4|0,0:3|0:0,0:0:0:0:
408,344,61971,2,0,L|400:296,1,48
280,208,62138,1,8,0:0:0:0:
480,192,62305,1,8,0:0:0:0:
120,48,62471,1,2,0:0:0:0:
40,232,62638,2,0,L|16:184,1,48,4|0,0:3|0:0,0:0:0:0:
224,208,62805,1,8,0:0:0:0:
96,224,62971,6,0,P|88:280|24:352,1,144,2|0,0:0|0:0,0:0:0:0:
152,336,63305,1,0,0:0:0:0:
208,344,63388,1,0,0:0:0:0:
352,296,63471,1,8,0:0:0:0:
296,280,63555,1,0,0:0:0:0:
224,192,63638,1,0,0:0:0:0:
280,208,63721,1,0,0:0:0:0:
432,312,63805,6,0,L|502:328,1,48,4|4,0:3|0:3,0:0:0:0:
280,352,63971,2,0,L|288:304,1,48,8|8,0:3|0:3,0:0:0:0:
480,192,64138,2,0,L|424:184,1,48,8|8,0:0|0:0,0:0:0:0:
264,152,64305,2,0,L|256:200,1,48,8|8,0:0|0:0,0:0:0:0:
352,304,64471,6,0,P|305:334|241:334,1,96,4|0,1:0|0:0,0:0:0:0:
120,320,64721,1,0,0:0:0:0:
32,192,64805,2,0,L|136:208,1,96,2|0,1:3|0:0,0:0:0:0:
464,224,65138,1,2,0:0:0:0:
240,112,65305,1,4,0:3:0:0:
80,288,65471,1,8,0:0:0:0:
328,352,65638,6,0,P|384:320|432:240,1,144,4|0,0:0|0:0,0:0:0:0:
264,184,65971,1,0,0:0:0:0:
416,32,66138,2,0,L|440:128,1,96,10|0,0:0|0:0,0:0:0:0:
160,336,66471,1,4,0:3:0:0:
240,240,66638,1,2,0:0:0:0:
312,232,66721,1,0,0:0:0:0:
376,200,66805,1,8,0:0:0:0:
96,128,66971,6,0,P|144:88|192:104,1,96,2|0,0:0|0:0,0:0:0:0:
320,168,67305,1,0,0:0:0:0:
80,304,67471,2,0,P|128:272|176:272,1,96,8|0,0:0|0:0,0:0:0:0:
424,224,67805,1,2,0:0:0:0:
480,192,67888,1,4,0:3:0:0:
264,168,67971,1,4,0:3:0:0:
328,144,68055,1,0,0:0:0:0:
432,48,68138,2,0,L|328:48,1,96,8|0,0:0|0:0,0:0:0:0:
8,288,68471,6,0,L|112:272,1,96,4|0,0:0|0:0,0:0:0:0:
440,216,68805,1,8,0:0:0:0:
208,256,68971,1,2,0:0:0:0:
472,352,69138,2,0,P|424:360|376:344,1,96,4|4,0:0|0:3,0:0:0:0:
32,208,69471,1,8,0:0:0:0:
256,296,69638,1,2,0:0:0:0:
432,24,69805,6,0,P|456:80|432:184,1,144,4|0,0:0|0:0,0:0:0:0:
216,144,70138,1,8,0:0:0:0:
160,144,70221,1,8,0:3:0:0:
376,224,70305,1,0,0:0:0:0:
312,224,70388,1,0,0:0:0:0:
32,208,70471,2,0,P|15:251|19:309,1,96,4|4,0:3|0:3,0:0:0:0:
152,120,70805,1,8,0:0:0:0:
224,136,70888,1,0,0:0:0:0:
296,152,70971,1,0,0:0:0:0:
456,248,71138,5,4,1:0:0:0:
184,256,71305,1,4,0:3:0:0:
376,312,71471,1,8,0:0:0:0:
136,40,71638,1,4,1:0:0:0:
408,40,71971,1,0,0:0:0:0:
192,280,72138,2,0,B|160:336|96:336|96:336|80:304,1,144,8|0,0:0|0:0,0:0:0:0:
224,128,72471,6,0,L|208:240,1,96,4|0,0:0|0:0,0:0:0:0:
432,288,72805,1,8,0:0:0:0:
176,80,72971,2,0,L|272:192,1,144,2|0,0:0|0:0,0:0:0:0:
144,280,73305,1,4,0:3:0:0:
96,312,73388,1,0,0:0:0:0:
40,320,73471,1,8,0:0:0:0:
336,328,73638,6,0,P|396:331|479:301,1,144,2|0,0:0|0:0,0:0:0:0:
256,152,73971,1,4,0:3:0:0:
120,48,74138,1,8,0:0:0:0:
368,208,74305,2,0,P|320:240|224:248,1,144,2|0,0:0|0:0,0:0:0:0:
104,120,74638,1,0,0:0:0:0:
296,72,74805,1,8,0:0:0:0:
240,104,74888,1,8,0:0:0:0:
48,184,74971,1,8,0:0:0:0:
112,184,75055,1,8,0:0:0:0:
176,184,75138,5,4,1:0:0:0:
408,168,75805,1,8,0:0:0:0:
72,96,76471,1,12,0:0:0:0:
480,24,77138,1,8,0:0:0:0:
48,192,77471,5,8,0:0:0:0:
152,192,77555,1,8,0:0:0:0:
256,192,77638,1,8,0:0:0:0:
360,192,77721,1,8,0:0:0:0:
464,192,77805,1,0,0:0:0:0:
256,352,78471,2,0,L|256:232,1,111.360003398438,0|4,0:0|0:3,0:0:0:0:
128,56,79138,6,0,P|104:104|104:152,1,96,4|0,1:0|0:0,0:0:0:0:
336,256,79471,1,8,0:0:0:0:
120,136,79638,1,0,0:0:0:0:
432,80,79805,1,2,0:0:0:0:
272,216,79971,1,8,0:0:0:0:
352,240,80055,1,0,0:0:0:0:
424,264,80138,1,0,0:0:0:0:
104,328,80305,6,0,B|168:245|168:245|160:200,1,144,12|0,0:0|0:0,0:0:0:0:
368,224,80638,2,0,B|358:179|358:179|424:88,1,144,4|0,0:3|0:0,0:0:0:0:
240,56,80971,1,8,0:0:0:0:
360,160,81138,1,8,0:0:0:0:
488,232,81249,2,0,P|480:272|464:304,1,64,8|8,0:0|0:0,0:0:0:0:
344,352,81471,1,8,0:0:0:0:
216,352,81583,2,0,P|184:312|176:280,1,64,8|0,0:0|0:0,0:0:0:0:
32,112,81805,6,0,L|136:128,1,96,4|0,0:0|0:0,0:0:0:0:
296,144,82138,1,8,0:3:0:0:
64,48,82305,1,8,0:0:0:0:
280,48,82471,1,2,0:0:0:0:
392,352,82638,1,8,0:0:0:0:
488,352,82721,1,0,0:0:0:0:
272,192,82805,1,4,0:3:0:0:
200,192,82888,1,0,0:0:0:0:
344,192,82971,1,0,0:0:0:0:
448,80,83138,6,0,P|472:128|472:184,1,96,4|8,0:0|0:0,0:0:0:0:
264,320,83471,2,0,L|168:336,1,96,4|0,0:3|0:0,0:0:0:0:
0,312,83805,1,8,0:0:0:0:
72,288,83916,2,0,P|128:264|144:240,1,64,0|8,0:0|0:0,0:0:0:0:
328,240,84138,1,8,0:0:0:0:
256,240,84249,2,0,P|248:184|256:152,1,64,8|8,0:0|0:0,0:0:0:0:
472,24,84471,5,4,0:0:0:0:
48,192,84805,1,8,0:0:0:0:
248,304,84971,2,0,B|328:328|384:272|384:272|416:304|416:304|424:240|472:216|472:216|480:168|456:136,1,384,4|0,1:0|0:0,0:0:0:0:
376,107,85746,1,0,0:0:0:0:
56,88,85833,1,2,0:0:0:0:
256,192,85919,12,8,88074,0:0:0:0:
256,192,88419,5,4,0:3:0:0:
