osu file format v14

[General]
AudioFilename: Miiro.mp3
AudioLeadIn: 2000
PreviewTime: 55141
Countdown: 0
SampleSet: Soft
StackLeniency: 0.7
Mode: 0
LetterboxInBreaks: 0
WidescreenStoryboard: 0

[Editor]
DistanceSpacing: 0.8
BeatDivisor: 4
GridSize: 4
TimelineZoom: 2

[Metadata]
Title:MIIRO
TitleUnicode:海色
Artist:AKINO from bless4
ArtistUnicode:AKINO from bless4
Creator:hopperhtkn
Version:ShiraKai's Hard
Source:艦隊これくしょん -艦これ-
Tags:Kantai Collection kancolle Combined Fleet Collection Opening Lanturn Heanday pkhg ShiraKai HabiHolic rui val0108 caren_sk
BeatmapID:594665
BeatmapSetID:249179

[Difficulty]
HPDrainRate:5
CircleSize:3.5
OverallDifficulty:6
ApproachRate:8
SliderMultiplier:1.65
SliderTickRate:1

[Events]
//Background and Video events
0,0,"BG.jpg",0,0
//Break Periods
//Storyboard Layer 0 (Background)
//Storyboard Layer 1 (Fail)
//Storyboard Layer 2 (Pass)
//Storyboard Layer 3 (Foreground)
//Storyboard Sound Samples

[TimingPoints]
690,307.692307692308,4,2,2,40,1,0
690,-133.333333333333,4,2,2,40,0,0
4382,-100,4,2,2,40,0,0
6690,-100,4,2,1,50,0,0
16690,-133.333333333333,4,2,1,40,0,0
26536,-100,4,2,1,45,0,0
36536,-133.333333333333,4,2,2,30,0,0
43766,-133.333333333333,4,2,2,40,0,0
46228,-100,4,2,1,50,0,0
55151,-133.333333333333,4,2,1,30,0,0
56074,-100,4,2,1,70,0,1
79459,-133.333333333333,4,2,2,40,0,0
80536,-100,4,2,1,60,0,0

[Colours]
Combo1 : 255,242,202
Combo2 : 210,255,210
Combo3 : 217,234,255
Combo4 : 253,210,217

[HitObjects]
140,60,690,6,0,B|130:102|130:102|143:150|143:150|136:180,1,123.750004720688,0|2,0:0|0:0,0:0:0:0:
39,308,1305,2,0,B|59:286|59:286|107:309|150:301,1,123.750004720688,2|2,0:0|0:0,0:0:0:0:
225,330,1766,1,0,0:0:0:0:
252,254,1920,2,0,P|294:297|299:358,1,123.750004720688,2|0,0:0|0:0,0:0:0:0:
380,361,2382,2,0,P|385:300|427:256,1,123.750004720688,2|0,0:0|0:0,0:0:0:0:
374,195,2843,2,0,P|344:198|313:193,1,61.875002360344,2|0,0:0|0:0,0:0:0:0:
254,138,3151,6,0,B|222:142|168:132|129:139,1,123.750004720688,6|0,0:0|0:0,0:0:0:0:
59,178,3613,2,0,P|54:118|90:70,1,123.750004720688,2|0,0:0|0:0,0:0:0:0:
156,24,4074,1,2,0:0:0:0:
156,24,4382,6,0,L|234:48,1,82.5,0|2,0:0|0:0,0:0:0:0:
329,80,4690,1,0,0:0:0:0:
420,43,4843,2,0,P|427:83|418:123,1,82.5,0|2,0:0|0:0,0:0:0:0:
354,199,5151,1,0,0:0:0:0:
266,245,5305,6,0,P|225:250|184:247,2,82.5,0|2|0,0:0|0:0|0:0,0:0:0:0:
353,291,5766,2,0,P|393:296|434:293,2,82.5,0|2|0,0:0|0:0|0:0,0:0:0:0:
266,340,6228,1,2,0:0:0:0:
266,340,6382,2,0,P|205:341|145:326,1,123.75,2|0,0:0|0:0,0:0:0:0:
131,295,6690,6,0,B|88:317|47:322|47:322|52:279|42:246,1,165,6|2,0:0|0:0,0:0:0:0:
0,122,7151,1,8,0:0:0:0:
93,153,7305,1,0,0:0:0:0:
174,96,7459,2,0,P|139:72|100:61,1,82.5,2|2,0:0|0:0,0:0:0:0:
185,186,7766,2,0,P|225:174|259:151,1,82.5,8|0,0:0|0:0,0:0:0:0:
297,59,8074,6,0,B|297:117|316:174|316:174|330:153|349:138,1,165,2|8,0:0|0:0,0:0:0:0:
469,222,8536,2,0,L|387:210,1,82.5,2|0,0:0|0:0,0:0:0:0:
391,309,8843,2,0,L|309:297,1,82.5,0|8,0:0|0:0,0:0:0:0:
181,347,9151,6,0,B|166:314|183:274|183:274|201:232|185:186,1,165,6|2,0:0|0:0,0:0:0:0:
94,227,9613,2,0,L|14:206,1,82.5,8|0,0:0|0:0,0:0:0:0:
24,107,9920,2,0,L|103:127,1,82.5,2|2,0:0|0:0,0:0:0:0:
185,186,10228,1,8,0:0:0:0:
275,144,10382,1,0,0:0:0:0:
252,47,10536,6,0,P|214:63|188:94,2,82.5,2|2|8,0:0|0:0|0:0,0:0:0:0:
275,144,10997,2,0,L|398:136,1,123.75,2|0,0:0|0:0,0:0:0:0:
427,118,11305,2,0,P|422:158|427:199,1,82.5,2|8,0:0|0:0,0:0:0:0:
491,275,11613,6,0,B|448:243|448:243|412:266|366:237|339:252,1,165,6|2,0:0|0:0,0:0:0:0:
244,279,12074,1,8,0:0:0:0:
314,348,12228,1,0,0:0:0:0:
193,375,12382,2,0,L|207:293,1,82.5,2|2,0:0|0:0,0:0:0:0:
290,226,12690,2,0,L|275:144,1,82.5,8|0,0:0|0:0,0:0:0:0:
196,29,12997,6,0,B|175:133|175:133|138:132|117:139,1,165,2|8,0:0|0:0,0:0:0:0:
40,250,13459,2,0,B|60:145|60:145|98:147|118:139,1,165,2|2,0:0|0:0,0:0:0:0:
179,216,13920,2,0,P|218:206|252:183,1,82.5,8|0,0:0|0:0,0:0:0:0:
321,109,14228,5,4,0:0:0:0:
400,168,14382,1,2,0:0:0:0:
458,57,14536,2,0,L|375:49,1,82.5,8|2,0:0|0:0,0:0:0:0:
400,168,14843,1,8,0:0:0:0:
400,168,14997,2,0,B|490:159|490:159|493:196|476:231,1,165,8|8,0:0|0:0,0:0:0:0:
404,300,15459,6,0,L|321:292,1,82.5,8|2,0:0|0:0,0:0:0:0:
233,247,15766,1,8,0:0:0:0:
162,316,15920,1,2,0:0:0:0:
120,173,16074,1,4,0:0:0:0:
120,173,16228,1,12,0:0:0:0:
120,173,16690,6,0,L|243:159,1,123.750004720688,2|0,0:0|0:0,0:0:0:0:
304,211,17151,2,0,P|322:153|299:96,1,123.750004720688,2|2,0:0|0:0,0:0:0:0:
206,58,17613,2,0,L|144:64,1,61.875002360344,0|0,0:0|0:0,0:0:0:0:
59,114,17920,2,0,P|36:170|54:228,1,123.750004720688,2|0,0:0|0:0,0:0:0:0:
25,304,18382,2,0,P|81:281|139:299,1,123.750004720688,2|0,0:0|0:0,0:0:0:0:
196,356,18843,2,0,L|257:350,1,61.875002360344,2|2,0:0|0:0,0:0:0:0:
306,285,19151,6,0,L|429:304,1,123.750004720688,2|0,0:0|0:0,0:0:0:0:
507,318,19613,2,0,P|506:287|495:258,1,61.875002360344,2|0,0:0|0:0,0:0:0:0:
425,218,19920,2,0,P|426:187|437:158,1,61.875002360344,0|2,0:0|0:0,0:0:0:0:
497,103,20228,2,0,P|495:72|484:43,1,61.875002360344,2|0,0:0|0:0,0:0:0:0:
414,85,20536,2,0,L|290:74,1,123.750004720688,2|2,0:0|0:0,0:0:0:0:
223,29,20997,2,0,P|212:57|210:88,1,61.875002360344,0|2,0:0|0:0,0:0:0:0:
253,156,21305,1,2,0:0:0:0:
253,156,21459,2,0,P|259:217|254:278,1,123.750004720688,2|0,0:0|0:0,0:0:0:0:
197,336,21920,6,0,B|256:319|256:319|316:338,2,123.750004720688,2|2|2,0:0|0:0|0:0,0:0:0:0:
120,361,22690,2,0,P|85:347|60:318,1,61.875002360344,0|0,0:0|0:0,0:0:0:0:
80,250,22997,2,0,P|115:264|140:293,1,61.875002360344,2|0,0:0|0:0,0:0:0:0:
203,242,23305,2,0,P|160:197|104:172,1,123.750004720688,2|2,0:0|0:0,0:0:0:0:
24,182,23766,1,0,0:0:0:0:
24,181,23920,6,0,P|27:151|28:120,1,61.875002360344,2|0,0:0|0:0,0:0:0:0:
46,41,24228,2,0,P|74:52|101:67,1,61.875002360344,0|0,0:0|0:0,0:0:0:0:
171,108,24536,2,0,P|232:99|292:86,1,123.750004720688,2|2,0:0|0:0,0:0:0:0:
364,48,24997,2,0,P|394:50|425:57,1,61.875002360344,2|0,0:0|0:0,0:0:0:0:
486,108,25305,6,0,P|503:66|494:21,2,92.812503540516,0|0|0,0:0|0:0|0:0,0:0:0:0:
419,154,25920,2,0,P|416:184|418:215,1,61.875002360344,0|0,0:0|0:0,0:0:0:0:
485,261,26228,2,0,P|487:291|485:322,1,61.875002360344,0|0,0:0|0:0,0:0:0:0:
391,357,26536,6,0,P|314:330|236:354,1,165,6|8,0:0|0:0,0:0:0:0:
168,281,26997,1,0,0:0:0:0:
92,344,27151,2,0,P|79:304|77:263,1,82.5,2|0,0:0|0:0,0:0:0:0:
128,178,27459,1,8,0:0:0:0:
168,281,27613,6,0,P|230:228|250:149,1,165,0|2,0:0|0:0,0:0:0:0:
205,62,28074,1,8,0:0:0:0:
127,178,28228,2,0,P|86:175|46:167,1,82.5,0|0,0:0|0:0,0:0:0:0:
23,70,28536,2,0,P|64:72|104:80,1,82.5,2|8,0:0|0:0,0:0:0:0:
250,151,28843,6,0,P|333:145|412:122,1,165,0|2,0:0|0:0,0:0:0:0:
494,66,29305,1,8,0:0:0:0:
403,25,29459,2,0,P|381:105|383:187,1,165,0|2,0:0|0:0,0:0:0:0:
450,258,29920,2,0,P|424:289|404:325,1,82.5,8|2,0:0|0:0,0:0:0:0:
308,353,30228,6,0,L|225:344,1,82.5,0|2,0:0|0:0,0:0:0:0:
254,248,30536,2,0,L|171:257,1,82.5,8|0,0:0|0:0,0:0:0:0:
146,352,30843,2,0,L|63:343,1,82.5,2|2,0:0|0:0,0:0:0:0:
84,245,31151,2,0,L|1:254,1,82.5,8|0,0:0|0:0,0:0:0:0:
141,135,31459,6,0,L|304:154,1,165,6|8,0:0|0:0,0:0:0:0:
384,95,31920,1,0,0:0:0:0:
453,165,32074,2,0,P|485:92|453:19,1,165,2|8,0:0|0:0,0:0:0:0:
384,95,32536,1,0,0:0:0:0:
309,30,32690,6,0,L|227:20,1,82.5,2|0,0:0|0:0,0:0:0:0:
170,103,32997,1,8,0:0:0:0:
128,14,33151,1,0,0:0:0:0:
170,103,33305,2,0,L|147:182,1,82.5,2|2,0:0|0:0,0:0:0:0:
49,181,33613,2,0,L|71:101,1,82.5,8|0,0:0|0:0,0:0:0:0:
267,118,33920,6,0,L|244:197,1,82.5,6|0,0:0|0:0,0:0:0:0:
189,364,34228,1,8,0:0:0:0:
178,271,34382,2,0,P|218:276|253:297,1,82.5,0|4,0:0|0:3,0:0:0:0:
338,351,34690,2,0,P|378:346|413:325,1,82.5,8|8,0:0|0:0,0:0:0:0:
368,172,34997,6,0,B|332:272|332:272|363:269|385:248,1,165,6|8,0:0|0:0,0:0:0:0:
462,185,35459,1,2,0:0:0:0:
421,93,35613,2,0,B|383:59|383:59|346:56|300:72|284:103,1,165,12|8,0:0|0:3,0:0:0:0:
221,179,36074,2,0,L|131:163,1,82.5,4|4,0:3|0:3,0:0:0:0:
41,145,36382,5,6,0:0:0:0:
41,145,36997,2,0,B|48:187|48:187|35:232|35:232|41:265,1,123.750004720688,2|0,0:0|0:0,0:0:0:0:
157,377,37613,2,0,B|163:343|163:343|150:298|150:298|157:256,1,123.750004720688,2|0,0:0|0:0,0:0:0:0:
125,182,38074,2,0,P|185:180|228:222,1,123.750004720688,2|0,0:0|0:0,0:0:0:0:
233,301,38536,2,0,P|263:306|291:318,1,61.875002360344,0|0,0:0|0:0,0:0:0:0:
363,356,38843,6,0,B|376:324|367:294|367:294|354:262|364:235,1,123.750004720688,2|0,0:0|0:0,0:0:0:0:
440,262,39305,2,0,B|453:230|444:200|444:200|431:168|441:141,1,123.750004720688,2|0,0:0|0:0,0:0:0:0:
471,66,39766,2,0,P|441:63|412:53,1,61.875002360344,0|0,0:0|0:0,0:0:0:0:
341,11,40074,2,0,P|317:67|272:109,1,123.750004720688,2|0,0:0|0:0,0:0:0:0:
219,47,40536,2,0,P|226:107|208:166,1,123.750004720688,2|0,0:0|0:0,0:0:0:0:
129,151,40997,2,0,P|149:174|161:202,1,61.875002360344,2|0,0:0|0:0,0:0:0:0:
173,282,41305,5,0,0:0:0:0:
173,282,41613,2,0,L|49:276,2,123.750004720688,2|0|2,0:0|0:0|0:0,0:0:0:0:
315,356,42536,2,0,L|438:350,1,123.750004720688,2|0,0:0|0:0,0:0:0:0:
489,288,42997,2,0,B|456:274|456:274|367:277,1,123.750004720688,2|0,0:0|0:0,0:0:0:0:
287,274,43459,2,0,P|295:244|311:218,1,61.875002360344,0|0,0:0|0:0,0:0:0:0:
377,171,43766,6,0,P|365:111|334:58,1,123.750004720688,2|0,0:0|0:0,0:0:0:0:
280,118,44228,2,0,P|240:71|186:40,1,123.750004720688,2|0,0:0|0:0,0:0:0:0:
175,120,44690,2,0,P|146:108|115:106,1,61.875002360344,2|0,0:0|0:0,0:0:0:0:
54,53,44997,6,0,L|81:173,1,123.750004720688,8|0,0:0|0:0,0:0:0:0:
1,162,45459,2,0,L|85:252,1,123.750004720688,8|0,0:3|0:0,0:0:0:0:
30,312,45920,2,0,L|89:330,1,61.875002360344,4|0,0:3|0:0,0:0:0:0:
180,370,46228,6,0,P|210:296|287:275,1,165,6|2,0:0|0:0,0:0:0:0:
367,333,46690,1,0,0:0:0:0:
451,282,46843,2,0,P|457:241|448:201,2,82.5,2|0|2,0:0|0:0|0:0,0:0:0:0:
367,333,47305,1,0,0:0:0:0:
287,275,47459,6,0,P|280:234|289:194,1,82.5,2|0,0:0|0:0,0:0:0:0:
353,119,47766,2,0,P|359:78|350:38,2,82.5,2|0|2,0:0|0:0|0:0,0:0:0:0:
290,195,48228,2,0,B|264:197|207:182|178:184|178:184|191:133,1,165,8|8,0:0|0:0,0:0:0:0:
124,58,48690,6,0,L|102:138,1,82.5,2|0,0:0|0:0,0:0:0:0:
30,68,48997,2,0,L|8:148,1,82.5,2|0,0:0|0:0,0:0:0:0:
1,247,49305,2,0,B|27:245|84:260|113:258|113:258|100:309,1,165,2|2,0:0|0:0,0:0:0:0:
185,358,49766,1,0,0:0:0:0:
192,265,49920,6,0,P|232:275|265:300,1,82.5,2|0,0:0|0:0,0:0:0:0:
335,371,50228,2,0,P|375:365|411:345,1,82.5,2|0,0:0|0:0,0:0:0:0:
443,250,50536,1,2,0:0:0:0:
498,327,50690,2,0,B|507:300|495:269|506:229|506:229|442:250,1,165,8|8,0:0|0:0,0:0:0:0:
355,204,51151,6,0,L|368:122,1,82.5,12|2,0:0|0:0,0:0:0:0:
449,84,51459,2,0,L|512:136,1,82.5,8|2,0:0|0:0,0:0:0:0:
355,204,51766,2,0,L|272:204,1,82.5,8|2,0:0|0:0,0:0:0:0:
129,245,52074,1,2,0:0:0:0:
181,160,52228,1,8,0:0:0:0:
263,285,52382,6,0,L|273:196,1,82.5,2|2,0:0|0:0,0:0:0:0:
264,103,52690,1,8,0:0:0:0:
181,160,52843,2,0,L|171:71,1,82.5,0|2,0:0|0:0,0:0:0:0:
84,126,53151,1,8,0:0:0:0:
86,26,53305,1,2,0:0:0:0:
172,79,53459,6,0,B|203:66|203:66|299:85|299:85|330:74,1,165,4|0,0:0|0:0,0:0:0:0:
406,10,53920,2,0,P|424:48|428:88,1,82.5,10|2,0:0|0:0,0:0:0:0:
395,183,54228,2,0,L|314:169,2,82.5,10|2|2,0:0|0:0|0:0,0:0:0:0:
492,163,54690,1,12,0:0:0:0:
492,163,55151,6,0,B|493:229|493:229|462:277,1,123.750004720688,2|0,0:0|0:0,0:0:0:0:
411,340,55613,1,2,0:0:0:0:
411,340,55920,1,2,0:0:0:0:
332,280,56074,6,0,B|288:264|288:264|230:276|188:323,1,165,6|8,0:0|0:0,0:0:0:0:
97,363,56536,2,0,P|93:323|72:288,1,82.5,2|0,0:0|0:0,0:0:0:0:
78,189,56843,2,0,P|114:206|155:205,1,82.5,2|8,0:0|0:0,0:0:0:0:
249,171,57151,6,0,B|258:60|258:60|290:65|303:86,1,165,2|2,0:0|0:0,0:0:0:0:
386,142,57613,2,0,P|426:143|467:123,1,82.5,8|0,0:0|0:0,0:0:0:0:
392,56,57920,2,0,L|377:220,1,165,2|8,0:0|0:0,0:0:0:0:
365,319,58382,1,2,0:0:0:0:
365,319,58459,1,0,0:0:0:0:
365,319,58536,6,0,L|446:306,1,82.5,6|0,0:0|0:0,0:0:0:0:
283,258,58843,1,8,0:0:0:0:
283,258,58997,2,0,B|256:285|251:322|251:322|201:320|201:320|162:335,1,165,2|2,0:0|0:0,0:0:0:0:
69,370,59459,1,8,0:0:0:0:
18,285,59613,6,0,B|51:266|88:272|88:272|100:223|100:223|125:190,1,165,2|0,0:0|0:0,0:0:0:0:
189,114,60074,2,0,P|151:97|110:93,1,82.5,8|0,0:0|0:0,0:0:0:0:
260,170,60382,2,0,L|353:163,1,82.5,2|0,0:0|0:0,0:0:0:0:
423,106,60690,1,8,0:0:0:0:
423,106,60997,5,6,0:0:0:0:
332,65,61151,1,0,0:0:0:0:
410,7,61305,1,8,0:0:0:0:
414,139,61459,1,0,0:0:0:0:
260,170,61613,2,0,L|96:160,1,165,2|8,0:0|0:0,0:0:0:0:
26,89,62074,1,0,0:0:0:0:
91,13,62228,6,0,P|125:85|97:160,1,165,6|8,0:0|0:0,0:0:0:0:
20,225,62690,1,0,0:0:0:0:
111,260,62843,2,0,P|131:263|151:262,4,41.25,2|0|8|0|8,0:0|0:0|0:0|0:0|0:0,0:0:0:0:
280,324,63305,6,0,B|252:315|224:317|224:317|250:261|225:212,1,165,6|2,0:0|0:0,0:0:0:0:
169,131,63766,2,0,B|208:120|208:120|250:116,1,82.5,12|0,0:0|0:0,0:0:0:0:
278,21,64074,2,0,B|317:30|317:30|355:49,1,82.5,12|0,0:0|0:0,0:0:0:0:
491,86,64382,1,2,0:0:0:0:
425,160,64536,1,2,0:0:0:0:
439,23,64690,6,0,B|468:51|468:51|491:86,1,82.5,12|2,0:0|0:0,0:0:0:0:
425,160,64997,2,0,L|333:160,1,82.5,12|2,0:0|0:0,0:0:0:0:
244,171,65305,2,0,P|246:191|256:210,3,41.25,8|8|8|8,0:3|0:0|0:0|0:0,0:0:0:0:
271,239,65613,2,0,P|268:259|259:277,3,41.25,8|0|8|0,0:0|0:0|0:0|0:0,0:0:0:0:
242,306,65920,6,0,B|180:296|180:296|82:326,1,165,6|8,0:0|0:0,0:0:0:0:
42,235,66382,2,0,L|120:211,1,82.5,0|2,0:0|0:0,0:0:0:0:
137,112,66690,2,0,L|58:135,1,82.5,2|8,0:0|0:0,0:0:0:0:
9,49,66997,6,0,B|106:18|106:18|168:28,1,165,0|2,0:0|0:0,0:0:0:0:
251,81,67459,2,0,P|292:76|331:61,1,82.5,8|0,0:0|0:0,0:0:0:0:
418,15,67766,2,0,P|415:96|443:173,1,165,2|8,0:0|0:0,0:0:0:0:
508,249,68228,1,2,0:0:0:0:
508,249,68305,1,0,0:0:0:0:
507,249,68382,6,0,P|491:286|487:327,1,82.5,6|0,0:0|0:0,0:0:0:0:
395,290,68690,1,8,0:0:0:0:
395,290,68843,2,0,B|397:333|412:365|412:365|383:370|351:358|324:364,1,165,0|2,0:0|0:0,0:0:0:0:
238,313,69305,2,0,P|196:316|157:329,1,82.5,8|2,0:0|0:0,0:0:0:0:
33,234,69613,6,0,P|74:237|113:250,1,82.5,0|2,0:0|0:0,0:0:0:0:
255,167,69920,2,0,P|213:170|174:183,1,82.5,8|0,0:0|0:0,0:0:0:0:
33,234,70228,2,0,L|47:69,1,165,2|8,0:0|0:0,0:0:0:0:
139,107,70690,1,8,0:0:0:0:
139,107,70766,1,8,0:0:0:0:
139,107,70843,6,0,P|180:103|219:90,1,82.5,6|0,0:0|0:0,0:0:0:0:
313,9,71151,1,8,0:0:0:0:
362,94,71305,1,0,0:0:0:0:
457,116,71459,2,0,P|422:52|362:94,1,165,2|8,0:0|0:0,0:0:0:0:
308,177,71920,1,0,0:0:0:0:
308,177,72074,6,0,B|250:168|203:174|203:174|176:227,1,165,6|8,0:0|0:0,0:0:0:0:
139,320,72536,1,0,0:0:0:0:
78,241,72690,2,0,P|57:238|37:241,4,41.25,2|0|8|0|8,0:0|0:0|0:0|0:0|0:0,0:0:0:0:
139,320,73151,6,0,B|178:328|220:320|220:320|261:313|302:320,1,165,6|2,0:0|0:0,0:0:0:0:
393,360,73613,2,0,P|399:320|390:280,1,82.5,12|0,0:0|0:0,0:0:0:0:
354,187,73920,2,0,P|347:146|356:106,1,82.5,12|2,0:0|0:0,0:0:0:0:
430,6,74228,1,2,0:0:0:0:
480,91,74382,1,0,0:0:0:0:
356,106,74536,6,0,L|264:95,1,82.5,12|0,0:0|0:0,0:0:0:0:
201,29,74843,2,0,L|108:40,1,82.5,12|0,0:0|0:0,0:0:0:0:
53,113,75151,1,2,0:0:0:0:
53,113,75228,1,0,0:0:0:0:
53,113,75305,2,0,L|1:108,2,41.25,8|8|8,0:0|0:0|0:0,0:0:0:0:
107,209,75613,6,0,L|271:202,1,165,6|0,0:0|0:0,0:0:0:0:
338,129,76074,2,0,P|369:203|338:277,2,165,8|2|8,0:0|0:0|0:0,0:0:0:0:
241,107,76843,1,0,0:0:0:0:
272,202,76997,6,0,L|436:195,1,165,2|8,0:0|0:0,0:0:0:0:
504,271,77459,2,0,L|339:277,1,165,0|2,0:0|0:0,0:0:0:0:
272,202,77920,1,8,0:0:0:0:
185,267,78074,1,2,0:0:0:0:
266,366,78228,6,0,B|270:331|270:331|264:250|264:250|271:202,1,165,6|8,0:0|0:0,0:0:0:0:
191,103,78690,2,0,B|187:138|187:138|193:219|193:219|185:266,1,165,8|8,0:0|0:0,0:0:0:0:
137,353,79151,1,8,0:0:0:0:
137,353,79305,1,8,0:0:0:0:
137,353,79459,6,0,L|68:346,1,61.875002360344,0|2,0:0|0:0,0:0:0:0:
13,294,79766,2,0,P|39:277|69:268,1,61.875002360344,0|0,0:0|0:0,0:0:0:0:
149,272,80074,1,2,0:0:0:0:
149,272,80228,2,0,L|134:180,1,92.812503540516,2|0,0:0|0:0,0:0:0:0:
130,147,80536,6,0,P|206:126|268:176,1,165,6|2,0:0|0:0,0:0:0:0:
294,272,80997,1,8,0:0:0:0:
385,309,81151,1,0,0:0:0:0:
463,249,81305,2,0,P|474:209|470:168,1,82.5,2|2,0:0|0:0,0:0:0:0:
384,117,81613,2,0,P|379:157|390:197,1,82.5,8|0,0:0|0:0,0:0:0:0:
460,72,81920,6,0,P|389:33|314:59,1,165,2|8,0:0|0:0,0:0:0:0:
240,126,82382,2,0,L|154:122,1,82.5,0|0,0:0|0:0,0:0:0:0:
100,40,82690,2,0,P|69:67|56:106,1,82.5,2|8,0:0|0:0,0:0:0:0:
98,195,82997,6,0,L|262:204,1,165,6|2,0:0|0:0,0:0:0:0:
341,143,83459,2,0,P|362:177|364:218,1,82.5,8|0,0:0|0:0,0:0:0:0:
316,305,83766,2,0,L|230:301,1,82.5,2|2,0:0|0:0,0:0:0:0:
102,300,84074,1,8,0:0:0:0:
165,376,84228,1,0,0:0:0:0:
102,300,84382,6,0,L|16:304,1,82.5,2|2,0:0|0:0,0:0:0:0:
98,195,84690,1,8,0:0:0:0:
98,195,84843,2,0,L|180:199,1,82.5,2|0,0:0|0:0,0:0:0:0:
240,119,85151,2,0,L|155:119,1,82.5,2|8,0:0|0:0,0:0:0:0:
98,38,85459,6,0,B|184:32|184:32|263:40,1,165,6|2,0:0|0:0,0:0:0:0:
342,98,85920,2,0,L|420:71,1,82.5,8|0,0:0|0:0,0:0:0:0:
371,186,86228,2,0,L|449:159,1,82.5,2|2,0:0|0:0,0:0:0:0:
402,275,86536,2,0,L|480:248,1,82.5,8|0,0:0|0:0,0:0:0:0:
287,169,86843,6,0,L|256:339,1,165,2|8,0:0|0:0,0:0:0:0:
257,331,87305,2,0,P|178:309|98:326,1,165,0|0,0:0|0:0,0:0:0:0:
10,371,87766,1,8,0:0:0:0:
26,273,87920,1,2,0:0:0:0:
26,273,87997,1,2,0:0:0:0:
26,272,88074,6,0,P|64:258|95:231,1,82.5,12|2,0:0|0:0,0:0:0:0:
135,139,88382,2,0,B|160:160|160:160|180:205,1,82.5,12|2,0:0|0:0,0:0:0:0:
38,154,88690,1,12,0:0:0:0:
75,62,88843,1,2,0:0:0:0:
174,62,88997,2,0,B|202:78|202:78|230:119,1,82.5,12|2,0:0|0:0,0:0:0:0:
266,212,89305,6,0,L|310:204,3,41.25,12|8|10|8,0:0|0:0|0:0|0:0,0:0:0:0:
311,237,89613,2,0,L|349:214,3,41.25,2|2|2|2,0:0|0:0|0:0|0:0,0:0:0:0:
367,241,89920,2,0,L|395:206,3,41.25,12|8|8|8,0:3|0:3|0:3|0:3,0:0:0:0:
419,230,90228,2,0,L|434:187,3,41.25,4|4|4|4,0:3|0:3|0:3|0:3,0:0:0:0:
465,195,90536,5,6,0:0:0:0:
