osu file format v14

[General]
AudioFilename: Miiro.mp3
AudioLeadIn: 2000
PreviewTime: 55141
Countdown: 0
SampleSet: Soft
StackLeniency: 0.7
Mode: 0
LetterboxInBreaks: 0
WidescreenStoryboard: 0

[Editor]
Bookmarks: 11285,51409
DistanceSpacing: 1.3
BeatDivisor: 4
GridSize: 4
TimelineZoom: 2

[Metadata]
Title:MIIRO
TitleUnicode:海色
Artist:AKINO from bless4
ArtistUnicode:AKINO from bless4
Creator:hopperhtkn
Version:Insane
Source:艦隊これくしょん -艦これ-
Tags:Kantai Collection kancolle Combined Fleet Collection Opening Lanturn Heanday pkhg ShiraKai HabiHolic rui val0108 caren_sk
BeatmapID:577111
BeatmapSetID:249179

[Difficulty]
HPDrainRate:6
CircleSize:3.9
OverallDifficulty:7.5
ApproachRate:9
SliderMultiplier:1.75
SliderTickRate:1

[Events]
//Background and Video events
0,0,"BG.jpg",0,0
//Break Periods
//Storyboard Layer 0 (Background)
//Storyboard Layer 1 (Fail)
//Storyboard Layer 2 (Pass)
//Storyboard Layer 3 (Foreground)
//Storyboard Sound Samples

[TimingPoints]
690,307.692307692308,4,2,0,40,1,0
690,-133.333333333333,4,2,5,40,0,0
997,-133.333333333333,4,2,2,40,0,0
3151,-133.333333333333,4,2,5,50,0,0
3459,-133.333333333333,4,2,2,10,0,0
3613,-133.333333333333,4,2,2,50,0,0
4382,-100,4,2,1,40,0,0
4536,-100,4,2,7,10,0,0
4690,-100,4,2,1,15,0,0
4843,-100,4,2,1,20,0,0
4997,-100,4,2,7,25,0,0
5151,-100,4,2,1,30,0,0
5459,-100,4,2,7,35,0,0
5613,-100,4,2,1,40,0,0
5920,-100,4,2,7,45,0,0
6074,-100,4,2,1,50,0,0
6690,-83.3333333333333,4,2,1,50,0,0
6997,-100,4,2,1,50,0,0
16690,-133.333333333333,4,2,1,40,0,0
23920,-100,4,2,1,45,0,0
24690,-100,4,2,1,50,0,0
25305,-83.3333333333333,4,2,6,60,0,0
26536,-90.9090909090909,4,2,1,60,0,0
31074,-90.9090909090909,4,2,1,10,0,0
31151,-90.9090909090909,4,2,1,60,0,0
31690,-90.9090909090909,4,2,1,10,0,0
31766,-90.9090909090909,4,2,1,60,0,0
34997,-83.3333333333333,4,2,1,60,0,0
35305,-76.9230769230769,4,2,1,60,0,0
35613,-71.4285714285714,4,2,1,60,0,0
35920,-90.9090909090909,4,2,1,60,0,0
36382,-100,4,2,5,60,0,0
36536,-100,4,2,2,30,0,0
43766,-100,4,2,2,40,0,0
46228,-90.9090909090909,4,2,1,50,0,0
48228,-90.9090909090909,4,2,2,50,0,0
48382,-90.9090909090909,4,2,1,50,0,0
48536,-90.9090909090909,4,2,2,50,0,0
48690,-90.9090909090909,4,2,1,50,0,0
55151,-76.9230769230769,4,2,1,50,0,0
56074,-83.3333333333333,4,2,1,60,0,1
79459,-83.3333333333333,4,2,2,60,0,0
80536,-83.3333333333333,4,2,1,60,0,0
80997,-100,4,2,1,60,0,0

[Colours]
Combo1 : 255,242,202
Combo2 : 210,255,210
Combo3 : 217,234,255
Combo4 : 253,210,217

[HitObjects]
292,240,690,6,0,B|320:92,1,131.25000500679,2|2,0:0|0:0,0:0:0:0:
280,328,1305,2,0,P|220:296|204:220,1,131.25000500679,2|2,0:0|0:0,0:0:0:0:
292,240,1766,1,2,0:0:0:0:
372,296,1920,2,0,P|380:332|368:364,1,65.6250025033952,2|2,0:0|0:0,0:0:0:0:
292,240,2228,2,0,P|292:200|300:172,1,65.6250025033952,2|2,0:0|0:0,0:0:0:0:
384,208,2536,1,2,0:0:0:0:
372,296,2690,1,2,0:0:0:0:
280,328,2843,2,0,P|240:328|200:316,1,65.6250025033952,2|0,0:0|0:0,0:0:0:0:
152,256,3151,6,0,B|132:192|132:192|160:128,1,131.25000500679,6|0,0:0|0:0,0:0:0:0:
354,133,3613,2,0,B|380:192|380:192|360:256,1,131.25000500679,2|0,0:0|0:0,0:0:0:0:
208,192,4074,2,0,P|256:180|320:204,1,98.4375037550928,2|0,0:0|0:0,0:0:0:0:
302,192,4382,5,0,0:0:0:0:
224,288,4536,2,0,P|180:288|124:260,1,87.5,2|0,0:0|0:0,0:0:0:0:
88,156,4843,1,0,0:0:0:0:
208,192,4997,2,0,P|216:144|204:100,1,87.5,2|0,0:0|0:0,0:0:0:0:
124,40,5305,5,0,0:0:0:0:
88,156,5459,1,2,0:0:0:0:
208,192,5613,2,0,P|256:196|324:176,1,87.5
400,128,5920,1,2,0:0:0:0:
300,56,6074,1,0,0:0:0:0:
292,192,6228,6,0,L|307:278,1,87.5,0|0,0:0|0:0,0:0:0:0:
439,180,6690,6,0,P|423:83|326:71,1,209.999993591309,6|2,0:0|0:0,0:0:0:0:
292,192,7151,2,0,P|332:174|364:143,1,87.5,8|0,0:0|0:0,0:0:0:0:
196,148,7459,2,0,P|188:192|201:239,1,87.5,2|2,0:0|0:0,0:0:0:0:
268,84,7766,2,0,P|233:55|186:42,1,87.5,8|2,0:0|0:0,0:0:0:0:
96,100,8074,6,0,B|64:152|64:152|96:208|48:280,1,175,2|8,0:0|0:0,0:0:0:0:
252,200,8536,2,0,P|212:180|156:180,1,87.5,0|2,0:0|0:0,0:0:0:0:
44,344,8843,2,0,P|92:344|132:324,1,87.5,2|8,0:0|0:0,0:0:0:0:
260,288,9151,6,0,L|224:92,1,175,6|2,0:0|0:0,0:0:0:0:
144,60,9613,2,0,P|96:60|40:80,1,87.5,8|0,0:0|0:0,0:0:0:0:
228,116,9920,2,0,P|276:116|332:96,1,87.5,2|2,0:0|0:0,0:0:0:0:
313,105,10228,1,8,0:0:0:0:
176,200,10382,1,0,0:0:0:0:
224,28,10536,5,2,0:0:0:0:
276,184,10690,1,2,0:0:0:0:
144,60,10843,1,8,0:0:0:0:
352,140,10997,2,0,P|364:188|356:252,1,87.5,2|0,0:0|0:0,0:0:0:0:
196,213,11305,2,0,P|233:191|276:184,1,87.5,2|8,0:0|0:0,0:0:0:0:
416,212,11613,6,0,P|412:304|336:348,1,175,6|2,0:0|0:0,0:0:0:0:
235,227,12074,2,0,P|279:235|319:251,1,87.5,8|0,0:0|0:0,0:0:0:0:
319,253,12382,1,2,0:0:0:0:
232,332,12536,1,2,0:0:0:0:
140,232,12690,2,0,P|144:184|176:140,1,87.5,8|0,0:0|0:0,0:0:0:0:
235,227,12997,5,2,0:0:0:0:
92,320,13151,1,2,0:0:0:0:
76,136,13305,2,0,P|100:96|160:64,2,87.5,8|2|0,0:0|0:0|0:0,0:0:0:0:
140,232,13766,1,2,0:0:0:0:
248,128,13920,1,8,0:0:0:0:
64,40,14074,1,2,0:0:0:0:
64,40,14151,1,2,0:0:0:0:
64,40,14228,5,12,0:0:0:0:
32,204,14382,1,2,0:0:0:0:
157,167,14536,2,0,P|117:148|76:136,1,87.5,8|2,0:0|0:0,0:0:0:0:
16,284,14843,2,0,P|54:258|87:225,1,87.5,8|8,0:0|0:0,0:0:0:0:
136,116,15151,1,2,0:0:0:0:
52,32,15305,1,8,0:0:0:0:
32,204,15459,5,8,0:0:0:0:
221,172,15613,1,2,0:0:0:0:
49,83,15766,1,8,0:0:0:0:
137,255,15920,1,2,0:0:0:0:
166,66,16074,1,12,0:0:0:0:
160,48,16228,1,12,0:0:0:0:
314,153,16690,6,0,P|376:171|432:140,1,131.25000500679,2|2,0:0|0:0,0:0:0:0:
264,88,17151,2,0,P|240:120|232:164,1,65.6250025033952,0|2,0:0|0:0,0:0:0:0:
364,88,17459,2,0,P|353:57|332:31,1,65.6250025033952,0|2,0:0|0:0,0:0:0:0:
314,153,17766,1,0,0:0:0:0:
372,212,17920,6,0,P|404:213|436:208,2,65.6250025033952,2|0|2,0:0|0:0|0:0,0:0:0:0:
314,153,18382,1,0,0:0:0:0:
264,88,18536,2,0,P|231:86|200:92,1,65.6250025033952,2|0,0:0|0:0,0:0:0:0:
104,196,18843,2,0,P|136:197|168:192,1,65.6250025033952,2|0,0:0|0:0,0:0:0:0:
314,153,19151,6,0,P|336:220|316:296,1,131.25000500679,2|2,0:0|0:0,0:0:0:0:
252,320,19613,2,0,P|243:282|255:234,1,65.6250025033952,0|2,0:0|0:0,0:0:0:0:
408,256,19920,2,0,P|410:288|402:320,1,65.6250025033952,0|2,0:0|0:0,0:0:0:0:
324,276,20228,1,0,0:0:0:0:
368,176,20382,6,0,P|400:168|432:168,2,65.6250025033952,2|0|2,0:0|0:0|0:0,0:0:0:0:
288,200,20843,1,0,0:0:0:0:
200,168,20997,2,0,P|196:204|216:248,1,65.6250025033952,2|0,0:0|0:0,0:0:0:0:
312,108,21305,2,0,P|316:72|296:28,1,65.6250025033952,2|0,0:0|0:0,0:0:0:0:
188,36,21613,6,0,L|144:84,1,65.6250025033952,2|0,0:0|0:0,0:0:0:0:
200,168,21920,2,0,P|248:180|276:172,1,65.6250025033952,2|0,0:0|0:0,0:0:0:0:
368,144,22228,2,0,P|431:131|490:157,1,131.25000500679,2|2,0:0|0:0,0:0:0:0:
284,184,22690,2,0,P|272:148|276:104,1,65.6250025033952,0|2,0:0|0:0,0:0:0:0:
424,240,22997,2,0,P|423:272|412:303,1,65.6250025033952,0|2,0:0|0:0,0:0:0:0:
368,168,23305,2,0,L|404:32,1,131.25000500679
424,240,23766,1,2,0:0:0:0:
308,108,23920,6,0,P|264:100|216:112,1,87.5,0|2,0:0|0:0,0:0:0:0:
184,224,24228,2,0,P|228:220|272:192,1,87.5,0|2,0:0|0:0,0:0:0:0:
132,136,24536,2,0,L|160:328,1,175
360,232,24997,2,0,P|376:176|372:136,1,87.5,2|2,0:0|0:0,0:0:0:0:
300,72,25305,6,0,B|248:56|248:56|208:88|144:72,2,139.999995727539,8|8|8,0:0|0:0|0:0,0:0:0:0:
288,152,25920,2,0,B|328:163|368:131|368:131|420:147,2,139.999995727539,8|8|8,0:0|0:0|0:0,0:0:0:0:
168,80,26536,5,6,0:0:0:0:
253,180,26843,2,0,P|300:188|348:180,1,96.250002937317,8|0,0:0|0:0,0:0:0:0:
406,100,27151,2,0,P|448:184|400:264,1,192.500005874634,2|8,0:0|0:0,0:0:0:0:
316,280,27613,2,0,P|340:324|412:348,1,96.250002937317
347,180,27920,2,0,P|296:180|232:220,1,96.250002937317,2|8,0:0|0:0,0:0:0:0:
316,280,28228,1,0,0:0:0:0:
428,236,28382,2,0,P|445:180|426:118,1,96.250002937317,2|2,0:0|0:0,0:0:0:0:
332,72,28690,1,8,0:0:0:0:
160,239,28843,6,0,P|226:302|315:279,1,192.500005874634,0|2,0:0|0:0,0:0:0:0:
252,188,29305,1,8,0:0:0:0:
92,176,29459,2,0,P|72:222|77:272,1,96.250002937317,0|2,0:0|0:0,0:0:0:0:
168,96,29766,2,0,P|149:49|110:17,1,96.250002937317,2|10,0:0|0:0,0:0:0:0:
92,176,30074,6,0,P|184:196|268:128,1,192.500005874634,2|2,0:0|0:0,0:0:0:0:
400,100,30536,2,0,L|380:208,1,96.250002937317,8|0,0:0|0:0,0:0:0:0:
324,308,30843,2,0,B|284:296|260:312|260:312|256:252|200:248,1,144.375004405975,2|0,0:0|0:0,0:0:0:0:
172,316,31151,2,0,P|144:264|168:196,1,96.250002937317,8|0,0:0|0:0,0:0:0:0:
248,184,31459,6,0,P|216:124|144:116,1,144.375004405975,6|0,0:0|0:0,0:0:0:0:
80,160,31766,2,0,P|69:113|79:66,1,96.250002937317,8|0,0:0|0:0,0:0:0:0:
312,32,32074,2,0,P|323:78|314:125,1,96.250002937317,2|2,0:0|0:0,0:0:0:0:
260,256,32382,1,8,0:0:0:0:
60,208,32536,6,0,P|116:188|168:200,1,96.250002937317,2|0,0:0|0:0,0:0:0:0:
248,184,32843,1,2,0:0:0:0:
96,100,32997,2,0,P|40:96|0:56,1,96.250002937317,8|0,0:0|0:0,0:0:0:0:
156,20,33305,5,2,0:0:0:0:
236,116,33459,1,2,0:0:0:0:
136,192,33613,2,0,P|128:244|152:288,1,96.250002937317,8|0,0:0|0:0,0:0:0:0:
264,328,33920,5,6,0:0:0:0:
368,228,34074,2,0,P|368:176|348:128,1,96.250002937317,2|8,0:0|0:0,0:0:0:0:
216,56,34382,1,0,0:0:0:0:
232,212,34537,1,2,0:0:0:0:
384,172,34690,1,8,0:0:0:0:
384,172,34767,1,8,0:0:0:0:
384,172,34843,1,8,0:0:0:0:
272,72,34997,6,0,P|200:48|140:112,1,157.499995193482,6|0,0:0|0:0,0:0:0:0:
112,172,35305,2,0,P|176:172|212:124,1,113.749994792938,12|2,0:0|0:0,0:0:0:0:
72,104,35613,2,0,L|40:248,1,122.499996261597,12|0,0:0|0:3,0:0:0:0:
68,336,35920,1,8,0:3:0:0:
100,332,35997,1,8,0:3:0:0:
132,328,36074,1,4,0:3:0:0:
164,324,36151,1,4,0:3:0:0:
196,320,36228,1,4,0:3:0:0:
228,316,36305,1,4,0:3:0:0:
256,312,36382,5,6,0:0:0:0:
456,176,36690,2,0,P|468:124|460:76,1,87.5,2|0,0:0|0:0,0:0:0:0:
380,128,36997,2,0,P|380:72|368:32,1,87.5,2|0,0:0|0:0,0:0:0:0:
296,96,37305,2,0,P|288:40|264:4,1,87.5,2|0,0:0|0:0,0:0:0:0:
208,80,37613,2,0,P|120:124|24:72,1,175,2|0,0:0|0:0,0:0:0:0:
51,101,38074,1,2,0:0:0:0:
204,188,38382,1,0,0:0:0:0:
204,188,38536,2,0,P|208:240|192:292,1,87.5,2|0,0:0|0:0,0:0:0:0:
112,308,38843,6,0,P|184:364|280:320,1,175,2|0,0:0|0:0,0:0:0:0:
336,272,39305,2,0,P|420:245|490:301,1,175,2|0,0:0|0:0,0:0:0:0:
404,336,39766,1,2,0:0:0:0:
304,180,40074,6,0,B|276:112|328:48|328:48|344:72|336:96,1,175,2|0,0:0|0:0,0:0:0:0:
304,180,40536,2,0,B|259:238|177:225|177:225|190:199|215:194,1,175,2|0,0:0|0:0,0:0:0:0:
304,180,40997,2,0,B|376:189|406:266|406:266|377:268|360:249,1,175,2|6,0:0|0:0,0:0:0:0:
228,128,41613,6,0,P|224:80|240:28,1,87.5,2|0,0:0|0:0,0:0:0:0:
308,96,41920,2,0,P|320:48|352:12,1,87.5,2|0,0:0|0:0,0:0:0:0:
404,92,42228,2,0,P|436:56|480:44,1,87.5,2|0,0:0|0:0,0:0:0:0:
480,136,42536,2,0,P|516:224|480:320,1,175,2|0,0:0|0:0,0:0:0:0:
288,316,42997,2,0,P|339:247|422:222,1,175,2|0,0:0|0:0,0:0:0:0:
392,336,43459,1,2,0:0:0:0:
392,336,43766,6,0,P|297:323|232:244,1,175,6|0,0:0|0:0,0:0:0:0:
252,180,44228,1,2,0:0:0:0:
308,112,44382,6,0,P|284:96|248:88,2,58.3333333333333,2|2|2,0:0|0:0|0:0,0:0:0:0:
356,184,44690,2,0,P|388:196|432:200,2,58.3333333333333,2|2|2,0:0|0:0|0:0,0:0:0:0:
308,112,44997,6,0,P|228:72|132:104,1,175,8|0,0:0|0:0,0:0:0:0:
128,180,45459,2,0,P|64:120|88:20,1,175,8|0,0:3|0:0,0:0:0:0:
248,168,45920,2,0,L|224:308,1,131.25,4|0,0:3|0:0,0:0:0:0:
220,344,46228,5,6,0:0:0:0:
220,344,46382,1,0,0:0:0:0:
352,320,46536,2,0,P|408:324|460:348,1,96.250002937317,2|0,0:0|0:0,0:0:0:0:
452,208,46843,2,0,B|424:160|424:160|464:80|400:24,1,192.500005874634,2|2,0:0|0:0,0:0:0:0:
264,124,47305,2,0,P|324:120|368:96,2,96.250002937317,0|2|0,0:0|0:0|0:0,0:0:0:0:
176,56,47766,2,0,P|129:57|84:76,1,96.250002937317,2|0,0:0|0:0,0:0:0:0:
148,160,48074,5,2,0:0:0:0:
264,124,48228,2,0,L|240:16,1,96.250002937317,8|0,0:0|0:0,0:0:0:0:
208,232,48536,2,0,L|232:340,1,96.250002937317,8|2,0:0|0:0,0:0:0:0:
356,224,48843,5,0,0:0:0:0:
237,140,48997,2,0,P|189:137|148:160,1,96.250002937317,2|0,0:0|0:0,0:0:0:0:
336,116,49305,2,0,P|344:64|328:4,1,96.250002937317,2|0,0:0|0:0,0:0:0:0:
236,228,49613,2,0,P|228:280|244:340,1,96.250002937317,2|0,0:0|0:0,0:0:0:0:
336,196,49920,5,2,0:0:0:0:
237,140,50074,1,0,0:0:0:0:
132,188,50228,2,0,B|88:200|88:200|28:192,1,96.250002937317,2|2,0:0|0:0,0:0:0:0:
336,116,50536,5,2,0:0:0:0:
140,108,50690,1,2,0:0:0:0:
236,228,50843,1,2,0:0:0:0:
236,48,50997,1,2,0:0:0:0:
132,188,51151,6,0,P|86:200|39:188,1,96.250002937317,12|2,0:0|0:0,0:0:0:0:
237,140,51459,2,0,P|282:127|329:139,1,96.250002937317,12|2,0:0|0:0,0:0:0:0:
424,192,51766,2,0,P|428:124|416:80,1,96.250002937317,12|2,0:0|0:0,0:0:0:0:
272,56,52074,1,2,0:0:0:0:
236,228,52228,1,12,0:0:0:0:
336,152,52382,5,2,0:0:0:0:
140,112,52536,2,0,P|90:111|39:139,1,96.250002937317,2|12,0:0|0:0,0:0:0:0:
112,224,52843,1,2,0:0:0:0:
316,268,52997,2,0,P|322:221|314:174,1,96.250002937317,2|12,0:0|0:0,0:0:0:0:
168,76,53305,1,2,0:0:0:0:
236,228,53459,1,0,0:0:0:0:
52,296,53613,6,0,P|29:229|54:163,1,144.375004405975,14|0,0:0|0:0,0:0:0:0:
78,135,53920,1,2,0:0:0:0:
112,120,53997,1,2,0:0:0:0:
152,124,54074,1,2,0:0:0:0:
184,148,54151,1,2,0:0:0:0:
208,176,54228,1,2,0:0:0:0:
244,192,54305,1,2,0:0:0:0:
284,188,54382,1,2,0:0:0:0:
320,176,54459,1,2,0:0:0:0:
348,148,54536,1,2,0:0:0:0:
352,108,54613,1,2,0:0:0:0:
340,72,54690,5,12,0:0:0:0:
240,40,55151,1,0,0:0:0:0:
127,57,55459,2,0,L|240:40,1,113.749994792938
136,232,55920,1,0,0:0:0:0:
31,244,56074,6,0,L|136:232,1,104.999996795654,6|0,0:0|0:0,0:0:0:0:
268,224,56382,1,8,0:0:0:0:
208,152,56536,2,0,P|312:140|356:244,1,209.999993591309,2|2,0:0|0:0,0:0:0:0:
120,180,56997,2,0,P|120:120|156:72,1,104.999996795654,8|2,0:0|0:0,0:0:0:0:
268,224,57305,2,0,P|268:284|232:332,1,104.999996795654,0|2,0:0|0:0,0:0:0:0:
208,152,57613,1,8,0:0:0:0:
352,288,57766,1,0,0:0:0:0:
156,332,57920,2,0,P|92:340|36:256,2,157.499995193482,2|8|8,0:0|0:0|0:0,0:0:0:0:
268,224,58536,6,0,P|216:208|144:228,1,104.999996795654,6|0,0:0|0:0,0:0:0:0:
352,288,58843,2,0,P|404:304|476:284,1,104.999996795654,8|2,0:0|0:0,0:0:0:0:
408,204,59151,1,2,0:0:0:0:
272,328,59305,1,2,0:0:0:0:
488,240,59459,2,0,P|492:192|464:128,1,104.999996795654,8|2,0:0|0:0,0:0:0:0:
340,111,59766,5,2,0:0:0:0:
232,260,59920,1,2,0:0:0:0:
232,146,60074,1,8,0:0:0:0:
340,295,60228,1,0,0:0:0:0:
408,204,60382,2,0,P|352:200|300:224,1,104.999996795654,2|0,0:0|0:0,0:0:0:0:
148,316,60690,2,0,P|104:280|88:216,1,104.999996795654,8|2,0:0|0:0,0:0:0:0:
96,196,60920,1,2,0:0:0:0:
124,164,60997,6,0,P|180:188|244:172,1,104.999996795654,6|0,0:0|0:0,0:0:0:0:
344,140,61305,1,8,0:0:0:0:
300,260,61459,1,0,0:0:0:0:
232,144,61613,2,0,P|242:95|284:36,1,104.999996795654,2|2,0:0|0:0,0:0:0:0:
445,125,61920,2,0,P|396:142|344:140,1,104.999996795654,8|0,0:0|0:0,0:0:0:0:
380,48,62228,6,0,L|420:280,1,209.999993591309,6|8,0:0|0:0,0:0:0:0:
324,236,62690,2,0,P|264:248|220:232,1,104.999996795654,0|4,0:0|0:3,0:0:0:0:
196,204,62920,1,2,0:0:0:0:
156,192,62997,1,8,0:0:0:0:
116,208,63074,1,8,0:0:0:0:
108,248,63151,2,0,B|116:280|116:280|116:312,1,52.4999983978272,8|0,0:0|0:0,0:0:0:0:
84,328,63305,6,0,P|32:240|96:132,1,209.999993591309,6|2,0:0|0:0,0:0:0:0:
228,236,63766,2,0,P|173:244|119:236,1,104.999996795654,12|2,0:0|0:0,0:0:0:0:
316,168,64074,1,12,0:0:0:0:
316,168,64382,5,2,0:0:0:0:
176,304,64536,1,2,0:0:0:0:
212,96,64690,1,12,0:0:0:0:
304,288,64997,1,12,0:0:0:0:
460,172,65305,5,8,0:3:0:0:
460,200,65382,1,0,0:0:0:0:
452,224,65459,1,8,0:0:0:0:
444,248,65536,1,8,0:0:0:0:
432,272,65613,2,0,B|420:300|420:300|396:328,3,52.4999983978272,8|8|8|8,0:0|0:0|0:0|0:0,0:0:0:0:
352,256,65920,6,0,P|312:216|244:208,1,104.999996795654,6|0,0:0|0:0,0:0:0:0:
120,192,66228,1,8,0:0:0:0:
208,280,66382,1,0,0:0:0:0:
248,152,66536,2,0,P|260:100|248:48,1,104.999996795654,2|2,0:0|0:0,0:0:0:0:
40,128,66843,2,0,P|28:180|40:232,1,104.999996795654,8|0,0:0|0:0,0:0:0:0:
164,288,67151,1,2,0:0:0:0:
44,336,67305,1,2,0:0:0:0:
120,192,67459,2,0,P|184:188|236:212,1,104.999996795654,8|0,0:0|0:0,0:0:0:0:
328,236,67766,5,2,0:0:0:0:
264,116,67920,2,0,P|212:96|132:100,1,104.999996795654,2|8,0:0|0:0,0:0:0:0:
40,128,68228,1,8,0:0:0:0:
40,128,68305,1,8,0:0:0:0:
40,128,68382,6,0,P|24:184|48:272,1,104.999996795654,6|0,0:0|0:0,0:0:0:0:
92,328,68690,1,8,0:0:0:0:
228,276,68843,1,0,0:0:0:0:
120,192,68997,1,2,0:0:0:0:
264,364,69151,2,0,P|306:330|328:268,1,104.999996795654,2|8,0:0|0:0,0:0:0:0:
327,157,69459,6,0,L|120:192,1,209.999993591309,2|2,0:0|0:0,0:0:0:0:
188,272,69920,2,0,P|248:264|304:288,1,104.999996795654,8|0,0:0|0:0,0:0:0:0:
336,304,70151,1,0,0:0:0:0:
336,304,70228,2,0,P|396:304|444:264,1,104.999996795654,2|8,0:0|0:0,0:0:0:0:
460,236,70459,1,0,0:0:0:0:
464,184,70536,6,0,P|464:160|456:128,1,52.4999983978272,8|2,0:0|0:0,0:0:0:0:
308,120,70690,2,0,P|288:144|280:172,1,52.4999983978272,8|8,0:0|0:0,0:0:0:0:
376,164,70843,6,0,P|388:108|372:56,1,104.999996795654,6|0,0:0|0:0,0:0:0:0:
304,224,71151,2,0,P|345:254|397:263,1,104.999996795654,8|0,0:0|0:0,0:0:0:0:
464,184,71459,1,2,0:0:0:0:
372,84,71613,1,2,0:0:0:0:
240,120,71766,2,0,P|176:112|124:80,1,104.999996795654,8|0,0:0|0:0,0:0:0:0:
280,36,72074,6,0,P|320:136|264:212,1,209.999993591309,6|8,0:0|0:0,0:0:0:0:
128,228,72536,1,2,0:0:0:0:
240,120,72690,2,0,L|300:144,1,52.4999983978272,8|2,0:3|0:0,0:0:0:0:
372,84,72843,2,0,L|308:52,1,52.4999983978272,8|8,0:0|0:0,0:0:0:0:
280,36,72997,1,8,0:0:0:0:
284,232,73151,6,0,P|372:272|452:188,1,209.999993591309,6|2,0:0|0:0,0:0:0:0:
372,84,73613,2,0,P|364:132|372:204,1,104.999996795654,12|2,0:0|0:0,0:0:0:0:
460,300,73920,1,12,0:0:0:0:
460,300,74228,5,2,0:0:0:0:
312,172,74382,1,0,0:0:0:0:
336,348,74536,1,12,0:0:0:0:
312,172,74843,2,0,P|256:152|180:160,1,104.999996795654,12|0,0:0|0:0,0:0:0:0:
400,208,75151,5,8,0:3:0:0:
408,172,75228,1,2,0:0:0:0:
416,136,75305,1,8,0:0:0:0:
424,100,75382,1,8,0:0:0:0:
432,64,75459,1,8,0:0:0:0:
248,88,75613,6,0,P|164:144|40:96,1,209.999993591309,6|0,0:0|0:0,0:0:0:0:
160,48,76074,2,0,P|176:104|164:172,1,104.999996795654,8|0,0:0|0:0,0:0:0:0:
64,120,76382,1,2,0:0:0:0:
160,48,76536,1,2,0:0:0:0:
208,208,76690,2,0,P|260:216|316:196,1,104.999996795654,8|0,0:0|0:0,0:0:0:0:
244,128,76997,6,0,P|152:140|136:260,1,209.999993591309,2|8,0:0|0:0,0:0:0:0:
256,332,77459,2,0,L|376:312,1,104.999996795654,0|2,0:0|0:0,0:0:0:0:
456,192,77766,2,0,P|464:124|444:76,1,104.999996795654,2|8,0:0|0:0,0:0:0:0:
304,36,78074,1,2,0:0:0:0:
304,36,78151,1,2,0:0:0:0:
304,36,78228,6,0,B|244:16|244:16|200:80|88:80,1,209.999993591309,6|8,0:0|0:0,0:0:0:0:
24,32,78690,1,8,0:0:0:0:
88,172,78843,2,0,P|140:196|216:184,1,104.999996795654,8|8,0:0|0:0,0:0:0:0:
292,148,79151,1,8,0:0:0:0:
156,104,79305,1,8,0:0:0:0:
196,264,79459,5,0,0:0:0:0:
348,192,79613,1,2,0:0:0:0:
204,104,79766,1,0,0:0:0:0:
300,288,79920,1,0,0:0:0:0:
308,104,80074,1,2,0:0:0:0:
140,196,80228,2,0,L|256:192,1,104.999996795654,2|0,0:0|0:0,0:0:0:0:
404,100,80536,6,0,P|316:44|228:112,1,209.999993591309,6|2,0:0|0:0,0:0:0:0:
268,216,80997,2,0,P|298:185|312:144,1,87.5,8|0,0:0|0:0,0:0:0:0:
140,196,81305,2,0,P|108:232|96:284,1,87.5,2|2,0:0|0:0,0:0:0:0:
212,336,81613,1,8,0:0:0:0:
268,216,81766,1,0,0:0:0:0:
260,84,81920,6,0,P|196:20|96:60,1,175,2|8,0:0|0:0,0:0:0:0:
120,172,82382,2,0,P|152:144|172:105,1,87.5,0|2,0:0|0:0,0:0:0:0:
8,144,82690,2,0,P|8:186|25:227,1,87.5,2|8,0:0|0:0,0:0:0:0:
200,296,82997,6,0,B|248:272|248:272|308:312|384:256,1,175,6|2,0:0|0:0,0:0:0:0:
304,108,83459,2,0,P|296:156|304:204,1,87.5,8|0,0:0|0:0,0:0:0:0:
424,152,83766,1,2,0:0:0:0:
356,40,83920,1,2,0:0:0:0:
228,76,84074,2,0,P|188:88|132:84,1,87.5,8|0,0:0|0:0,0:0:0:0:
36,40,84382,5,2,0:0:0:0:
112,148,84536,1,2,0:0:0:0:
0,216,84690,1,8,0:0:0:0:
60,72,84843,2,0,P|128:60|196:112,1,131.25,2|0,0:0|0:0,0:0:0:0:
208,124,85151,2,0,L|240:232,1,87.5,2|8,0:0|0:0,0:0:0:0:
192,316,85459,6,0,P|284:316|340:236,1,175,6|2,0:0|0:0,0:0:0:0:
260,144,85920,2,0,P|258:100|274:60,1,87.5,8|0,0:0|0:0,0:0:0:0:
424,180,86228,2,0,P|440:220|438:263,1,87.5,2|2,0:0|0:0,0:0:0:0:
240,272,86536,2,0,P|266:237|305:217,1,87.5,8|0,0:0|0:0,0:0:0:0:
424,180,86843,5,2,0:0:0:0:
348,320,86997,1,2,0:0:0:0:
284,120,87151,1,8,0:0:0:0:
455,257,87305,2,0,P|412:260|372:244,1,87.5,2|0,0:0|0:0,0:0:0:0:
284,120,87613,2,0,P|240:117|200:133,1,87.5,2|8,0:0|0:0,0:0:0:0:
396,140,87920,6,0,L|384:72,1,43.75,2|2,0:0|0:0,0:0:0:0:
356,40,88074,2,0,P|304:28|240:40,1,87.5,12|2,0:0|0:0,0:0:0:0:
220,72,88305,1,0,0:0:0:0:
220,72,88382,2,0,P|168:84|104:72,1,87.5,12|2,0:0|0:0,0:0:0:0:
36,20,88690,2,0,P|20:68|40:136,1,87.5,12|2,0:0|0:0,0:0:0:0:
44,144,88920,1,2,0:0:0:0:
60,184,88997,2,0,P|72:240|56:288,1,87.5,12|2,0:0|0:0,0:0:0:0:
72,344,89305,6,0,L|144:372,3,43.75,12|8|8|8,0:0|0:0|0:0|0:0,0:0:0:0:
156,348,89613,2,0,L|220:336,3,43.75,2|2|2|2,0:0|0:0|0:0|0:0,0:0:0:0:
240,320,89920,1,8,0:3:0:0:
264,284,89997,1,8,0:3:0:0:
272,240,90074,1,8,0:3:0:0:
264,196,90151,1,8,0:3:0:0:
236,160,90228,2,0,L|176:172,1,43.75,4|4,0:3|0:3,0:3:0:0:
132,220,90382,2,0,L|88:196,1,43.75,4|4,0:3|0:3,0:3:0:0:
32,152,90536,5,6,0:0:0:0:
