osu file format v14

[General]
AudioFilename: Miiro.mp3
AudioLeadIn: 2000
PreviewTime: 55141
Countdown: 0
SampleSet: Soft
StackLeniency: 0.7
Mode: 0
LetterboxInBreaks: 0
WidescreenStoryboard: 1

[Editor]
Bookmarks: 16680,26526,36372,46218
DistanceSpacing: 0.5
BeatDivisor: 4
GridSize: 16
TimelineZoom: 2

[Metadata]
Title:MIIRO
TitleUnicode:海色
Artist:AKINO from bless4
ArtistUnicode:AKINO from bless4
Creator:hopperhtkn
Version:CRN's Extra
Source:艦隊これくしょん -艦これ-
Tags:Kantai Collection kancolle Combined Fleet Collection Opening Lanturn Heanday pkhg ShiraKai HabiHolic rui val0108 caren_sk
BeatmapID:577167
BeatmapSetID:249179

[Difficulty]
HPDrainRate:7
CircleSize:4
OverallDifficulty:8
ApproachRate:9.4
SliderMultiplier:1.95
SliderTickRate:1

[Events]
//Background and Video events
0,0,"BG.jpg",0,0
//Break Periods
//Storyboard Layer 0 (Background)
//Storyboard Layer 1 (Fail)
//Storyboard Layer 2 (Pass)
//Storyboard Layer 3 (Foreground)
//Storyboard Sound Samples

[TimingPoints]
690,307.692307692308,4,2,0,40,1,0
690,-200,4,2,0,40,0,0
4074,-100,4,2,0,30,0,0
4305,-100,4,2,0,20,0,0
4382,-125,4,2,1,30,0,0
5305,-125,4,2,1,40,0,0
6228,-100,4,2,1,40,0,0
6536,-100,4,2,1,20,0,0
6690,-100,4,2,1,40,0,0
16690,-125,4,2,0,30,0,0
25305,-125,4,2,0,40,0,0
26536,-100,4,2,1,40,0,0
34997,-83.3333333333333,4,2,1,40,0,0
35228,-83.3333333333333,4,2,1,20,0,0
35305,-83.3333333333333,4,2,1,40,0,0
35536,-83.3333333333333,4,2,1,20,0,0
35613,-83.3333333333333,4,2,1,40,0,0
35843,-83.3333333333333,4,2,1,20,0,0
35920,-83.3333333333333,4,2,1,40,0,0
36382,-125,4,2,1,30,0,0
36997,-125,4,2,0,25,0,0
40459,-125,4,2,0,20,0,0
40536,-125,4,2,0,30,0,0
40920,-125,4,2,0,20,0,0
40997,-125,4,2,0,35,0,0
46228,-100,4,2,1,40,0,0
51151,-100,4,2,1,45,0,0
55151,-100,4,2,0,40,0,0
56074,-83.3333333333333,4,2,1,60,0,1
63766,-66.6666666666667,4,2,1,70,0,1
65305,-83.3333333333333,4,2,1,60,0,1
73613,-66.6666666666667,4,2,1,70,0,1
75151,-83.3333333333333,4,2,1,60,0,1
79459,-83.3333333333333,4,2,0,30,0,0
80536,-83.3333333333333,4,2,1,50,0,0

[Colours]
Combo1 : 255,242,202
Combo2 : 210,255,210
Combo3 : 217,234,255
Combo4 : 253,210,217

[HitObjects]
256,96,536,5,0,0:0:0:0:
256,96,613,1,0,0:0:0:0:
256,96,690,1,0,0:0:0:0:
256,96,997,6,0,L|363:99,1,97.5,2|0,0:0|0:0,0:0:0:0:
214,174,1459,2,0,L|152:172,1,48.75,2|0,0:0|0:0,0:0:0:0:
89,170,1766,1,2,0:0:0:0:
124,236,1920,1,2,0:0:0:0:
89,170,2074,1,0,0:0:0:0:
2,239,2228,1,0,0:0:0:0:
202,276,2382,1,2,0:0:0:0:
67,329,2536,2,0,P|64:296|67:270,1,48.75,2|0,0:0|0:0,0:0:0:0:
165,173,2843,2,0,P|168:140|165:114,1,48.75,2|0,0:0|0:0,0:0:0:0:
83,5,3151,6,0,P|76:62|83:108,1,97.5,2|0,0:0|0:0,0:0:0:0:
124,236,3613,2,0,P|131:293|124:339,1,97.5,2|0,0:0|0:0,0:0:0:0:
200,300,4074,6,0,P|265:282|352:274,1,146.25,2|0,0:0|0:0,0:0:0:0:
423,275,4382,6,0,P|469:279|507:291,1,78,0|0,0:0|0:0,0:0:0:0:
361,367,4690,2,0,P|315:363|277:351,1,78
200,300,4997,2,0,P|180:258|171:219,1,78
120,156,5305,2,0,P|74:160|38:172,1,78
256,240,5613,2,0,P|302:236|340:224,1,78
89,229,5920,2,0,P|93:275|105:313,1,78
256,384,6228,6,0,B|286:293|255:238|255:238|257:170,1,195
285,44,6690,6,0,P|334:37|389:44,1,97.5,12|0,0:0|0:0,0:0:0:0:
512,117,6997,1,0,0:0:0:0:
347,212,7151,2,0,L|340:100,1,97.5,8|0,0:0|0:0,0:0:0:0:
273,300,7459,1,0,0:0:0:0:
495,309,7613,1,0,0:0:0:0:
418,145,7766,2,0,L|425:257,1,97.5,8|0,0:0|0:0,0:0:0:0:
433,362,8074,5,0,0:0:0:0:
347,212,8228,1,0,0:0:0:0:
273,300,8382,2,0,P|221:305|165:300,1,97.5,8|0,0:0|0:0,0:0:0:0:
29,332,8690,2,0,P|24:280|29:224,1,97.5
219,84,8997,2,0,P|224:136|219:192,1,97.5,8|0,0:0|0:0,0:0:0:0:
220,181,9228,1,0,0:0:0:0:
220,181,9305,1,0,0:0:0:0:
114,145,9459,5,0,0:0:0:0:
398,239,9613,1,8,0:0:0:0:
293,300,9766,2,0,P|288:248|293:192,1,97.5
353,33,10074,1,0,0:0:0:0:
502,166,10228,2,0,P|450:171|394:166,1,97.5,8|0,0:0|0:0,0:0:0:0:
219,84,10536,5,0,0:0:0:0:
32,208,10690,1,0,0:0:0:0:
112,368,10843,1,8,0:0:0:0:
256,288,10997,1,0,0:0:0:0:
256,288,11074,1,0,0:0:0:0:
256,288,11151,2,0,L|365:295,1,97.5
502,166,11459,1,8,0:0:0:0:
256,288,11613,1,4,0:0:0:0:
439,382,11766,6,0,L|447:272,1,97.5
387,40,12074,2,0,L|379:150,1,97.5,8|0,0:0|0:0,0:0:0:0:
379,137,12305,1,0,0:0:0:0:
379,137,12382,1,0,0:0:0:0:
290,81,12536,1,0,0:0:0:0:
456,213,12690,1,8,0:0:0:0:
256,288,12843,5,0,0:0:0:0:
256,288,12920,1,0,0:0:0:0:
256,288,12997,2,0,P|250:235|252:190,1,97.5
190,18,13305,2,0,P|196:71|194:116,1,97.5,8|0,0:0|0:0,0:0:0:0:
182,182,13536,1,0,0:0:0:0:
182,182,13613,2,0,L|79:179,1,97.5
0,101,13920,1,8,0:0:0:0:
38,351,14074,5,0,0:0:0:0:
38,351,14151,1,0,0:0:0:0:
38,351,14228,2,0,L|51:227,1,97.5,12|0,0:0|0:0,0:0:0:0:
71,63,14536,1,12,0:0:0:0:
256,208,14690,1,0,0:0:0:0:
144,288,14843,1,12,0:0:0:0:
256,112,14997,1,0,0:0:0:0:
368,288,15151,1,12,0:0:0:0:
441,63,15305,1,8,0:0:0:0:
256,208,15459,5,12,0:0:0:0:
261,226,15536,1,0,0:0:0:0:
265,245,15613,1,0,0:0:0:0:
269,264,15690,1,0,0:0:0:0:
273,282,15766,1,12,0:0:0:0:
276,301,15843,1,0,0:0:0:0:
280,320,15920,1,0,0:0:0:0:
283,339,15997,1,0,0:0:0:0:
286,358,16074,5,12,0:0:0:0:
398,259,16228,1,12,0:0:0:0:
398,259,16690,6,0,L|483:267,1,78,2|0,0:0|0:0,0:0:0:0:
370,184,16997,2,0,L|285:192,1,78
114,259,17305,2,0,L|36:266,1,78,2|0,0:0|0:0,0:0:0:0:
142,184,17613,2,0,L|219:191,1,78,2|0,0:0|0:0,0:0:0:0:
306,262,17920,2,0,P|327:178|319:93,1,156,2|0,0:0|0:0,0:0:0:0:
231,76,18382,1,0,0:0:0:0:
63,137,18536,2,0,P|54:97|54:58,1,78,2|0,0:0|0:0,0:0:0:0:
222,0,18843,2,0,P|231:40|231:79,1,78,2|0,0:0|0:0,0:0:0:0:
231,197,19151,6,0,P|147:218|62:210,1,156,2|0,0:0|0:0,0:0:0:0:
180,298,19613,1,0,0:0:0:0:
180,298,19766,2,0,P|218:286|260:281,1,78,2|0,0:0|0:0,0:0:0:0:
474,329,20074,1,2,0:0:0:0:
329,378,20228,2,0,L|342:244,1,117
347,196,20536,1,2,0:0:0:0:
440,256,20690,1,2,0:0:0:0:
512,139,20843,1,0,0:0:0:0:
440,256,20997,2,0,P|427:213|424:173,1,78,2|0,0:0|0:0,0:0:0:0:
353,77,21305,2,0,P|396:64|436:61,1,78,2|0,0:0|0:0,0:0:0:0:
512,50,21613,1,2,0:0:0:0:
440,256,21920,6,0,P|397:269|357:272,1,78
260,356,22228,2,0,L|256:192,1,156,2|0,0:0|0:0,0:0:0:0:
165,69,22690,2,0,L|169:233,1,156,2|0,0:0|0:0,0:0:0:0:
175,313,23151,1,2,0:0:0:0:
20,263,23305,2,0,P|88:235|184:225,1,156,2|0,0:0|0:0,0:0:0:0:
327,181,23766,1,2,0:0:0:0:
260,106,23920,5,0,0:0:0:0:
260,106,23997,1,0,0:0:0:0:
260,106,24074,2,0,L|257:13,1,78,6|0,0:0|0:0,0:0:0:0:
161,175,24382,1,0,0:0:0:0:
276,231,24536,2,0,L|279:368,1,117,2|0,0:0|0:0,0:0:0:0:
278,347,24843,1,2,0:0:0:0:
198,245,24997,1,0,0:0:0:0:
346,286,25151,1,2,0:0:0:0:
128,320,25305,5,8,0:0:0:0:
0,192,25510,1,8,0:0:0:0:
66,32,25715,1,8,0:0:0:0:
256,192,25920,1,8,0:0:0:0:
446,32,26125,1,8,0:0:0:0:
256,192,26331,1,8,0:0:0:0:
416,320,26536,6,0,L|426:221,1,97.5,4|0,0:0|0:0,0:0:0:0:
446,32,26843,1,8,0:0:0:0:
342,138,26997,1,0,0:0:0:0:
512,152,27151,2,0,L|413:142,1,97.5,8|0,0:0|0:0,0:0:0:0:
342,138,27382,1,0,0:0:0:0:
352,160,27459,1,8,0:0:0:0:
361,184,27536,1,0,0:0:0:0:
369,205,27613,1,12,0:0:0:0:
378,227,27690,1,0,0:0:0:0:
387,250,27766,5,12,0:0:0:0:
256,192,27920,1,0,0:0:0:0:
189,362,28074,1,8,0:0:0:0:
24,310,28228,1,0,0:0:0:0:
189,362,28382,2,0,P|195:298|194:250,1,97.5,0|0,0:0|0:0,0:0:0:0:
16,144,28690,2,0,P|10:208|11:256,1,97.5,8|0,0:0|0:0,0:0:0:0:
24,310,28920,1,0,0:0:0:0:
24,310,28997,6,0,L|132:305,1,97.5
283,264,29305,1,8,0:0:0:0:
461,342,29459,2,0,P|467:278|466:230,1,97.5
463,62,29766,1,0,0:0:0:0:
339,181,29920,2,0,P|403:187|451:186,1,97.5,8|0,0:0|0:0,0:0:0:0:
385,33,30228,6,0,P|321:27|273:28,1,97.5
132,87,30536,1,8,0:0:0:0:
5,37,30690,1,0,0:0:0:0:
132,87,30843,2,0,L|125:197,1,97.5
192,378,31151,2,0,L|199:268,1,97.5,8|0,0:0|0:0,0:0:0:0:
198,280,31382,1,0,0:0:0:0:
198,280,31459,1,0,0:0:0:0:
101,326,31613,5,0,0:0:0:0:
206,196,31766,1,8,0:0:0:0:
294,330,31920,1,0,0:0:0:0:
101,326,32074,2,0,P|48:301|23:269,2,97.5,0|0|8,0:0|0:0|0:0,0:0:0:0:
294,330,32536,2,0,L|405:324,1,97.5
512,234,32843,2,0,L|401:240,1,97.5,0|8,0:0|0:0,0:0:0:0:
256,136,33151,1,0,0:0:0:0:
373,179,33305,2,0,P|379:129|375:69,1,97.5
135,82,33613,2,0,P|133:130|139:179,1,97.5,8|0,0:0|0:0,0:0:0:0:
138,178,33843,1,0,0:0:0:0:
138,178,33920,1,8,0:0:0:0:
9,120,34074,5,0,0:0:0:0:
216,229,34228,1,8,0:0:0:0:
18,351,34382,1,0,0:0:0:0:
9,120,34536,1,8,0:0:0:0:
216,229,34690,1,0,0:0:0:0:
216,229,34766,1,0,0:0:0:0:
216,229,34843,1,8,0:0:0:0:
216,229,34920,1,0,0:0:0:0:
216,229,34997,6,0,L|44:267,1,175.499994644165,12|0,0:0|0:0,0:0:0:0:
18,351,35305,6,0,L|70:183,1,175.499994644165,12|0,0:0|0:0,0:0:0:0:
9,120,35613,6,0,L|127:249,1,175.499994644165,12|0,0:0|0:0,0:0:0:0:
173,247,35920,5,12,0:0:0:0:
216,229,35997,1,0,0:0:0:0:
262,227,36074,1,8,0:0:0:0:
305,243,36151,1,0,0:0:0:0:
351,249,36228,1,0,0:0:0:0:
396,238,36305,1,0,0:0:0:0:
429,205,36382,1,12,0:0:0:0:
429,205,36843,5,0,0:0:0:0:
429,205,36997,2,0,L|516:212,1,78,2|0,0:0|0:0,0:0:0:0:
340,136,37305,2,0,L|253:143,1,78
434,125,37613,2,2,P|437:84|431:38,2,78,2|0|0,0:0|0:0|0:0,0:0:0:0:
506,211,38074,2,0,L|429:205,1,78,2|0,0:0|0:0,0:0:0:0:
340,136,38382,2,0,L|253:143,1,78,0|2,0:0|0:0,0:0:0:0:
157,155,38690,1,0,0:0:0:0:
256,232,38843,5,2,0:0:0:0:
156,311,38997,2,0,P|153:268|155:220,1,78
358,233,39305,1,2,0:0:0:0:
358,233,39459,2,0,P|358:272|356:311,1,78
256,384,39766,2,0,L|256:296,1,78,2|0,0:0|0:0,0:0:0:0:
185,178,40074,2,0,P|154:83|223:17,1,195,2|0,0:0|0:0,0:0:0:0:
299,20,40536,2,0,P|359:90|326:177,1,195,2|0,0:0|0:0,0:0:0:0:
256,240,40997,2,0,L|256:72,1,156,2|0,0:0|0:0,0:0:0:0:
28,155,41613,5,0,0:0:0:0:
28,155,41920,2,0,L|35:238,1,78,0|2,0:0|0:0,0:0:0:0:
29,346,42228,2,0,P|69:348|113:329,1,78,2|0,0:0|0:0,0:0:0:0:
256,240,42536,2,0,P|191:233|101:246,1,156,2|0,0:0|0:0,0:0:0:0:
256,344,42997,2,0,P|321:351|411:338,1,156,2|0,0:0|0:0,0:0:0:0:
483,256,43459,2,0,L|490:179,1,78,2|0,0:0|0:0,0:0:0:0:
415,20,43766,6,0,L|402:199,1,156,2|0,0:0|0:0,0:0:0:0:
237,276,44228,2,0,L|252:93,1,156,2|0,0:0|0:0,0:0:0:0:
256,32,44690,1,2,0:0:0:0:
147,110,44843,1,0,0:0:0:0:
320,224,44997,5,10,0:0:0:0:
160,384,45459,1,10,0:0:0:0:
0,160,45920,1,10,0:0:0:0:
256,32,46228,6,0,L|250:135,1,97.5,6|0,0:0|0:0,0:0:0:0:
234,349,46536,1,8,0:0:0:0:
320,224,46690,1,0,0:0:0:0:
438,327,46843,2,0,P|388:333|336:327,1,97.5,2|0,0:0|0:0,0:0:0:0:
138,201,47151,1,8,0:0:0:0:
44,357,47305,1,0,0:0:0:0:
36,186,47459,5,2,0:0:0:0:
256,272,47613,1,0,0:0:0:0:
44,357,47766,2,0,P|33:305|36:256,1,97.5,10|0,0:0|0:0,0:0:0:0:
71,109,48074,1,10,0:0:0:0:
208,224,48228,1,10,0:0:0:0:
304,160,48382,1,0,0:0:0:0:
441,275,48536,1,10,0:0:0:0:
450,114,48690,1,10,0:0:0:0:
352,318,48843,6,0,P|329:269|327:221,1,97.5,0|8,0:0|0:0,0:0:0:0:
348,43,49151,1,0,0:0:0:0:
512,180,49305,2,0,P|463:203|415:205,1,97.5,2|0,0:0|0:0,0:0:0:0:
208,224,49613,1,8,0:0:0:0:
171,35,49766,1,0,0:0:0:0:
19,260,49920,1,2,0:0:0:0:
189,129,50074,1,2,0:0:0:0:
226,318,50228,1,8,0:0:0:0:
302,205,50382,1,2,0:0:0:0:
113,242,50536,5,8,0:0:0:0:
171,35,50690,1,10,0:0:0:0:
226,318,50843,1,0,0:0:0:0:
384,80,50997,1,10,0:0:0:0:
421,191,51151,5,10,0:0:0:0:
256,112,51305,1,0,0:0:0:0:
493,39,51459,1,10,0:0:0:0:
294,284,51613,1,0,0:0:0:0:
476,339,51766,1,10,0:0:0:0:
384,80,51920,1,0,0:0:0:0:
294,284,52074,1,10,0:0:0:0:
128,80,52228,1,10,0:0:0:0:
91,191,52382,5,10,0:0:0:0:
256,112,52536,1,2,0:0:0:0:
19,39,52690,1,10,0:0:0:0:
218,284,52844,1,2,0:0:0:0:
36,339,52997,1,10,0:0:0:0:
128,80,53151,1,10,0:0:0:0:
218,284,53305,1,10,0:0:0:0:
384,80,53459,1,10,0:0:0:0:
353,228,53613,5,10,0:0:0:0:
327,258,53690,1,0,0:0:0:0:
294,278,53766,1,0,0:0:0:0:
256,288,53843,1,0,0:0:0:0:
217,285,53920,1,10,0:0:0:0:
180,271,53997,1,0,0:0:0:0:
149,248,54074,1,0,0:0:0:0:
126,216,54151,1,0,0:0:0:0:
115,180,54228,1,10,0:0:0:0:
114,140,54305,1,0,0:0:0:0:
124,102,54382,1,0,0:0:0:0:
146,70,54459,1,0,0:0:0:0:
175,45,54536,1,10,0:0:0:0:
212,29,54613,1,0,0:0:0:0:
250,26,54690,1,14,0:0:0:0:
250,26,55151,5,2,0:0:0:0:
24,253,55459,1,0,0:0:0:0:
24,253,55613,1,2,0:0:0:0:
206,359,55920,1,2,0:0:0:0:
206,359,56074,6,0,P|215:299|210:240,1,116.999996429443,6|0,0:0|0:0,0:0:0:0:
20,71,56382,2,0,P|11:131|16:190,1,116.999996429443,8|2,0:0|0:0,0:0:0:0:
24,253,56613,1,0,0:0:0:0:
24,253,56690,2,0,L|147:248,1,116.999996429443,2|0,0:0|0:0,0:0:0:0:
432,192,56997,1,8,0:0:0:0:
306,359,57151,2,0,P|297:299|302:240,1,116.999996429443,2|0,0:0|0:0,0:0:0:0:
393,124,57459,1,2,0:0:0:0:
490,285,57613,2,0,P|430:294|371:289,1,116.999996429443,8|0,0:0|0:0,0:0:0:0:
69,197,57920,5,2,0:0:0:0:
169,333,58074,1,2,0:0:0:0:
256,128,58228,1,8,0:0:0:0:
356,184,58382,1,0,0:0:0:0:
356,184,58459,1,0,0:0:0:0:
356,184,58536,2,0,P|363:122|357:57,1,116.999996429443,6|0,0:0|0:0,0:0:0:0:
153,67,58843,2,0,P|149:125|156:184,1,116.999996429443,8|2,0:0|0:0,0:0:0:0:
169,333,59151,2,0,P|110:336|52:330,1,116.999996429443,2|0,0:0|0:0,0:0:0:0:
356,184,59459,2,0,P|414:177|472:181,1,116.999996429443,8|2,0:0|0:0,0:0:0:0:
472,181,59690,1,0,0:0:0:0:
472,181,59766,1,4,0:0:0:0:
442,58,59920,5,2,0:0:0:0:
370,294,60074,1,8,0:0:0:0:
259,132,60228,1,2,0:0:0:0:
26,217,60382,2,0,P|21:158|30:101,1,116.999996429443,6|0,0:0|0:0,0:0:0:0:
256,16,60690,2,0,P|264:73|260:131,1,116.999996429443,14|0,0:0|0:0,0:0:0:0:
256,352,60997,5,6,0:0:0:0:
199,198,61151,1,0,0:0:0:0:
313,198,61305,1,8,0:0:0:0:
144,320,61459,1,2,0:0:0:0:
368,320,61613,2,0,P|383:258|381:200,1,116.999996429443,6|0,0:0|0:0,0:0:0:0:
384,50,61920,1,8,0:0:0:0:
111,237,62074,1,2,0:0:0:0:
41,137,62228,6,0,P|103:122|161:124,1,116.999996429443,4|2,0:0|0:0,0:0:0:0:
313,198,62536,1,12,0:0:0:0:
384,50,62690,1,2,0:0:0:0:
487,216,62843,1,12,0:0:0:0:
504,266,62920,1,0,0:0:0:0:
489,316,62997,1,2,0:0:0:0:
451,353,63074,1,0,0:0:0:0:
398,358,63151,1,10,0:0:0:0:
349,337,63228,1,0,0:0:0:0:
325,289,63305,5,6,0:0:0:0:
224,160,63459,1,8,0:0:0:0:
120,335,63613,1,2,0:0:0:0:
29,282,63766,2,0,L|42:136,1,146.250005578995,12|2,0:0|0:0,0:0:0:0:
153,18,64074,2,0,L|140:164,1,146.250005578995,14|0,0:0|0:0,0:0:0:0:
120,335,64382,5,10,0:0:0:0:
224,160,64536,1,2,0:0:0:0:
359,366,64690,2,0,L|372:220,1,146.250005578995,12|2,0:0|0:0,0:0:0:0:
483,102,64997,2,0,L|470:248,1,146.250005578995,14|2,0:0|0:0,0:0:0:0:
338,96,65305,1,14,0:0:0:0:
338,96,65382,1,0,0:0:0:0:
338,96,65459,1,2,0:0:0:0:
338,96,65536,1,0,0:0:0:0:
338,96,65613,1,10,0:0:0:0:
338,96,65690,1,0,0:0:0:0:
338,96,65766,1,2,0:0:0:0:
338,96,65843,1,0,0:0:0:0:
338,96,65920,6,0,P|271:89|211:99,1,116.999996429443,14|0,0:0|0:0,0:0:0:0:
13,279,66228,2,0,P|80:286|140:276,1,116.999996429443,8|2,0:0|0:0,0:0:0:0:
250,349,66536,2,0,L|257:211,1,116.999996429443,2|0,0:0|0:0,0:0:0:0:
256,16,66843,1,8,0:0:0:0:
475,176,66997,5,2,0:0:0:0:
475,176,67074,1,0,0:0:0:0:
475,176,67151,2,0,P|408:183|348:173,1,116.999996429443,4|2,0:0|0:0,0:0:0:0:
26,77,67459,2,0,P|93:70|153:80,1,116.999996429443,8|2,0:0|0:0,0:0:0:0:
206,97,67690,1,0,0:0:0:0:
206,97,67766,2,0,L|199:235,1,116.999996429443,4|2,0:0|0:0,0:0:0:0:
98,380,68074,2,0,L|105:242,1,116.999996429443,14|0,0:0|0:0,0:0:0:0:
103,264,68305,1,0,0:0:0:0:
103,264,68382,1,6,0:0:0:0:
192,320,68536,5,0,0:0:0:0:
110,156,68690,1,8,0:0:0:0:
0,321,68843,1,2,0:0:0:0:
110,156,68997,1,2,0:0:0:0:
192,320,69151,1,0,0:0:0:0:
321,199,69305,2,0,P|254:192|194:202,1,116.999996429443,8|2,0:0|0:0,0:0:0:0:
26,213,69613,6,0,P|19:146|29:86,1,116.999996429443,4|2,0:0|0:0,0:0:0:0:
260,4,69920,2,0,P|267:71|257:131,1,116.999996429443,8|2,0:0|0:0,0:0:0:0:
192,320,70228,1,6,0:0:0:0:
433,347,70382,1,0,0:0:0:0:
433,347,70459,1,0,0:0:0:0:
433,347,70536,1,14,0:0:0:0:
433,347,70613,1,0,0:0:0:0:
433,347,70690,1,2,0:0:0:0:
433,347,70766,1,0,0:0:0:0:
433,347,70843,6,0,L|443:220,1,116.999996429443,6|0,0:0|0:0,0:0:0:0:
458,74,71151,1,8,0:0:0:0:
278,263,71305,1,2,0:0:0:0:
512,287,71459,1,6,0:0:0:0:
344,377,71613,1,0,0:0:0:0:
344,377,71689,1,0,0:0:0:0:
344,377,71766,2,0,L|354:250,1,116.999996429443,8|2,0:0|0:0,0:0:0:0:
237,16,72074,6,0,L|227:143,1,116.999996429443,4|2,0:0|0:0,0:0:0:0:
214,288,72382,1,12,0:0:0:0:
33,178,72536,1,2,0:0:0:0:
369,77,72690,1,6,0:0:0:0:
369,77,72767,1,0,0:0:0:0:
369,77,72844,1,0,0:0:0:0:
369,77,72921,1,0,0:0:0:0:
369,77,72997,1,10,0:0:0:0:
369,77,73074,1,0,0:0:0:0:
369,77,73151,5,6,0:0:0:0:
405,250,73305,1,8,0:0:0:0:
488,36,73459,1,2,0:0:0:0:
511,180,73613,2,0,L|360:170,1,146.250005578995,12|2,0:0|0:0,0:0:0:0:
1,204,73920,2,8,L|152:214,1,146.250005578995,6|0,0:0|0:0,0:0:0:0:
297,234,74228,5,10,0:0:0:0:
224,17,74382,1,2,0:0:0:0:
145,143,74536,2,8,L|0:133,1,146.250005578995,4|2,0:0|0:0,0:0:0:0:
367,241,74843,2,8,L|512:250,1,146.250005578995,6|2,0:0|0:0,0:0:0:0:
256,368,75151,1,12,0:0:0:0:
256,368,75228,1,0,0:0:0:0:
256,368,75305,1,2,0:0:0:0:
256,368,75382,1,0,0:0:0:0:
256,368,75459,5,10,0:0:0:0:
141,255,75613,1,2,0:0:0:0:
256,368,75766,2,0,P|265:308|260:249,1,116.999996429443,0|2,0:0|0:0,0:0:0:0:
21,78,76074,2,0,P|12:138|17:197,1,116.999996429443,8|2,0:0|0:0,0:0:0:0:
25,260,76305,1,0,0:0:0:0:
25,260,76382,2,0,L|148:255,1,116.999996429443,2|0,0:0|0:0,0:0:0:0:
259,121,76690,1,8,0:0:0:0:
345,298,76843,1,2,0:0:0:0:
501,192,76997,6,0,L|378:197,1,116.999996429443,2|0,0:0|0:0,0:0:0:0:
194,228,77305,2,0,P|185:168|190:109,1,116.999996429443,8|2,0:0|0:0,0:0:0:0:
201,7,77613,1,2,0:0:0:0:
66,151,77766,1,0,0:0:0:0:
303,203,77920,1,10,0:0:0:0:
217,367,78074,1,2,0:0:0:0:
217,367,78151,1,0,0:0:0:0:
217,367,78228,1,14,0:0:0:0:
111,218,78382,5,2,0:0:0:0:
28,370,78536,1,14,0:0:0:0:
256,280,78690,1,2,0:0:0:0:
107,355,78843,1,14,0:0:0:0:
96,64,78997,1,2,0:0:0:0:
56,300,79151,1,14,0:0:0:0:
422,320,79305,1,2,0:0:0:0:
318,360,79459,5,2,0:0:0:0:
276,329,79613,1,2,0:0:0:0:
256,280,79766,1,2,0:0:0:0:
262,228,79920,1,0,0:0:0:0:
294,186,80074,1,2,0:0:0:0:
342,165,80228,1,0,0:0:0:0:
394,172,80382,1,2,0:0:0:0:
437,204,80536,5,6,0:0:0:0:
437,204,80613,1,0,0:0:0:0:
437,204,80690,2,0,L|452:71,1,116.999996429443,0|0,0:0|0:0,0:0:0:0:
357,268,80997,1,8,0:0:0:0:
512,306,81151,1,2,0:0:0:0:
391,372,81305,2,0,L|258:357,1,116.999996429443,2|0,0:0|0:0,0:0:0:0:
130,273,81613,2,0,L|-3:288,1,116.999996429443,8|2,0:0|0:0,0:0:0:0:
218,305,81920,6,0,P|224:231|223:178,1,116.999996429443,0|2,0:0|0:0,0:0:0:0:
164,20,82228,1,8,0:0:0:0:
28,174,82382,2,0,P|102:180|155:179,1,116.999996429443,2|0,0:0|0:0,0:0:0:0:
293,97,82690,1,2,0:0:0:0:
411,284,82843,1,8,0:0:0:0:
512,158,82997,5,6,0:0:0:0:
512,158,83074,1,0,0:0:0:0:
512,158,83151,2,0,P|438:152|385:153,1,116.999996429443,2|0,0:0|0:0,0:0:0:0:
256,160,83459,1,8,0:0:0:0:
164,20,83613,1,2,0:0:0:0:
256,160,83766,1,0,0:0:0:0:
24,256,83920,1,2,0:0:0:0:
128,328,84074,2,0,L|147:202,1,116.999996429443,8|0,0:0|0:0,0:0:0:0:
164,20,84382,5,2,0:0:0:0:
455,62,84536,1,2,0:0:0:0:
293,230,84690,1,8,0:0:0:0:
473,312,84843,2,0,P|482:250|480:186,1,116.999996429443,2|0,0:0|0:0,0:0:0:0:
455,62,85151,1,2,0:0:0:0:
293,230,85305,2,0,P|353:235|416:228,1,116.999996429443,8|2,0:0|0:0,0:0:0:0:
409,229,85536,1,0,0:0:0:0:
409,229,85613,1,6,0:0:0:0:
347,127,85766,5,0,0:0:0:0:
256,320,85920,1,8,0:0:0:0:
157,188,86074,1,2,0:0:0:0:
28,244,86228,2,0,P|23:184|30:121,1,116.999996429443,0|2,0:0|0:0,0:0:0:0:
256,8,86536,2,0,P|261:68|254:131,1,116.999996429443,8|2,0:0|0:0,0:0:0:0:
255,124,86766,1,0,0:0:0:0:
255,124,86843,1,2,0:0:0:0:
138,74,86997,5,0,0:0:0:0:
355,188,87151,1,8,0:0:0:0:
185,331,87305,1,2,0:0:0:0:
255,124,87459,1,0,0:0:0:0:
327,331,87613,1,2,0:0:0:0:
157,188,87766,1,8,0:0:0:0:
419,104,87920,5,2,0:0:0:0:
419,104,87997,1,0,0:0:0:0:
419,104,88074,1,14,0:0:0:0:
276,236,88228,1,2,0:0:0:0:
502,272,88382,1,14,0:0:0:0:
335,112,88536,1,2,0:0:0:0:
419,354,88690,1,14,0:0:0:0:
501,126,88843,1,2,0:0:0:0:
256,360,88997,1,14,0:0:0:0:
157,188,89151,1,0,0:0:0:0:
157,188,89228,1,0,0:0:0:0:
157,188,89305,1,14,0:0:0:0:
157,188,89382,1,0,0:0:0:0:
157,188,89459,1,0,0:0:0:0:
157,188,89536,1,0,0:0:0:0:
157,188,89613,1,14,0:0:0:0:
157,188,89690,1,0,0:0:0:0:
157,188,89766,1,0,0:0:0:0:
157,188,89843,1,0,0:0:0:0:
157,188,89920,6,0,L|85:198,1,58.4999982147217,14|0,0:0|0:0,0:0:0:0:
10,121,90074,2,0,L|20:193,1,58.4999982147217
0,311,90228,2,0,L|72:301,1,58.4999982147217,14|0,0:0|0:0,0:0:0:0:
176,340,90382,2,0,L|166:268,1,58.4999982147217
157,188,90536,5,14,0:0:0:0:
