osu file format v14

[General]
AudioFilename: Miiro.mp3
AudioLeadIn: 2000
PreviewTime: 55141
Countdown: 0
SampleSet: Soft
StackLeniency: 0.7
Mode: 0
LetterboxInBreaks: 0
WidescreenStoryboard: 1

[Editor]
Bookmarks: 16680,26526,36372,46218,63141
DistanceSpacing: 1
BeatDivisor: 4
GridSize: 4
TimelineZoom: 3.099999

[Metadata]
Title:MIIRO
TitleUnicode:海色
Artist:AKINO from bless4
ArtistUnicode:AKINO from bless4
Creator:hopperhtkn
Version:0108's Extra
Source:艦隊これくしょん -艦これ-
Tags:Kantai Collection kancolle Combined Fleet Collection Opening Lanturn Heanday pkhg ShiraKai HabiHolic rui val0108 caren_sk
BeatmapID:577681
BeatmapSetID:249179

[Difficulty]
HPDrainRate:7
CircleSize:4
OverallDifficulty:7
ApproachRate:9
SliderMultiplier:1.9
SliderTickRate:1

[Events]
//Background and Video events
0,0,"BG.jpg",0,0
//Break Periods
//Storyboard Layer 0 (Background)
//Storyboard Layer 1 (Fail)
//Storyboard Layer 2 (Pass)
//Storyboard Layer 3 (Foreground)
//Storyboard Sound Samples

[TimingPoints]
690,307.692307692308,4,2,0,40,1,0
690,-200,4,2,0,30,0,0
4382,-125,4,2,1,30,0,0
4843,-111.111111111111,4,2,1,40,0,0
5305,-100,4,2,1,50,0,0
5766,-90.9090909090909,4,2,1,60,0,0
6228,-50,4,2,1,100,0,0
6228,-50,4,2,1,70,0,0
6690,-100,4,2,1,60,0,0
16382,-200,4,2,0,40,0,0
25305,-100,4,2,1,30,0,0
26536,-100,4,2,1,40,0,0
36997,-200,4,2,0,25,0,0
46228,-133.333333333333,4,2,1,40,0,0
51151,-100,4,2,1,45,0,0
53920,-100,4,2,1,35,0,0
54074,-100,4,2,1,45,0,0
54228,-100,4,2,1,55,0,0
54382,-100,4,2,1,65,0,0
54536,-100,4,2,1,75,0,0
54690,-100,4,2,1,85,0,0
55151,-100,4,2,0,20,0,0
56074,-83.3333333333333,4,2,1,60,0,1
63766,-66.6666666666667,4,2,1,60,0,1
65305,-83.3333333333333,4,2,1,60,0,1
75151,-83.3333333333333,4,2,1,60,0,1
78536,-83.3333333333333,4,2,1,30,0,1
78690,-83.3333333333333,4,2,1,40,0,1
78843,-83.3333333333333,4,2,1,50,0,1
78997,-83.3333333333333,4,2,1,60,0,1
79151,-83.3333333333333,4,2,1,70,0,1
79305,-83.3333333333333,4,2,1,80,0,1
79459,-133.333333333333,4,2,0,30,0,0
80074,-50,4,2,0,5,0,0
80536,-100,4,2,1,50,0,0

[Colours]
Combo1 : 255,242,202
Combo2 : 210,255,210
Combo3 : 217,234,255
Combo4 : 253,210,217

[HitObjects]
140,192,997,6,0,L|196:192,1,47.5
372,192,1305,2,0,L|316:192,1,47.5
80,124,1613,1,0,0:0:0:0:
20,192,1766,1,0,0:0:0:0:
80,259,1920,2,0,P|120:234|140:192,1,95
280,105,2382,2,0,P|238:83|192:88,1,95
80,124,2843,2,0,P|52:85|51:38,2,95,0|0|0,0:0|0:0|0:0,0:0:0:0:
384,200,3613,2,0,L|395:99,1,95
184,364,4074,2,0,L|168:295,1,47.5
256,36,4382,5,0,0:0:0:0:
180,88,4536,2,0,P|140:112|88:112,1,76
256,72,4843,5,0,0:0:0:0:
352,120,4997,2,0,P|392:144|452:144,1,85.4999973907472
256,116,5305,5,0,0:0:0:0:
132,188,5459,2,0,P|92:212|28:216,1,95
256,176,5766,5,0,0:0:0:0:
404,224,5920,2,0,P|444:248|504:248,1,104.500003189087
340,329,6228,6,0,B|296:348|256:324|256:324|256:340|256:340|212:324|156:336,1,190,0|0,0:0|0:0,0:0:0:0:
401,66,6690,6,0,P|445:126|393:230,1,190,6|0,0:0|0:0,0:0:0:0:
312,112,7151,2,0,B|304:64|304:64|320:8,1,95,8|0,0:0|0:0,0:0:0:0:
401,66,7459,1,2,0:0:0:0:
401,318,7613,1,2,0:0:0:0:
304,364,7766,2,0,L|200:364,1,95,8|0,0:0|0:0,0:0:0:0:
508,148,8074,2,0,P|520:192|496:252,1,95,2|2,0:0|0:0,0:0:0:0:
256,192,8382,1,8,0:0:0:0:
351,192,8536,2,0,L|451:192,1,95,2|0,0:0|0:0,0:0:0:0:
161,192,8843,1,2,0:0:0:0:
352,192,8997,1,8,0:0:0:0:
77,284,9151,6,0,B|56:192|56:192|82:83,1,190,6|0,0:0|0:0,0:0:0:0:
236,352,9613,2,0,P|188:364|144:352,1,95,8|0,0:0|0:0,0:0:0:0:
344,120,9920,1,2,0:0:0:0:
168,264,10074,1,2,0:0:0:0:
148,32,10228,2,0,P|191:16|235:32,1,95,8|0,0:0|0:0,0:0:0:0:
200,148,10536,5,2,0:0:0:0:
312,236,10690,1,2,0:0:0:0:
112,192,10843,1,8,0:0:0:0:
400,192,10997,2,0,P|412:240|388:300,1,95,2|0,0:0|0:0,0:0:0:0:
332,352,11305,1,2,0:0:0:0:
180,32,11459,1,8,0:0:0:0:
95,71,11613,6,0,P|172:120|254:80,1,190,6|0,0:0|0:0,0:0:0:0:
8,20,12074,2,0,B|-4:68|-4:68|8:140,1,95,8|0,0:0|0:0,0:0:0:0:
508,112,12382,2,0,B|516:68|516:68|504:20,1,95,2|2,0:0|0:0,0:0:0:0:
256,81,12690,2,0,L|356:80,1,95,8|0,0:0|0:0,0:0:0:0:
171,238,12997,2,0,P|160:192|179:136,1,95,2|2,0:0|0:0,0:0:0:0:
436,192,13305,1,8,0:0:0:0:
256,308,13459,2,0,L|161:308,1,95,2|0,0:0|0:0,0:0:0:0:
376,56,13766,1,0,0:0:0:0:
136,56,13920,1,8,0:0:0:0:
339,146,14074,6,0,P|352:192|341:238,1,95,4|8,0:0|0:0,0:0:0:0:
324,256,14305,1,0,0:0:0:0:
304,272,14382,2,0,P|292:328|308:368,1,95,2|8,0:0|0:0,0:0:0:0:
436,312,14690,1,2,0:0:0:0:
436,192,14843,1,8,0:0:0:0:
76,192,14997,2,0,P|128:172|176:172,1,95,10|0,0:0|0:0,0:0:0:0:
256,244,15305,1,10,0:0:0:0:
16,369,15459,5,8,0:0:0:0:
28,332,15535,1,0,0:0:0:0:
25,292,15612,1,2,0:0:0:0:
13,254,15689,1,0,0:0:0:0:
3,216,15766,1,8,0:0:0:0:
3,176,15843,1,0,0:0:0:0:
19,138,15920,1,2,0:0:0:0:
33,101,15997,1,0,0:0:0:0:
40,60,16074,2,0,L|152:60,1,95,10|10,0:0|0:0,0:0:0:0:
377,60,16382,6,0,L|472:60,2,95,0|2|0,0:0|0:0|0:0,0:0:0:0:
256,168,17151,2,0,B|292:180|292:180|348:156,1,95,2|0,0:0|0:0,0:0:0:0:
168,157,17613,1,0,0:0:0:0:
84,288,17766,2,0,P|128:304|184:272,1,95,2|0,0:0|0:0,0:0:0:0:
256,248,18228,1,0,0:0:0:0:
331,123,18382,2,0,P|285:131|256:168,1,95,2|0,0:0|0:0,0:0:0:0:
332,356,18844,2,0,P|332:324|316:292,1,47.5
320,36,19151,6,0,P|372:48|408:80,1,95,2|0,0:0|0:0,0:0:0:0:
424,160,19613,1,2,0:0:0:0:
224,24,19920,1,0,0:0:0:0:
288,360,20229,1,2,0:0:0:0:
88,224,20536,2,0,B|120:196|120:196|136:140,2,95,0|2|0,0:0|0:0|0:0,0:0:0:0:
84,72,21305,1,2,0:0:0:0:
224,136,21459,2,0,L|212:184,1,47.5
28,360,21920,6,0,P|76:368|136:352,2,95,2|0|2,0:0|0:0|0:0,0:0:0:0:
208,44,22690,2,0,L|228:160,1,95,2|0,0:0|0:0,0:0:0:0:
304,340,23305,2,0,L|284:224,1,95,2|0,0:0|0:0,0:0:0:0:
292,8,23766,1,0,0:0:0:0:
391,24,23920,6,0,P|437:15|484:24,1,95,2|0,0:0|0:0,0:0:0:0:
328,192,24536,2,0,L|184:192,1,142.5,2|0,0:0|0:0,0:0:0:0:
256,84,25151,1,0,0:0:0:0:
405,148,25305,6,0,P|420:192|396:248,1,95
368,300,25510,2,0,P|340:336|288:348,1,95
296,272,25715,2,0,B|292:224|292:224|296:164,1,95
216,176,25920,2,0,B|220:224|220:224|216:271,1,95
218,348,26125,2,0,P|172:336|144:300,1,95
107,236,26331,2,0,P|92:192|116:136,1,95
172,112,26536,6,0,P|184:60|168:4,1,95,6|0,0:0|0:0,0:0:0:0:
13,224,26843,2,0,L|108:236,1,95,8|0,0:0|0:0,0:0:0:0:
404,148,27151,1,2,0:0:0:0:
304,192,27305,1,2,0:0:0:0:
479,265,27459,1,8,0:0:0:0:
478,116,27613,6,0,L|304:192,1,190,2|2,0:0|0:0,0:0:0:0:
479,265,28074,1,8,0:0:0:0:
488,28,28228,2,0,L|400:65,1,95,2|0,0:0|0:0,0:0:0:0:
304,192,28536,1,2,0:0:0:0:
479,265,28690,1,8,0:0:0:0:
401,64,28843,6,0,L|313:101,1,95,2|0,0:0|0:0,0:0:0:0:
256,240,29151,2,0,L|256:335,1,95,0|8,0:0|0:0,0:0:0:0:
198,101,29459,2,0,L|111:64,1,95,0|2,0:0|0:0,0:0:0:0:
20,36,29766,1,2,0:0:0:0:
112,320,29920,1,8,0:0:0:0:
112,64,30074,1,2,0:0:0:0:
20,348,30228,6,0,P|20:296|48:248,1,95,0|2,0:0|0:0,0:0:0:0:
304,300,30536,2,0,P|258:326|203:325,1,95,8|0,0:0|0:0,0:0:0:0:
112,64,30843,2,0,P|157:90|184:138,1,95,2|2,0:0|0:0,0:0:0:0:
148,240,31151,1,8,0:0:0:0:
364,144,31305,1,0,0:0:0:0:
304,300,31459,6,0,P|258:326|203:325,1,95,6|0,0:0|0:0,0:0:0:0:
96,168,31766,1,8,0:0:0:0:
112,320,31920,1,0,0:0:0:0:
204,164,32074,2,0,P|236:208|240:256,1,95,2|2,0:0|0:0,0:0:0:0:
56,248,32382,1,8,0:0:0:0:
56,248,32536,1,2,0:0:0:0:
194,352,32690,6,0,B|278:364|286:284|368:288,1,190,0|8,0:0|0:0,0:0:0:0:
256,192,33151,1,2,0:0:0:0:
144,96,33305,2,0,B|225:99|233:19|317:31,1,190,0|8,0:0|0:0,0:0:0:0:
404,72,33766,1,2,0:0:0:0:
256,192,33920,6,0,B|202:174|202:174|152:176,1,95,6|0,0:0|0:0,0:0:0:0:
348,208,34228,2,0,B|309:209|309:209|256:192,1,95,8|0,0:0|0:0,0:0:0:0:
436,224,34536,1,2,0:0:0:0:
76,160,34690,1,10,0:0:0:0:
76,160,34766,1,10,0:0:0:0:
76,160,34843,1,10,0:0:0:0:
76,160,34920,1,2,0:0:0:0:
76,160,34997,2,0,P|64:112|76:60,1,95,2|2,0:0|0:0,0:0:0:0:
436,160,35305,2,0,P|448:112|436:60,1,95,0|8,0:0|0:0,0:0:0:0:
209,303,35613,2,0,B|256:312|256:312|314:302,1,95,6|2,0:0|0:0,0:0:0:0:
256,45,35920,5,0,0:0:0:0:
252,72,35997,1,0,0:0:0:0:
260,100,36074,1,8,0:0:0:0:
252,128,36151,1,0,0:0:0:0:
260,156,36228,1,2,0:0:0:0:
252,184,36305,1,2,0:0:0:0:
256,211,36382,1,6,0:0:0:0:
492,360,36997,6,0,B|496:336|496:336|492:304,1,47.5
400,196,37305,2,0,L|435:227,1,47.5
328,28,37613,2,0,P|320:72|332:132,1,95
420,76,38074,2,0,L|536:76,1,95
256,192,38536,2,0,L|256:240,1,47.5
92,76,38843,6,0,L|-24:76,1,95,2|0,0:0|0:0,0:0:0:0:
184,262,39305,2,0,P|192:309|184:356,1,95
88,192,39766,2,0,B|112:188|112:188|148:192,1,47.5
432,280,40074,6,0,P|388:288|340:268,1,95
244,0,40536,2,0,P|273:29|279:81,1,95
91,300,40997,2,0,P|106:258|148:226,1,95
400,204,41613,5,0,0:0:0:0:
173,310,41920,1,0,0:0:0:0:
194,61,42228,1,0,0:0:0:0:
256,192,42382,1,0,0:0:0:0:
317,322,42536,2,0,B|360:328|364:360|408:368,1,95,0|0,0:0|0:0,0:0:0:0:
400,17,42997,2,0,B|364:24|360:56|317:61,1,95,0|0,0:0|0:0,0:0:0:0:
256,192,43459,2,0,L|256:136,1,47.5
96,256,43766,6,0,P|144:268|200:252,1,95,0|0,0:0|0:0,0:0:0:0:
96,256,44228,2,0,P|64:300|56:352,1,95,0|0,0:0|0:0,0:0:0:0:
72,136,44690,2,0,P|84:160|84:192,1,47.5
416,128,44997,6,0,P|368:116|312:132,1,95,8|0,0:3|0:0,0:0:0:0:
416,128,45459,2,0,P|448:84|456:32,1,95,4|0,0:3|0:0,0:0:0:0:
440,248,45921,2,0,P|428:224|428:192,2,47.5,4|0|6,0:3|0:0|0:0,0:0:0:0:
328,336,46382,5,0,0:0:0:0:
313,194,46536,1,2,0:0:0:0:
440,248,46690,1,0,0:0:0:0:
328,336,46843,2,0,L|312:184,1,142.500005435944,2|2,0:0|0:0,0:0:0:0:
199,190,47305,5,0,0:0:0:0:
71,252,47459,1,2,0:0:0:0:
78,114,47613,1,0,0:0:0:0:
199,190,47766,2,0,L|70:252,1,142.500005435944,2|2,0:0|0:0,0:0:0:0:
296,116,48228,2,0,L|308:32,1,71.2500027179719,8|2,0:0|0:0,0:0:0:0:
228,336,48536,2,0,L|217:265,1,71.2500027179719,8|2,0:0|0:0,0:0:0:0:
192,88,48843,5,0,0:0:0:0:
60,36,48997,1,2,0:0:0:0:
4,168,49151,1,0,0:0:0:0:
136,219,49305,2,0,L|196:79,1,142.500005435944,2|2,0:0|0:0,0:0:0:0:
320,299,49766,5,0,0:0:0:0:
457,263,49920,1,2,0:0:0:0:
425,123,50074,1,0,0:0:0:0:
288,160,50228,2,0,L|321:308,1,142.500005435944,2|2,0:0|0:0,0:0:0:0:
192,88,50690,2,0,L|104:72,1,71.2500027179719,8|2,0:0|0:0,0:0:0:0:
390,308,50997,2,0,L|320:296,1,71.2500027179719,8|10,0:0|0:0,0:0:0:0:
32,64,51305,5,2,0:0:0:0:
88,192,51459,1,8,0:0:0:0:
32,320,51613,1,2,0:0:0:0:
172,120,51766,5,8,0:0:0:0:
172,264,51920,1,2,0:0:0:0:
256,52,52074,5,2,0:0:0:0:
256,332,52228,1,8,0:0:0:0:
340,120,52382,5,2,0:0:0:0:
256,192,52536,1,2,0:0:0:0:
340,264,52690,1,8,0:0:0:0:
424,192,52843,1,2,0:0:0:0:
256,192,52997,1,2,0:0:0:0:
495,147,53151,2,0,P|508:200|480:256,1,95,8|2,0:0|0:0,0:0:0:0:
256,192,53459,1,8,0:0:0:0:
17,237,53613,2,0,P|4:184|32:128,1,95,8|0,0:0|0:0,0:0:0:0:
340,264,53920,5,0,0:0:0:0:
172,120,54074,1,0,0:0:0:0:
400,192,54228,5,2,0:0:0:0:
112,192,54382,1,2,0:0:0:0:
452,120,54536,5,2,0:0:0:0:
60,264,54690,1,2,0:0:0:0:
256,312,55151,5,0,0:0:0:0:
256,116,55459,1,0,0:0:0:0:
215,187,55613,2,0,B|256:208|256:208|308:180,1,95
256,0,55920,1,0,0:0:0:0:
200,232,56074,6,0,P|255:248|315:228,1,113.999996520996,6|0,0:0|0:0,0:0:0:0:
256,116,56382,1,8,0:0:0:0:
172,56,56536,2,0,B|160:104|160:104|144:120|144:120|128:188,1,113.999996520996,0|2,0:0|0:0,0:0:0:0:
340,328,56843,2,0,B|352:280|352:280|368:264|368:264|384:196,1,113.999996520996,2|8,0:0|0:0,0:0:0:0:
432,0,57151,2,0,P|456:52|408:120,1,113.999996520996,0|2,0:0|0:0,0:0:0:0:
136,162,57459,2,0,P|224:112|368:152,1,227.999993041992,2|2,0:0|0:0,0:0:0:0:
167,250,57920,1,0,0:0:0:0:
48,124,58074,2,0,P|40:176|68:236,1,113.999996520996,2|8,0:0|0:0,0:0:0:0:
312,40,58382,5,0,0:0:0:0:
312,40,58459,1,0,0:0:0:0:
312,40,58536,2,0,P|253:121|112:160,1,227.999993041992,2|8,0:0|0:0,0:0:0:0:
380,192,58997,2,0,L|516:192,1,113.999996520996,0|2,0:0|0:0,0:0:0:0:
494,192,59305,1,2,0:0:0:0:
168,252,59459,1,8,0:0:0:0:
344,132,59613,1,0,0:0:0:0:
18,192,59766,6,0,B|8:136|8:136|24:48,1,113.999996520996,2|2,0:0|0:0,0:0:0:0:
256,16,60074,1,8,0:0:0:0:
98,132,60228,2,0,L|212:132,2,113.999996520996,2|0|2,0:0|0:0|0:0,0:0:0:0:
414,132,60690,2,0,L|300:132,1,113.999996520996,8|0,0:0|0:0,0:0:0:0:
256,132,60920,1,0,0:0:0:0:
212,132,60997,6,0,L|98:132,1,113.999996520996,6|0,0:0|0:0,0:0:0:0:
0,192,61305,1,8,0:0:0:0:
168,252,61459,1,0,0:0:0:0:
256,132,61613,2,0,L|256:8,1,113.999996520996,2|2,0:0|0:0,0:0:0:0:
60,288,61920,1,8,0:0:0:0:
256,288,62074,1,0,0:0:0:0:
452,288,62228,2,0,B|468:232|468:232|452:160,1,113.999996520996,2|2,0:0|0:0,0:0:0:0:
152,36,62536,1,8,0:0:0:0:
360,36,62690,6,0,B|384:152|304:164|328:276,1,227.999993041992,4|10,0:3|0:0,0:0:0:0:
300,296,63074,1,8,0:0:0:0:
256,312,63151,1,10,0:0:0:0:
212,296,63228,1,8,0:0:0:0:
187,255,63305,2,0,B|208:162|128:150|152:36,1,227.999993041992,6|2,0:0|0:0,0:0:0:0:
152,35,63766,5,8,0:0:0:0:
324,255,63920,1,2,0:0:0:0:
360,36,64074,1,8,0:0:0:0:
360,36,64382,5,8,0:0:0:0:
187,255,64536,1,2,0:0:0:0:
152,35,64690,1,8,0:0:0:0:
152,35,64997,5,8,0:0:0:0:
324,255,65151,1,2,0:0:0:0:
187,255,65305,1,8,0:0:0:0:
360,36,65459,6,0,P|368:72|352:104,1,56.9999982604981,8|0,0:0|0:0,0:0:0:0:
152,36,65613,2,0,P|145:72|161:104,1,56.9999982604981,2|2,0:0|0:0,0:0:0:0:
408,160,65766,2,0,P|372:176|332:168,1,56.9999982604981,10|10,0:0|0:0,0:0:0:0:
103,159,65920,6,0,P|128:173|216:148,1,113.999996520996,6|0,0:0|0:0,0:0:0:0:
444,88,66228,1,8,0:0:0:0:
360,36,66382,2,0,L|236:36,1,113.999996520996,0|2,0:0|0:0,0:0:0:0:
246,348,66690,2,0,L|360:348,1,113.999996520996,2|8,0:0|0:0,0:0:0:0:
417,134,66997,2,0,L|360:36,1,113.999996520996,0|2,0:0|0:0,0:0:0:0:
198,159,67305,2,0,P|319:171|424:129,1,227.999993041992,2|2,0:0|0:0,0:0:0:0:
480,40,67766,5,2,0:0:0:0:
256,288,67997,5,2,0:0:0:0:
32,40,68228,5,10,0:0:0:0:
32,40,68305,1,10,0:0:0:0:
32,40,68382,2,0,B|16:152|112:152|96:264,1,227.999993041992,6|8,0:0|0:0,0:0:0:0:
364,292,68843,2,0,P|344:356|296:384,1,113.999996520996,0|2,0:0|0:0,0:0:0:0:
148,292,69151,1,2,0:0:0:0:
256,24,69305,1,8,0:0:0:0:
364,292,69459,6,0,P|256:260|148:292,1,227.999993041992,2|2,0:0|0:0,0:0:0:0:
48,80,69920,2,0,P|36:128|52:204,1,113.999996520996,8|0,0:0|0:0,0:0:0:0:
364,136,70228,1,2,0:0:0:0:
364,136,70382,2,0,L|292:136,1,56.9999982604981,10|8,0:0|0:0,0:0:0:0:
148,136,70536,2,0,L|220:136,1,56.9999982604981,8|8,0:0|0:0,0:0:0:0:
388,64,70690,2,0,L|316:64,1,56.9999982604981,10|10,0:0|0:0,0:0:0:0:
108,208,70843,5,6,0:0:0:0:
256,64,70997,1,0,0:0:0:0:
404,208,71151,1,8,0:0:0:0:
256,352,71305,1,0,0:0:0:0:
200,260,71459,2,0,B|256:248|256:248|332:264,1,113.999996520996,2|2,0:0|0:0,0:0:0:0:
392,340,71766,1,8,0:0:0:0:
120,340,71920,1,0,0:0:0:0:
120,44,72074,6,0,B|124:88|80:96|80:148,1,113.999996520996,2|2,0:0|0:0,0:0:0:0:
256,64,72382,1,8,0:0:0:0:
392,44,72536,2,0,B|388:88|432:96|432:152,1,113.999996520996,2|4,0:0|0:3,0:0:0:0:
388,200,72766,1,2,0:0:0:0:
324,224,72843,1,2,0:0:0:0:
256,240,72920,1,2,0:0:0:0:
188,224,72997,1,10,0:0:0:0:
124,200,73074,1,10,0:0:0:0:
80,148,73151,6,0,B|80:96|124:88|120:44,1,113.999996520996,6|8,0:0|0:0,0:0:0:0:
12,4,73459,1,2,0:0:0:0:
120,340,73613,2,0,B|124:296|80:288|80:235,1,113.999996520996,8|2,0:0|0:0,0:0:0:0:
12,380,73920,1,8,0:0:0:0:
500,4,74228,5,8,0:0:0:0:
500,380,74382,1,2,0:0:0:0:
431,148,74536,2,0,B|432:96|388:88|392:44,1,113.999996520996,8|2,0:0|0:0,0:0:0:0:
392,340,74843,2,0,B|388:296|432:288|431:235,1,113.999996520996,8|2,0:0|0:0,0:0:0:0:
173,270,75151,5,4,0:3:0:0:
213,283,75227,1,2,0:0:0:0:
256,288,75304,1,2,0:0:0:0:
298,283,75381,1,2,0:0:0:0:
339,270,75458,1,2,0:0:0:0:
336,81,75613,6,0,B|295:71|255:3|255:3|215:71|175:80,1,227.999993041992,6|0,0:0|0:0,0:0:0:0:
368,192,76074,2,0,B|416:172|416:172|496:172,1,113.999996520996,8|0,0:0|0:0,0:0:0:0:
144,192,76382,2,0,B|96:212|96:212|16:212,1,113.999996520996,2|2,0:0|0:0,0:0:0:0:
68,104,76690,1,8,0:0:0:0:
256,124,76843,1,0,0:0:0:0:
256,260,76997,2,0,B|356:260|352:352|480:344,1,227.999993041992,2|8,0:0|0:0,0:0:0:0:
460,39,77459,2,0,B|350:32|354:124|256:124,1,227.999993041992,2|2,0:0|0:0,0:0:0:0:
445,247,77920,2,0,B|456:192|456:192|444:136,1,113.999996520996,8|0,0:0|0:0,0:0:0:0:
144,192,78228,1,14,0:0:0:0:
368,192,78536,5,2,0:0:0:0:
180,112,78690,1,2,0:0:0:0:
332,272,78843,1,2,0:0:0:0:
68,248,78997,1,2,0:0:0:0:
444,136,79151,1,10,0:0:0:0:
180,20,79305,1,10,0:0:0:0:
332,364,79459,5,0,0:0:0:0:
432,268,79613,2,0,L|508:308,1,71.2500027179719,2|0,0:0|0:0,0:0:0:0:
180,20,79920,5,0,0:0:0:0:
80,116,80074,2,0,P|32:193|93:272,1,190,0|2,0:0|0:0,0:0:0:0:
432,268,80536,6,0,P|480:191|419:112,1,190,6|0,0:0|0:0,0:0:0:0:
284,344,80997,2,0,L|396:328,1,95,8|0,0:0|0:0,0:0:0:0:
117,69,81305,2,0,L|104:164,1,95,2|2,0:0|0:0,0:0:0:0:
156,256,81613,1,8,0:0:0:0:
356,128,81766,1,0,0:0:0:0:
408,220,81920,2,0,L|394:314,1,95,2|2,0:0|0:0,0:0:0:0:
256,192,82228,1,8,0:0:0:0:
432,48,82382,2,0,P|456:92|452:172,1,95,2|0,0:0|0:0,0:0:0:0:
224,296,82690,1,2,0:0:0:0:
288,88,82843,1,8,0:0:0:0:
256,376,82997,6,0,P|144:384|76:320,1,190,6|0,0:0|0:0,0:0:0:0:
208,48,83459,2,0,P|192:100|212:152,1,95,8|0,0:0|0:0,0:0:0:0:
512,136,83766,2,0,P|481:100|436:86,1,95,2|2,0:0|0:0,0:0:0:0:
300,240,84074,1,8,0:0:0:0:
432,172,84228,1,0,0:0:0:0:
440,296,84382,2,0,P|405:327|359:336,1,95,2|2,0:0|0:0,0:0:0:0:
256,304,84690,1,8,0:0:0:0:
432,172,84843,2,0,P|478:180|512:212,1,95,2|0,0:0|0:0,0:0:0:0:
160,208,85151,1,2,0:0:0:0:
352,176,85305,1,8,0:0:0:0:
96,288,85459,6,0,P|60:208|124:112,1,190,6|0,0:0|0:0,0:0:0:0:
256,84,85920,2,0,P|196:72|152:32,1,95,8|0,0:0|0:0,0:0:0:0:
342,331,86228,2,0,P|302:306|256:300,1,95,2|2,0:0|0:0,0:0:0:0:
168,332,86536,1,8,0:0:0:0:
256,192,86690,1,0,0:0:0:0:
342,331,86843,2,0,P|366:290|365:243,1,95,2|2,0:0|0:0,0:0:0:0:
340,140,87151,1,8,0:0:0:0:
172,244,87305,2,0,P|125:245|84:221,1,95,2|0,0:0|0:0,0:0:0:0:
340,244,87613,2,0,P|386:245|427:221,1,95,2|8,0:0|0:0,0:0:0:0:
84,124,87920,5,2,0:0:0:0:
428,124,88074,1,8,0:0:0:0:
428,124,88151,1,0,0:0:0:0:
428,124,88228,2,0,P|480:140|520:192,1,95,2|8,0:0|0:0,0:0:0:0:
492,320,88536,1,2,0:0:0:0:
492,64,88690,1,8,0:0:0:0:
256,60,88843,2,0,L|144:60,1,95,2|8,0:0|0:0,0:0:0:0:
161,324,89151,6,0,L|256:324,1,95,2|8,0:0|0:0,0:0:0:0:
281,325,89382,1,0,0:0:0:0:
311,322,89459,1,2,0:0:0:0:
344,312,89536,1,0,0:0:0:0:
375,280,89613,1,8,0:0:0:0:
383,228,89690,1,0,0:0:0:0:
359,187,89766,1,2,0:0:0:0:
306,170,89843,1,0,0:0:0:0:
256,192,89920,1,8,0:0:0:0:
206,214,89997,1,0,0:0:0:0:
153,197,90074,1,2,0:0:0:0:
129,156,90150,1,0,0:0:0:0:
137,104,90227,1,10,0:0:0:0:
168,72,90304,1,2,0:0:0:0:
201,62,90381,1,10,0:0:0:0:
231,59,90458,1,2,0:0:0:0:
256,60,90536,1,6,0:0:0:0:
