osu file format v14

[General]
AudioFilename: audio.mp3
AudioLeadIn: 0
PreviewTime: -1
Countdown: 0
SampleSet: Normal
StackLeniency: 0.4
Mode: 0
LetterboxInBreaks: 0
WidescreenStoryboard: 1

[Editor]
Bookmarks: 17292,36984,56676,81138,86215,91138,110830,130522,155138,164984,184368,184388,184407,184426,184445,184465,184484,184503,184522,184542,184561,184580,184599,184618,184638,184657,184676,194522,194542,194561,194580,194599,194618,194638,194657,194676,194695,194715,194734,194753,194772,194792,194811,194830,196984,206830,216676
DistanceSpacing: 0.2
BeatDivisor: 4
GridSize: 8
TimelineZoom: 2.1

[Metadata]
Title:MIIRO
TitleUnicode:海色
Artist:AKINO from bless4
ArtistUnicode:AKINO from bless4
Creator:burntcedar13
Version:Even if (AR9)
Source:
Tags:
BeatmapID:1227253
BeatmapSetID:579283

[Difficulty]
HPDrainRate:5
CircleSize:4
OverallDifficulty:8
ApproachRate:9
SliderMultiplier:1.9
SliderTickRate:1

[Events]
//Background and Video events
0,0,"rh70.jpg",0,0
//Break Periods
2,83799,87922
2,157799,159153
2,165184,172384
2,196984,205922
2,214261,215768
2,243799,247922
//Storyboard Layer 0 (Background)
//Storyboard Layer 1 (Fail)
//Storyboard Layer 2 (Pass)
//Storyboard Layer 3 (Foreground)
//Storyboard Sound Samples

[TimingPoints]
1292,307.692307692308,4,2,1,61,1,0
1907,-200,4,2,1,61,0,0
4984,-200,4,3,1,61,0,0
7292,-76.9230769230769,4,1,1,61,0,0
17292,-142.857142857143,4,2,1,61,0,0
25907,-142.857142857143,4,3,1,61,0,0
27138,-90.9090909090909,4,1,1,61,0,0
36984,-200,4,2,1,61,0,0
44984,-100,4,2,1,61,0,0
46830,-100,4,1,1,61,0,0
54215,-83.3333333333333,4,1,1,61,0,0
56676,-74.0740740740741,4,1,1,61,0,0
80061,-100,4,3,1,61,0,0
83522,-200,4,2,1,5,0,0
88522,-100,4,1,1,61,0,0
91138,-90.9090909090909,4,3,2,61,0,0
99753,-90.9090909090909,4,1,1,61,0,0
110830,-200,4,1,1,61,0,0
111445,-200,4,2,1,61,0,0
120676,-100,4,1,1,61,0,0
128676,-76.9230769230769,4,1,1,61,0,0
130522,-68.9655172413793,4,1,1,61,0,0
153907,-68.9655172413793,4,3,1,61,0,0
159753,-133.333333333333,4,3,1,61,0,0
162215,-90.9090909090909,4,3,2,61,0,0
163907,-133.333333333333,4,1,1,61,0,0
172984,-133.333333333333,4,3,2,61,0,0
184676,-100,4,1,1,61,0,0
206522,-133.333333333333,4,2,1,61,0,0
216368,-66.6666666666667,4,1,1,61,0,0
227753,-66.6666666666667,4,3,2,61,0,0
231599,-66.6666666666667,4,1,1,61,0,0
240061,-66.6666666666667,4,3,1,61,0,0
248522,-66.6666666666667,4,1,1,61,0,0

[Colours]
Combo1 : 192,192,192
Combo2 : 255,128,0
Combo3 : 128,128,128
Combo4 : 128,0,0

[HitObjects]
320,69,1138,6,0,L|291:79,4,23.75,0|0|0|0|0,0:0|0:0|0:0|0:0|0:0,0:0:0:0:
396,142,1599,5,0,0:0:0:0:
414,156,1907,2,0,L|402:255,1,95,0|0,0:0|0:0,0:0:0:0:
276,232,2368,5,0,0:0:0:0:
258,246,2522,2,0,B|271:343|271:343|296:295,2,142.5,0|0|0,0:0|0:0|0:0,0:0:0:0:
215,152,3753,6,0,P|170:115|101:107,1,118.75,0|0,0:0|0:0,0:0:0:0:
92,79,4215,6,0,P|150:72|204:95,1,118.75,0|0,0:0|0:0,0:0:0:0:
225,112,4676,2,0,P|241:137|248:163,1,47.5,0|0,0:0|0:0,0:0:0:0:
230,251,4984,5,0,0:0:0:0:
362,108,5138,1,0,0:0:0:0:
131,182,5292,1,0,0:0:0:0:
360,261,5445,5,0,0:0:0:0:
165,68,5599,1,0,0:0:0:0:
471,137,5753,1,0,0:0:0:0:
201,271,5907,5,0,0:0:0:0:
417,2,6061,1,0,0:0:0:0:
70,78,6215,1,0,0:0:0:0:
414,259,6368,5,0,0:0:0:0:
146,6,6522,1,0,0:0:0:0:
497,12,6676,1,0,0:0:0:0:
20,71,7292,6,0,L|44:330,1,246.999988693238,2|2,0:0|0:0,0:0:0:0:
48,371,7753,1,8,0:0:0:0:
276,276,7907,1,0,0:0:0:0:
116,126,8061,2,0,P|91:189|116:272,1,123.499994346619,2|2,0:0|0:0,0:0:0:0:
293,287,8368,2,0,P|318:224|293:141,1,123.499994346619,8|0,0:0|0:0,0:0:0:0:
92,82,8676,2,0,P|44:130|34:216,1,123.499994346619,2|2,0:0|0:0,0:0:0:0:
259,339,8984,5,8,0:0:0:0:
483,72,9138,2,0,P|508:135|483:218,1,123.499994346619,0|2,0:0|0:0,0:0:0:0:
289,252,9445,2,0,P|264:189|289:106,1,123.499994346619,2|8,0:0|0:0,0:0:0:0:
446,0,9753,6,0,L|187:24,1,246.999988693238,2|2,0:0|0:0,0:0:0:0:
23,49,10215,2,0,P|6:133|16:196,1,123.499994346619,8|0,0:0|0:0,0:0:0:0:
132,316,10522,1,2,0:0:0:0:
293,117,10676,1,2,0:0:0:0:
13,69,10830,2,0,P|-4:153|6:216,1,123.499994346619,8|0,0:0|0:0,0:0:0:0:
130,363,11138,5,2,0:0:0:0:
166,88,11292,1,2,0:0:0:0:
370,304,11445,1,8,0:0:0:0:
71,87,11599,2,0,P|90:29|159:-6,1,123.499994346619,0|2,0:0|0:0,0:0:0:0:
313,162,11907,2,0,P|294:220|225:255,1,123.499994346619,2|8,0:0|0:0,0:0:0:0:
0,351,12215,6,0,L|259:375,1,246.999988693238,2|2,0:0|0:0,0:0:0:0:
309,378,12676,1,8,0:0:0:0:
479,181,12830,1,0,0:0:0:0:
280,91,12984,2,0,P|236:147|232:223,1,123.499994346619,2|2,0:0|0:0,0:0:0:0:
445,280,13292,2,0,P|489:224|493:148,1,123.499994346619,8|0,0:0|0:0,0:0:0:0:
303,35,13599,2,0,P|240:69|207:137,1,123.499994346619,2|2,0:0|0:0,0:0:0:0:
278,304,13907,1,8,0:0:0:0:
365,61,14061,6,0,P|425:102|452:148,1,123.499994346619,0|2,0:0|0:0,0:0:0:0:
273,334,14368,2,0,P|213:293|186:247,1,123.499994346619,2|8,0:0|0:0,0:0:0:0:
317,213,14676,5,2,0:0:0:0:
317,213,14753,1,2,0:0:0:0:
317,213,14830,1,8,0:0:0:0:
26,117,14984,1,2,0:0:0:0:
337,62,15138,5,8,0:0:0:0:
128,325,15292,1,2,0:0:0:0:
195,15,15445,5,8,0:0:0:0:
295,372,15599,1,8,0:0:0:0:
422,180,15753,1,2,0:0:0:0:
147,164,15907,5,8,0:0:0:0:
477,338,16061,1,8,0:0:0:0:
182,370,16215,1,2,0:0:0:0:
373,201,16368,6,0,L|305:218,1,61.7499971733095,2|2,0:0|0:0,0:0:0:0:
0,300,16522,2,0,L|67:282,1,61.7499971733095,2|2,0:0|0:0,0:0:0:0:
430,329,16676,5,8,0:0:0:0:
1,179,16830,1,8,0:0:0:0:
178,83,17292,6,0,L|154:226,1,132.999995941162,0|0,0:0|0:0,0:0:0:0:
258,106,17753,2,0,P|257:65|242:33,1,66.4999979705811,0|0,0:0|0:0,0:0:0:0:
98,63,18061,2,0,P|99:104|114:136,1,66.4999979705811,0|0,0:0|0:0,0:0:0:0:
233,202,18368,1,0,0:0:0:0:
338,107,18522,5,0,0:0:0:0:
338,107,18676,1,0,0:0:0:0:
233,202,18830,1,0,0:0:0:0:
233,202,18984,1,0,0:0:0:0:
251,49,19138,5,0,0:0:0:0:
251,49,19292,1,0,0:0:0:0:
335,256,19445,1,0,0:0:0:0:
335,256,19599,1,0,0:0:0:0:
125,366,19753,6,0,L|275:374,1,132.999995941162,0|0,0:0|0:0,0:0:0:0:
359,374,20215,2,0,P|386:343|397:309,1,66.4999979705811,0|0,0:0|0:0,0:0:0:0:
411,204,20522,2,0,P|401:164|380:135,1,66.4999979705811,0|0,0:0|0:0,0:0:0:0:
255,98,20830,1,0,0:0:0:0:
286,239,20984,5,0,0:0:0:0:
286,239,21138,1,0,0:0:0:0:
349,38,21292,1,0,0:0:0:0:
349,38,21445,1,0,0:0:0:0:
383,225,21599,5,0,0:0:0:0:
178,182,21753,1,0,0:0:0:0:
349,38,21907,5,0,0:0:0:0:
302,250,22061,1,0,0:0:0:0:
120,125,22215,6,0,P|100:161|97:196,1,66.4999979705811,0|0,0:0|0:0,0:0:0:0:
293,93,22522,6,0,P|331:105|358:129,1,66.4999979705811,0|0,0:0|0:0,0:0:0:0:
285,182,22830,2,0,P|310:214|318:248,1,66.4999979705811,0|0,0:0|0:0,0:0:0:0:
120,125,23138,1,0,0:0:0:0:
285,182,23292,6,0,P|310:214|318:248,1,66.4999979705811,0|0,0:0|0:0,0:0:0:0:
228,251,23600,2,0,P|230:291|218:325,1,66.4999979705811,0|0,0:0|0:0,0:0:0:0:
72,368,23907,2,0,L|105:142,1,199.499993911743,0|0,0:0|0:0,0:0:0:0:
26,118,24522,6,0,P|11:155|12:191,1,66.4999979705811,0|0,0:0|0:0,0:0:0:0:
175,218,24830,2,0,P|190:181|189:145,1,66.4999979705811,0|0,0:0|0:0,0:0:0:0:
81,44,25138,2,0,L|244:58,1,132.999995941162,0|0,0:0|0:0,0:0:0:0:
315,76,25599,2,0,P|346:100|365:131,1,66.4999979705811,0|0,0:0|0:0,0:0:0:0:
382,233,25907,5,0,0:0:0:0:
209,222,26112,1,0,0:0:0:0:
59,309,26317,1,0,0:0:0:0:
372,264,26522,5,0,0:0:0:0:
199,253,26728,1,0,0:0:0:0:
49,340,26933,1,0,0:0:0:0:
430,354,27138,6,0,L|462:135,1,209.000006378174,2|8,0:0|0:0,0:0:0:0:
478,51,27599,1,0,0:0:0:0:
277,58,27753,2,0,B|223:90|217:154,1,104.500003189087,2|2,0:0|0:0,0:0:0:0:
234,300,28061,1,8,0:0:0:0:
119,161,28215,6,0,B|169:123|230:143,1,104.500003189087,2|0,0:0|0:0,0:0:0:0:
397,177,28522,2,0,B|346:214|285:194,1,104.500003189087,2|8,0:0|0:0,0:0:0:0:
73,163,28830,6,0,B|104:109|168:103,1,104.500003189087,0|2,0:0|0:0,0:0:0:0:
443,175,29138,2,0,B|411:229|347:234,1,104.500003189087,2|8,0:0|0:0,0:0:0:0:
186,13,29445,6,0,B|124:0|78:45,1,104.500003189087,2|0,0:0|0:0,0:0:0:0:
42,264,29753,2,0,B|103:276|149:231,1,104.500003189087,2|8,0:0|0:0,0:0:0:0:
344,38,30061,6,0,B|405:25|451:70,1,104.500003189087,0|2,0:0|0:0,0:0:0:0:
488,289,30369,2,0,B|426:301|380:256,1,104.500003189087,2|8,0:0|0:0,0:0:0:0:
120,91,30676,2,0,L|145:332,1,209.000006378174,2|2,0:0|0:0,0:0:0:0:
153,373,31138,2,0,P|219:357|243:325,1,104.500003189087,8|0,0:0|0:0,0:0:0:0:
278,136,31445,5,2,0:0:0:0:
2,215,31599,1,2,0:0:0:0:
162,373,31753,2,0,P|228:357|252:325,1,104.500003189087,8|0,0:0|0:0,0:0:0:0:
305,127,32061,5,2,0:0:0:0:
467,291,32215,1,0,0:0:0:0:
245,238,32368,1,8,0:0:0:0:
490,182,32522,1,0,0:0:0:0:
303,344,32676,5,2,0:0:0:0:
185,125,32830,1,2,0:0:0:0:
490,182,32984,1,8,0:0:0:0:
245,238,33138,1,2,0:0:0:0:
486,290,33292,5,0,0:0:0:0:
325,83,33445,1,2,0:0:0:0:
303,344,33599,1,8,0:0:0:0:
490,182,33753,1,0,0:0:0:0:
210,234,33907,5,2,0:0:0:0:
500,294,34061,1,2,0:0:0:0:
310,78,34215,1,8,0:0:0:0:
234,369,34368,1,0,0:0:0:0:
190,58,34522,5,2,0:0:0:0:
350,311,34676,1,0,0:0:0:0:
32,234,34830,1,8,0:0:0:0:
342,170,34984,1,0,0:0:0:0:
123,370,35138,5,2,0:0:0:0:
211,58,35292,2,0,P|199:89|181:108,1,52.2500015945435,2|8,0:0|0:0,0:0:0:0:
9,250,35445,1,8,0:0:0:0:
332,45,35599,6,0,P|290:106|296:169,1,104.500003189087,2|0,0:0|0:0,0:0:0:0:
102,259,35907,2,0,P|176:264|227:227,1,104.500003189087,2|8,0:0|0:0,0:0:0:0:
402,348,36215,2,0,P|369:281|311:255,1,104.500003189087,2|0,0:0|0:0,0:0:0:0:
24,55,36522,5,0,3:0:0:0:
1,101,36598,1,0,3:0:0:0:
0,152,36675,1,2,3:0:0:0:
22,199,36752,1,2,3:0:0:0:
44,246,36830,1,8,3:0:0:0:
43,297,36907,1,8,3:0:0:0:
20,343,36984,1,0,3:0:0:0:
303,133,37599,6,0,L|322:246,1,95,0|0,0:0|0:0,0:0:0:0:
331,305,38215,2,0,P|307:336|202:335,2,142.5,0|0|0,0:0|0:0|0:0,0:0:0:0:
318,226,39445,6,0,P|356:231|408:322,2,142.5,0|0|0,0:0|0:0|0:0,0:0:0:0:
257,277,40676,6,0,P|218:271|166:180,1,142.5,0|0,0:0|0:0,0:0:0:0:
195,67,41599,1,0,0:0:0:0:
12,173,42215,6,0,L|28:267,2,95,0|0|0,0:0|0:0|0:0,0:0:0:0:
0,95,43138,2,0,P|24:64|129:65,2,142.5,0|0|0,0:0|0:0|0:0,0:0:0:0:
26,180,44368,6,0,P|94:189|146:143,1,142.5,0|0,0:0|0:0,0:0:0:0:
253,10,44984,6,0,P|290:0|339:7,2,63.3333333333333,0|0|0,0:0|0:0|0:0,0:0:0:0:
203,83,45292,2,0,P|168:66|119:63,2,63.3333333333333,0|0|0,0:0|0:0|0:0,0:0:0:0:
288,133,45599,5,8,1:0:0:0:
297,166,45701,1,0,0:0:0:0:
293,200,45804,1,0,0:0:0:0:
277,230,45906,1,0,0:0:0:0:
251,253,46009,1,0,0:0:0:0:
218,264,46111,1,0,0:0:0:0:
184,262,46215,5,0,0:0:0:0:
196,240,46317,1,0,0:0:0:0:
217,224,46420,1,0,0:0:0:0:
243,220,46522,1,8,3:0:0:0:
268,222,46625,1,0,0:0:0:0:
291,236,46727,1,0,0:0:0:0:
309,262,46830,5,2,0:0:0:0:
338,343,46984,5,0,0:0:0:0:
437,174,47138,1,2,0:0:0:0:
345,359,47292,2,0,L|402:268,2,95,0|2|0,0:0|0:0|0:0,0:0:0:0:
184,371,47907,5,0,0:0:0:0:
123,200,48061,1,2,0:0:0:0:
200,372,48215,2,0,L|159:264,2,95,0|2|0,0:0|0:0|0:0,0:0:0:0:
309,333,48676,5,2,0:0:0:0:
281,117,48830,1,8,0:0:0:0:
286,215,48984,5,2,0:0:0:0:
288,0,49138,1,8,0:0:0:0:
366,325,49445,5,0,0:0:0:0:
459,106,49599,1,2,0:0:0:0:
375,339,49753,2,0,L|417:240,2,95,0|2|0,0:0|0:0|0:0,0:0:0:0:
162,293,50368,5,0,0:0:0:0:
69,74,50522,1,2,0:0:0:0:
153,304,50676,1,0,0:0:0:0:
253,137,50830,5,0,3:0:0:0:
297,122,50906,1,0,3:0:0:0:
344,129,50983,1,0,3:0:0:0:
382,156,51060,1,0,3:0:0:0:
404,198,51137,5,2,3:0:0:0:
336,283,51292,1,2,3:0:0:0:
227,294,51445,1,8,3:0:0:0:
142,224,51599,1,8,3:0:0:0:
131,102,51753,5,8,0:0:0:0:
284,347,51907,1,2,0:0:0:0:
45,204,52061,5,8,0:0:0:0:
358,222,52215,1,2,0:0:0:0:
94,90,52368,5,8,0:0:0:0:
300,363,52522,1,2,0:0:0:0:
262,62,52676,1,2,0:0:0:0:
22,247,52830,5,8,0:0:0:0:
374,154,52984,1,2,0:0:0:0:
162,373,53138,1,2,0:0:0:0:
108,45,53292,5,8,0:0:0:0:
314,373,53445,1,2,0:0:0:0:
337,8,53599,1,2,0:0:0:0:
7,179,53753,5,8,0:0:0:0:
502,153,53907,1,2,0:0:0:0:
106,371,54061,1,2,0:0:0:0:
118,45,54215,5,8,0:0:0:0:
142,30,54291,1,0,0:0:0:0:
170,25,54368,1,0,0:0:0:0:
198,30,54445,1,0,0:0:0:0:
222,44,54522,1,2,0:0:0:0:
246,58,54599,1,0,0:0:0:0:
274,63,54676,1,0,0:0:0:0:
302,57,54753,1,0,0:0:0:0:
350,34,54830,6,0,L|346:94,1,56.9999982604981,8|2,0:0|0:0,0:0:0:0:
336,350,54984,2,0,L|262:321,1,56.9999982604981,2|2,0:0|0:0,0:0:0:0:
38,200,55138,6,0,L|111:195,1,56.9999982604981,8|8,0:0|0:0,0:0:0:0:
457,169,55292,1,2,0:0:0:0:
129,84,56368,5,0,0:0:0:0:
136,121,56444,1,0,0:0:0:0:
136,159,56521,1,0,0:0:0:0:
128,196,56598,1,0,0:0:0:0:
58,281,56676,6,0,B|194:321|194:241|314:281,1,256.50000097847,0|2,0:0|0:0,0:0:0:0:
432,327,57138,2,0,P|483:274|486:211,1,128.250000489235,0|2,0:0|0:0,0:0:0:0:
184,91,57445,2,0,P|132:143|129:206,1,128.250000489235,0|8,0:0|0:0,0:0:0:0:
492,355,57753,2,0,L|505:72,1,256.50000097847,0|0,0:0|0:0,0:0:0:0:
507,9,58215,1,8,0:0:0:0:
376,277,58368,1,0,0:0:0:0:
217,14,58522,5,2,0:0:0:0:
248,315,58676,1,0,0:0:0:0:
423,90,58830,1,8,0:0:0:0:
87,118,58984,2,0,L|162:157,1,64.1250002446175,2|2,0:0|0:0,0:0:0:0:
315,225,59138,6,0,P|353:275|355:346,1,128.250000489235,2|0,0:0|0:0,0:0:0:0:
40,212,59445,1,8,0:0:0:0:
371,134,59599,2,0,P|428:160|463:222,2,128.250000489235,0|2|0,0:0|0:0|0:0,0:0:0:0:
88,159,60061,5,8,0:0:0:0:
315,371,60215,1,0,0:0:0:0:
310,101,60368,1,2,0:0:0:0:
70,323,60522,1,0,0:0:0:0:
356,240,60676,1,8,0:0:0:0:
102,61,60830,1,0,0:0:0:0:
280,282,60984,6,0,P|338:326|395:318,1,128.250000489235,2|0,0:0|0:0,0:0:0:0:
460,114,61292,2,0,P|402:70|345:78,1,128.250000489235,8|0,0:0|0:0,0:0:0:0:
269,259,61599,1,2,0:0:0:0:
65,73,61753,5,0,0:0:0:0:
384,157,61907,1,8,0:0:0:0:
22,262,62061,1,0,0:0:0:0:
184,2,62215,2,0,P|253:5|319:57,1,128.250000489235,2|0,0:0|0:0,0:0:0:0:
316,258,62522,1,8,0:0:0:0:
52,97,62676,1,0,0:0:0:0:
333,165,62830,6,0,P|386:191|412:254,1,128.250000489235,2|0,0:0|0:0,0:0:0:0:
248,369,63138,1,8,0:0:0:0:
188,76,63292,1,0,0:0:0:0:
502,123,63445,1,0,3:0:0:0:
500,171,63521,1,0,3:0:0:0:
498,219,63598,1,0,3:0:0:0:
496,267,63675,1,0,3:0:0:0:
494,315,63752,1,8,0:0:0:0:
208,365,63907,6,0,L|162:83,1,256.50000097847,2|2,0:0|0:0,0:0:0:0:
310,60,64368,5,8,0:0:0:0:
0,253,64522,1,2,0:0:0:0:
424,259,64676,5,8,0:0:0:0:
72,118,64830,1,2,0:0:0:0:
439,269,64984,6,0,L|459:131,1,128.250000489235,2|2,0:0|0:0,0:0:0:0:
202,60,65292,5,8,0:0:0:0:
512,253,65446,1,2,0:0:0:0:
88,259,65599,5,8,0:0:0:0:
426,115,65754,1,2,0:0:0:0:
73,269,65908,6,0,L|53:131,1,128.250000489235,8|8,0:0|0:0,0:0:0:0:
89,88,66138,1,8,0:0:0:0:
141,51,66215,1,8,0:0:0:0:
203,36,66292,1,0,0:0:0:0:
266,45,66369,1,8,0:0:0:0:
322,76,66446,1,8,0:0:0:0:
401,6,66522,6,0,B|441:142|361:142|401:262,1,256.50000097847,2|2,0:0|0:0,0:0:0:0:
290,344,66984,2,0,P|220:369|162:345,1,128.250000489235,0|2,0:0|0:0,0:0:0:0:
78,134,67292,2,0,P|147:108|205:132,1,128.250000489235,0|8,0:0|0:0,0:0:0:0:
364,362,67599,2,0,L|92:371,1,256.50000097847,0|0,0:0|0:0,0:0:0:0:
7,371,68061,1,8,0:0:0:0:
195,64,68215,1,0,0:0:0:0:
344,344,68368,5,2,0:0:0:0:
366,50,68522,1,0,0:0:0:0:
86,200,68676,1,8,0:0:0:0:
415,239,68830,2,0,L|338:201,1,64.1250002446175,2|2,0:0|0:0,0:0:0:0:
132,125,68984,6,0,P|67:117|11:157,1,128.250000489235,2|0,0:0|0:0,0:0:0:0:
297,350,69292,1,8,0:0:0:0:
286,72,69445,2,0,P|250:17|183:0,2,128.250000489235,0|2|0,0:0|0:0|0:0,0:0:0:0:
272,353,69907,5,8,0:0:0:0:
191,96,70061,1,0,0:0:0:0:
428,232,70215,1,2,0:0:0:0:
116,314,70368,1,0,0:0:0:0:
333,77,70522,1,8,0:0:0:0:
383,366,70676,1,0,0:0:0:0:
457,58,70830,5,0,0:0:0:0:
461,76,70907,1,0,0:0:0:0:
462,95,70984,1,8,0:0:0:0:
459,114,71061,1,8,0:0:0:0:
453,132,71138,2,0,L|379:178,1,64.1250002446175,8|0,0:0|0:0,0:0:0:0:
220,183,71292,5,8,0:0:0:0:
210,213,71368,1,8,0:0:0:0:
211,245,71445,1,8,0:0:0:0:
504,349,71599,1,0,0:0:0:0:
376,91,71753,1,8,0:0:0:0:
240,365,71907,1,0,0:0:0:0:
446,137,72061,2,0,P|457:77|423:21,1,128.250000489235,2|0,0:0|0:0,0:0:0:0:
198,167,72368,5,8,0:0:0:0:
498,289,72522,1,0,0:0:0:0:
215,74,72676,2,0,P|154:81|110:129,1,128.250000489235,2|0,0:0|0:0,0:0:0:0:
244,314,72984,1,8,0:0:0:0:
418,58,73138,1,0,0:0:0:0:
28,98,73292,1,0,3:0:0:0:
30,146,73368,1,0,3:0:0:0:
32,194,73445,1,0,3:0:0:0:
34,242,73522,1,0,3:0:0:0:
36,290,73599,1,8,0:0:0:0:
296,369,73753,6,0,L|317:97,1,256.50000097847,2|2,0:0|0:0,0:0:0:0:
127,58,74215,5,8,0:0:0:0:
470,187,74368,1,2,0:0:0:0:
103,254,74522,5,8,0:0:0:0:
464,101,74676,1,2,0:0:0:0:
177,281,74830,6,0,L|154:144,1,128.250000489235,2|8,0:0|0:0,0:0:0:0:
345,65,75138,5,2,0:0:0:0:
2,194,75291,1,2,0:0:0:0:
369,261,75445,5,8,0:0:0:0:
8,108,75599,1,2,0:0:0:0:
295,288,75753,6,0,L|318:151,1,128.250000489235,2|2,0:0|0:0,0:0:0:0:
362,90,75984,1,8,0:0:0:0:
399,169,76061,1,8,0:0:0:0:
401,363,76215,6,0,L|126:374,1,256.50000097847,2|2,0:0|0:0,0:0:0:0:
22,375,76676,1,8,0:0:0:0:
127,150,76830,1,0,0:0:0:0:
216,299,76984,5,2,0:0:0:0:
8,234,77138,1,0,0:0:0:0:
279,181,77292,1,8,0:0:0:0:
115,351,77445,1,0,0:0:0:0:
130,88,77599,5,2,0:0:0:0:
295,345,77753,1,0,0:0:0:0:
7,175,77907,1,8,0:0:0:0:
356,174,78061,1,0,0:0:0:0:
37,311,78215,5,2,0:0:0:0:
158,16,78368,1,2,0:0:0:0:
237,335,78522,1,8,0:0:0:0:
10,119,78676,2,0,L|87:150,1,64.1250002446175,2|2,0:0|0:0,0:0:0:0:
343,240,78830,5,8,0:0:0:0:
224,97,78984,1,8,0:0:0:0:
198,296,79138,5,8,0:0:0:0:
370,153,79292,1,8,0:0:0:0:
130,122,79445,5,8,0:0:0:0:
302,328,79599,1,8,0:0:0:0:
338,41,79753,5,8,0:0:0:0:
91,247,79907,1,8,0:0:0:0:
431,288,80061,5,0,0:0:0:0:
322,171,80215,1,0,0:0:0:0:
287,343,80368,1,0,0:0:0:0:
417,194,80522,5,0,0:0:0:0:
363,369,80676,1,0,0:0:0:0:
209,209,80830,1,0,0:0:0:0:
466,318,80984,5,0,0:0:0:0:
309,121,81138,1,0,0:0:0:0:
256,192,81157,12,0,83599,0:0:0:0:
142,180,88522,5,2,0:0:0:0:
142,180,88599,1,2,0:0:0:0:
142,180,88676,1,8,0:0:0:0:
403,302,88830,1,2,0:0:0:0:
105,327,88984,5,8,0:0:0:0:
403,161,89138,1,2,0:0:0:0:
66,150,89292,5,8,0:0:0:0:
475,327,89445,1,2,0:0:0:0:
31,342,89599,5,8,0:0:0:0:
463,128,89753,1,2,0:0:0:0:
474,122,89830,1,2,0:0:0:0:
485,116,89906,5,8,0:0:0:0:
501,142,89984,1,8,0:0:0:0:
507,173,90061,1,2,3:0:0:0:
499,204,90138,1,2,3:0:0:0:
479,229,90214,1,8,3:0:0:0:
461,254,90291,1,8,3:0:0:0:
453,286,90368,1,2,0:0:0:0:
458,317,90445,1,2,0:0:0:0:
475,344,90522,5,2,3:0:0:0:
440,312,90598,1,2,3:0:0:0:
395,294,90675,1,8,3:0:0:0:
347,293,90752,1,8,3:0:0:0:
302,309,90830,1,2,0:0:0:0:
257,336,90907,1,2,0:0:0:0:
204,347,90984,1,2,0:0:0:0:
151,339,91061,1,2,0:0:0:0:
106,314,91137,5,2,0:0:0:0:
49,131,91292,1,0,0:0:0:0:
237,187,91445,1,8,0:0:0:0:
43,227,91599,5,0,0:0:0:0:
146,49,91753,1,2,0:0:0:0:
226,274,91907,1,2,0:0:0:0:
55,114,92061,5,8,0:0:0:0:
279,109,92215,1,2,0:0:0:0:
128,286,92368,1,0,0:0:0:0:
177,52,92522,5,2,0:0:0:0:
259,250,92676,1,8,0:0:0:0:
49,207,92830,1,0,0:0:0:0:
270,123,92984,5,2,0:0:0:0:
139,290,93138,1,2,0:0:0:0:
94,97,93292,2,0,P|145:60|209:53,1,104.500003189087,8|0,0:0|0:0,0:0:0:0:
388,121,93599,5,2,0:0:0:0:
190,178,93753,1,0,0:0:0:0:
374,272,93907,1,8,0:0:0:0:
271,105,94061,5,0,0:0:0:0:
205,304,94215,1,2,0:0:0:0:
412,196,94368,1,2,0:0:0:0:
180,196,94522,5,8,0:0:0:0:
347,308,94676,1,2,0:0:0:0:
344,112,94830,1,0,0:0:0:0:
197,294,94984,5,2,0:0:0:0:
387,244,95138,1,8,0:0:0:0:
226,115,95292,1,0,0:0:0:0:
298,317,95445,5,2,0:0:0:0:
383,131,95599,1,2,0:0:0:0:
162,202,95753,2,0,P|154:268|171:309,1,104.500003189087,8|0,0:0|0:0,0:0:0:0:
409,371,96061,5,2,0:0:0:0:
264,247,96215,1,0,0:0:0:0:
479,218,96368,1,8,0:0:0:0:
299,340,96522,5,0,0:0:0:0:
366,146,96676,1,2,0:0:0:0:
488,312,96830,1,2,0:0:0:0:
279,211,96984,5,8,0:0:0:0:
491,143,97138,1,2,0:0:0:0:
404,337,97292,1,0,0:0:0:0:
317,132,97445,5,2,0:0:0:0:
511,237,97599,1,8,0:0:0:0:
286,307,97753,1,0,0:0:0:0:
439,120,97907,5,2,0:0:0:0:
436,320,98061,1,2,0:0:0:0:
237,232,98215,2,0,P|203:182|205:123,1,104.500003189087,8|0,0:0|0:0,0:0:0:0:
323,0,98522,5,2,0:0:0:0:
311,150,98676,1,0,0:0:0:0:
488,65,98830,1,8,0:0:0:0:
252,71,98984,5,0,0:0:0:0:
426,215,99138,1,2,0:0:0:0:
425,2,99292,1,2,0:0:0:0:
258,184,99445,5,8,0:0:0:0:
487,140,99599,1,0,0:0:0:0:
196,109,99753,5,0,0:0:0:0:
166,151,99829,1,0,0:0:0:0:
162,202,99906,1,2,0:0:0:0:
185,249,99983,1,0,0:0:0:0:
229,276,100060,1,8,0:0:0:0:
237,309,100138,1,0,0:0:0:0:
226,341,100215,1,0,0:0:0:0:
200,364,100292,1,0,0:0:0:0:
166,372,100368,5,0,3:0:0:0:
159,340,100445,1,0,3:0:0:0:
170,308,100522,1,8,0:0:0:0:
196,285,100599,1,8,0:0:0:0:
230,277,100676,1,8,0:0:0:0:
272,287,100753,1,0,3:0:0:0:
302,318,100830,1,8,0:0:0:0:
342,345,100907,1,8,0:0:0:0:
391,348,100984,6,0,P|441:324|461:266,1,104.500003189087,8|0,0:0|0:0,0:0:0:0:
512,36,101292,6,0,L|296:71,1,209.000006378174,8|2,0:0|0:0,0:0:0:0:
140,96,101753,2,0,P|170:164|224:198,1,104.500003189087,2|8,0:0|0:0,0:0:0:0:
371,271,102061,6,0,B|337:323|272:325,1,104.500003189087,2|0,0:0|0:0,0:0:0:0:
104,350,102368,2,0,B|139:297|203:295,1,104.500003189087,2|8,0:0|0:0,0:0:0:0:
413,253,102676,6,0,B|402:314|344:341,1,104.500003189087,2|2,0:0|0:0,0:0:0:0:
61,368,102984,2,0,B|72:306|131:279,1,104.500003189087,2|8,0:0|0:0,0:0:0:0:
326,371,103291,6,0,B|388:384|434:339,1,104.500003189087,2|2,0:0|0:0,0:0:0:0:
470,120,103599,2,0,B|409:108|363:153,1,104.500003189087,2|8,0:0|0:0,0:0:0:0:
168,346,103907,6,0,B|107:359|61:314,1,104.500003189087,0|2,0:0|0:0,0:0:0:0:
24,95,104215,2,0,B|86:83|132:128,1,104.500003189087,2|8,0:0|0:0,0:0:0:0:
366,292,104522,2,0,L|413:66,1,209.000006378174,2|2,0:0|0:0,0:0:0:0:
434,0,104984,2,0,P|360:10|322:54,1,104.500003189087,8|2,0:0|0:0,0:0:0:0:
243,195,105292,5,2,0:0:0:0:
505,216,105445,1,2,0:0:0:0:
420,0,105599,2,0,P|346:10|308:54,1,104.500003189087,8|2,0:0|0:0,0:0:0:0:
208,281,105907,5,2,0:0:0:0:
77,84,106061,1,2,0:0:0:0:
322,158,106215,1,8,0:0:0:0:
31,206,106368,1,0,0:0:0:0:
254,37,106522,5,2,0:0:0:0:
17,217,106676,1,2,0:0:0:0:
320,264,106830,1,8,0:0:0:0:
64,69,106984,1,2,0:0:0:0:
159,334,107138,5,0,0:0:0:0:
163,31,107292,1,2,0:0:0:0:
305,275,107445,1,8,0:0:0:0:
0,147,107599,1,2,0:0:0:0:
301,113,107753,5,2,0:0:0:0:
4,120,107907,1,2,0:0:0:0:
184,318,108061,1,8,0:0:0:0:
154,60,108215,1,0,0:0:0:0:
25,298,108368,5,2,0:0:0:0:
438,154,108522,1,2,0:0:0:0:
46,178,108676,5,8,0:0:0:0:
457,236,108830,1,0,0:0:0:0:
47,317,108984,5,8,0:0:0:0:
457,134,109138,2,0,L|411:158,1,52.2500015945435,8|8,0:0|0:0,0:0:0:0:
47,317,109292,1,8,0:0:0:0:
296,360,109445,5,2,0:0:0:0:
323,207,109753,6,0,B|307:218|296:230|296:230|255:217|248:160,1,104.500003189087,2|8,0:0|0:0,0:0:0:0:
350,54,110061,5,2,0:0:0:0:
448,138,110368,5,2,3:0:0:0:
457,134,110445,1,2,3:0:0:0:
465,128,110522,1,8,3:0:0:0:
478,164,110599,1,8,3:0:0:0:
482,203,110676,1,2,1:0:0:0:
478,242,110753,1,2,1:0:0:0:
464,279,110830,1,2,0:0:0:0:
235,367,111445,6,0,L|196:223,1,142.5,0|0,0:0|0:0,0:0:0:0:
175,143,112061,2,0,B|190:126|185:96|185:96|216:100|216:100|217:56|255:29,2,142.5,0|0|0,0:0|0:0|0:0,0:0:0:0:
301,99,113292,2,0,B|322:104|346:85|346:85|358:113|358:113|396:92|439:111,2,142.5,0|0|0,0:0|0:0|0:0,0:0:0:0:
400,186,114522,2,0,B|406:207|434:218|434:218|416:242|416:242|453:265|458:312,1,142.5,0|0,0:0|0:0,0:0:0:0:
376,316,115138,2,0,P|348:296|333:267,4,47.5,0|0|0|0|0,0:0|0:0|0:0|0:0|0:0,0:0:0:0:
337,109,116061,6,0,L|239:153,1,95,0|0,0:0|0:0,0:0:0:0:
143,193,116676,1,0,0:0:0:0:
143,193,116830,1,0,0:0:0:0:
143,193,116984,2,0,B|161:222|170:264|170:264|185:220|215:193,2,142.5,0|0|0,0:0|0:0|0:0,0:0:0:0:
252,127,118215,6,0,B|266:153|304:175|304:175|280:214|284:255,2,142.5,0|0|0,0:0|0:0|0:0,0:0:0:0:
320,91,119445,5,8,0:0:0:0:
328,116,119521,1,0,0:0:0:0:
328,142,119598,1,0,0:0:0:0:
319,167,119675,1,0,0:0:0:0:
301,187,119752,1,0,0:0:0:0:
278,199,119829,1,0,0:0:0:0:
251,203,119906,1,0,0:0:0:0:
225,198,119983,1,0,0:0:0:0:
203,183,120061,1,0,0:0:0:0:
181,166,120137,1,0,0:0:0:0:
157,156,120214,1,0,0:0:0:0:
130,150,120291,1,0,0:0:0:0:
104,152,120368,1,0,0:0:0:0:
77,159,120445,1,0,0:0:0:0:
54,170,120522,1,0,0:0:0:0:
33,188,120599,1,0,0:0:0:0:
17,209,120676,1,8,0:0:0:0:
123,294,120830,5,0,0:0:0:0:
82,83,120984,1,0,0:0:0:0:
140,308,121138,1,0,0:0:0:0:
63,71,121292,1,0,0:0:0:0:
334,260,121753,5,0,0:0:0:0:
375,49,121907,1,2,0:0:0:0:
317,274,122061,1,0,0:0:0:0:
394,37,122215,1,2,0:0:0:0:
234,317,122522,5,2,0:0:0:0:
179,120,122676,2,0,L|169:166,1,47.5,8|8,0:0|0:0,0:0:0:0:
135,344,122830,5,8,0:0:0:0:
80,147,122984,2,0,L|68:209,1,47.5,8|8,0:0|0:0,0:0:0:0:
36,371,123138,5,8,0:0:0:0:
362,313,123292,5,0,0:0:0:0:
431,71,123446,1,2,0:0:0:0:
333,320,123599,1,0,0:0:0:0:
458,61,123753,1,2,0:0:0:0:
144,254,124215,5,0,0:0:0:0:
75,12,124369,1,2,0:0:0:0:
141,269,124522,1,0,0:0:0:0:
203,196,124676,5,0,0:0:0:0:
228,235,124752,1,0,0:0:0:0:
233,282,124829,1,0,0:0:0:0:
218,327,124906,1,0,0:0:0:0:
185,360,124983,1,8,0:0:0:0:
94,309,125138,1,8,0:0:0:0:
37,224,125291,1,8,0:0:0:0:
20,124,125445,1,2,0:0:0:0:
86,23,125599,5,8,0:0:0:0:
431,164,125753,1,2,0:0:0:0:
129,196,125907,5,8,0:0:0:0:
489,41,126061,1,2,0:0:0:0:
288,347,126215,5,8,0:0:0:0:
187,26,126368,1,2,0:0:0:0:
506,213,126522,1,2,0:0:0:0:
74,140,126676,5,8,0:0:0:0:
465,51,126830,1,2,0:0:0:0:
354,368,126984,1,2,0:0:0:0:
237,12,127138,5,8,0:0:0:0:
510,279,127292,1,2,0:0:0:0:
32,240,127445,1,2,0:0:0:0:
389,5,127599,5,8,0:0:0:0:
256,373,127753,1,2,0:0:0:0:
8,32,127907,1,2,0:0:0:0:
421,28,128061,5,8,0:0:0:0:
447,62,128137,1,0,0:0:0:0:
460,105,128214,1,0,0:0:0:0:
457,149,128291,1,0,0:0:0:0:
438,190,128368,1,2,0:0:0:0:
421,230,128445,1,2,0:0:0:0:
417,276,128522,1,2,0:0:0:0:
432,318,128599,1,2,0:0:0:0:
470,374,128676,6,0,L|365:353,1,61.7499971733095,2|2,0:0|0:0,0:0:0:0:
0,266,128830,2,0,L|96:226,1,61.7499971733095,2|2,0:0|0:0,0:0:0:0:
363,117,128984,6,0,L|296:167,1,61.7499971733095,2|2,0:0|0:0,0:0:0:0:
9,371,129138,1,2,0:0:0:0:
493,99,129445,5,8,0:0:0:0:
43,129,129599,1,2,0:0:0:0:
481,231,129753,1,2,0:0:0:0:
90,22,129907,1,8,0:0:0:0:
429,359,130061,2,0,L|390:298,1,61.7499971733095,2|2,0:0|0:0,0:0:0:0:
202,2,130215,1,8,0:0:0:0:
304,371,130368,1,0,0:0:0:0:
434,0,130522,6,0,B|498:136|402:136|479:270,1,275.500008407593,2|8,0:0|0:0,0:0:0:0:
483,352,130984,2,0,P|418:380|340:340,1,137.750004203797,0|2,0:0|0:0,0:0:0:0:
187,137,131292,2,0,P|252:109|330:149,1,137.750004203797,0|8,0:0|0:0,0:0:0:0:
503,364,131599,2,0,L|190:371,1,275.500008407593,0|0,0:0|0:0,0:0:0:0:
75,373,132061,1,8,0:0:0:0:
312,98,132215,1,0,0:0:0:0:
382,319,132368,5,2,0:0:0:0:
47,187,132522,1,0,0:0:0:0:
390,192,132676,1,8,0:0:0:0:
217,366,132830,2,0,L|243:284,1,68.8750021018983,2|2,0:0|0:0,0:0:0:0:
304,123,132984,6,0,P|362:83|443:91,1,137.750004203797,2|0,0:0|0:0,0:0:0:0:
296,341,133292,1,8,0:0:0:0:
166,126,133445,2,0,P|176:42|222:2,2,137.750004203797,0|2|0,0:0|0:0|0:0,0:0:0:0:
436,297,133907,5,8,0:0:0:0:
251,94,134061,1,0,0:0:0:0:
508,124,134215,1,2,0:0:0:0:
184,282,134368,1,0,0:0:0:0:
396,59,134522,1,8,0:0:0:0:
300,361,134676,1,0,0:0:0:0:
168,108,134830,6,0,P|192:38|273:13,1,137.750004203797,2|0,0:0|0:0,0:0:0:0:
415,127,135138,2,0,P|391:197|310:222,1,137.750004203797,8|0,0:0|0:0,0:0:0:0:
104,180,135445,1,2,0:0:0:0:
316,365,135599,5,0,0:0:0:0:
343,49,135753,1,8,0:0:0:0:
120,257,135907,1,0,0:0:0:0:
437,226,136061,1,2,0:0:0:0:
112,105,136215,1,0,0:0:0:0:
415,141,136368,2,0,P|493:164|522:228,1,137.750004203797,8|0,0:0|0:0,0:0:0:0:
383,373,136676,5,2,0:0:0:0:
243,151,136830,2,0,P|269:79|332:43,1,137.750004203797,0|8,0:0|0:0,0:0:0:0:
498,40,137138,1,0,0:0:0:0:
326,199,137292,1,0,3:0:0:0:
285,230,137368,1,0,3:0:0:0:
235,238,137445,1,0,3:0:0:0:
187,220,137522,1,0,3:0:0:0:
154,181,137599,1,8,0:0:0:0:
408,338,137753,6,0,L|432:59,1,275.500008407593,2|2,0:0|0:0,0:0:0:0:
133,92,138215,5,8,0:0:0:0:
509,199,138368,1,2,0:0:0:0:
82,233,138522,5,8,0:0:0:0:
499,284,138676,1,2,0:0:0:0:
182,261,138830,6,0,L|142:90,1,137.750004203797,2|2,0:0|0:0,0:0:0:0:
379,92,139138,5,8,0:0:0:0:
3,199,139291,1,2,0:0:0:0:
430,233,139445,5,8,0:0:0:0:
13,284,139599,1,2,0:0:0:0:
359,270,139753,6,0,L|399:99,1,137.750004203797,8|8,0:0|0:0,0:0:0:0:
354,87,139984,1,8,0:0:0:0:
300,60,140061,1,8,0:0:0:0:
241,61,140138,1,8,0:0:0:0:
188,89,140215,1,8,0:0:0:0:
127,82,140292,1,8,0:0:0:0:
57,0,140368,6,0,B|-7:136|89:136|12:270,1,275.500008407593,8|2,0:0|0:0,0:0:0:0:
29,352,140830,2,0,P|94:380|172:340,1,137.750004203797,0|2,0:0|0:0,0:0:0:0:
325,137,141138,2,0,P|260:109|182:149,1,137.750004203797,0|8,0:0|0:0,0:0:0:0:
26,368,141445,6,0,L|326:371,1,275.500008407593,0|0,0:0|0:0,0:0:0:0:
440,371,141907,1,8,0:0:0:0:
196,168,142061,1,0,0:0:0:0:
172,342,142215,5,2,0:0:0:0:
461,165,142368,1,0,0:0:0:0:
189,69,142522,1,8,0:0:0:0:
367,301,142676,2,0,L|294:283,1,68.8750021018983,2|2,0:0|0:0,0:0:0:0:
80,228,142830,6,0,P|8:184|-9:111,1,137.750004203797,2|0,0:0|0:0,0:0:0:0:
373,170,143138,1,8,0:0:0:0:
98,106,143292,2,0,P|71:26|105:-40,2,137.750004203797,0|2|0,0:0|0:0|0:0,0:0:0:0:
303,275,143753,1,8,0:0:0:0:
418,20,143907,1,0,0:0:0:0:
485,304,144061,1,2,0:0:0:0:
194,148,144215,1,0,0:0:0:0:
505,136,144368,1,8,0:0:0:0:
222,294,144522,1,0,0:0:0:0:
176,36,144676,5,2,0:0:0:0:
151,53,144752,1,0,0:0:0:0:
133,78,144829,1,8,0:0:0:0:
124,107,144906,1,8,0:0:0:0:
125,138,144984,2,0,L|215:150,1,68.8750021018983,8|0,0:0|0:0,0:0:0:0:
359,186,145138,5,8,0:0:0:0:
364,215,145214,1,8,0:0:0:0:
359,246,145291,1,8,0:0:0:0:
105,369,145445,5,0,0:0:0:0:
260,86,145599,1,8,0:0:0:0:
477,320,145753,1,0,0:0:0:0:
109,207,145907,1,2,0:0:0:0:
458,140,146061,1,0,0:0:0:0:
127,120,146215,2,0,P|49:143|20:207,1,137.750004203797,8|0,0:0|0:0,0:0:0:0:
159,352,146523,5,2,0:0:0:0:
299,130,146677,2,0,P|273:58|210:22,1,137.750004203797,0|8,0:0|0:0,0:0:0:0:
44,19,146985,1,0,0:0:0:0:
216,178,147139,1,0,3:0:0:0:
256,209,147215,1,0,3:0:0:0:
306,217,147292,1,0,3:0:0:0:
354,199,147369,1,0,3:0:0:0:
387,160,147446,1,8,0:0:0:0:
104,338,147599,6,0,L|80:59,1,275.500008407593,2|2,0:0|0:0,0:0:0:0:
378,76,148061,5,8,0:0:0:0:
20,233,148215,1,2,0:0:0:0:
326,349,148368,5,8,0:0:0:0:
116,27,148522,1,2,0:0:0:0:
330,261,148676,6,0,L|370:90,1,137.750004203797,2|8,0:0|0:0,0:0:0:0:
134,76,148984,5,2,0:0:0:0:
492,233,149138,1,2,0:0:0:0:
186,349,149291,5,8,0:0:0:0:
396,27,149445,1,0,0:0:0:0:
182,261,149599,6,0,L|142:90,1,137.750004203797,2|2,0:0|0:0,0:0:0:0:
99,52,149830,1,8,0:0:0:0:
59,135,149907,1,8,0:0:0:0:
65,356,150061,6,0,L|379:363,1,275.500008407593,2|0,0:0|0:0,0:0:0:0:
470,364,150522,1,8,0:0:0:0:
287,169,150676,1,0,0:0:0:0:
269,323,150830,5,2,0:0:0:0:
499,187,150984,1,0,0:0:0:0:
146,149,151138,1,8,0:0:0:0:
384,306,151292,1,0,0:0:0:0:
326,58,151445,5,2,0:0:0:0:
165,266,151599,1,0,0:0:0:0:
454,253,151753,1,8,0:0:0:0:
185,120,151907,1,0,0:0:0:0:
302,340,152061,6,0,L|349:275,1,68.8750021018983,8|8,0:0|0:0,0:0:0:0:
472,104,152215,2,0,L|393:107,1,68.8750021018983,2|2,0:0|0:0,0:0:0:0:
122,117,152368,2,0,L|192:148,1,68.8750021018983,8|8,0:0|0:0,0:0:0:0:
451,271,152522,2,0,L|360:272,1,68.8750021018983,2|2,0:0|0:0,0:0:0:0:
150,266,152676,5,8,0:0:0:0:
251,73,152830,1,8,0:0:0:0:
344,319,152984,5,8,0:0:0:0:
113,198,153138,1,8,0:0:0:0:
408,85,153292,5,8,0:0:0:0:
263,363,153446,1,8,0:0:0:0:
128,8,153599,5,8,0:0:0:0:
461,183,153753,1,8,0:0:0:0:
159,324,153907,5,0,0:0:0:0:
224,163,154061,1,0,0:0:0:0:
39,207,154214,1,0,0:0:0:0:
245,267,154368,5,0,0:0:0:0:
49,294,154522,1,0,0:0:0:0:
135,70,154676,1,0,0:0:0:0:
146,371,154830,5,0,0:0:0:0:
268,127,154984,1,0,0:0:0:0:
256,192,155003,12,0,157599,0:0:0:0:
56,145,159753,5,0,0:0:0:0:
56,145,159907,1,0,0:0:0:0:
56,145,160061,2,0,B|114:121|157:159|157:159|196:123|196:123|246:169|323:158,1,285.000010871888,0|0,0:0|0:0,0:0:0:0:
347,253,160984,5,0,0:0:0:0:
347,253,161138,1,0,0:0:0:0:
347,253,161292,2,0,B|289:229|245:267|245:267|206:231|206:231|157:277|79:266,1,285.000010871888,0|0,0:0|0:0,0:0:0:0:
56,145,162215,5,0,0:0:0:0:
56,145,162368,1,0,0:0:0:0:
56,145,162522,2,0,B|115:125|152:158|152:158|175:115|175:115|239:178|331:150,1,313.500009567261,2|0,0:0|0:0,0:0:0:0:
347,253,163138,2,0,B|288:233|251:266|251:266|228:223|228:223|164:286|72:258,1,313.500009567261,2|0,0:0|0:0,0:0:0:0:
128,126,163907,5,8,0:0:0:0:
128,126,163984,1,8,0:0:0:0:
128,126,164061,1,8,0:0:0:0:
342,278,164215,1,8,0:0:0:0:
266,50,164368,5,8,0:0:0:0:
173,329,164522,1,8,0:0:0:0:
107,79,164676,5,8,0:0:0:0:
366,320,164830,1,8,0:0:0:0:
270,31,164984,1,2,0:0:0:0:
240,128,172984,5,8,0:0:0:0:
80,248,173138,1,0,0:0:0:0:
325,261,173292,1,2,0:0:0:0:
33,137,173445,1,2,0:0:0:0:
213,340,173599,1,0,0:0:0:0:
36,113,173753,1,2,0:0:0:0:
322,138,173907,1,8,0:0:0:0:
54,258,174061,1,0,0:0:0:0:
220,41,174215,5,0,0:0:0:0:
104,320,174368,1,2,0:0:0:0:
355,117,174522,1,8,0:0:0:0:
5,112,174676,1,8,0:0:0:0:
278,328,174830,6,0,B|299:288|352:277|392:302|392:302|372:233|287:218|234:262|234:262|147:215|155:108|155:108|222:123|261:166|261:166|303:152|368:159|428:194|458:258,1,855.000032615663,2|0,0:0|0:0,0:0:0:0:
348,367,177292,6,0,B|187:380|55:262|55:262|167:240|282:280|282:280|413:261|488:143|488:143|427:150,1,855.000032615663,2|0,0:0|0:0,0:0:0:0:
276,200,179753,6,0,B|334:193|376:159|376:159|298:129|196:143|108:182|70:233|70:233|126:250|185:244|185:244|204:274|243:303|289:304|343:279|343:279|357:359|433:364,1,855.000032615663,2|0,0:0|0:0,0:0:0:0:
66,114,182215,6,0,B|7:174|8:277|8:277|33:258|41:222,1,213.750008153916,2|2,0:0|0:0,0:0:0:0:
99,194,182830,5,8,0:0:0:0:
247,57,182984,1,0,0:0:0:0:
232,271,183138,1,2,0:0:0:0:
141,102,183292,1,2,0:0:0:0:
352,157,183445,1,0,0:0:0:0:
132,74,183599,1,2,0:0:0:0:
233,301,183753,1,8,0:0:0:0:
312,51,183907,1,0,0:0:0:0:
104,187,184061,1,0,0:0:0:0:
336,74,184215,1,0,0:0:0:0:
118,71,184368,1,0,0:0:0:0:
277,265,184522,1,0,0:0:0:0:
492,210,184676,5,2,0:0:0:0:
236,10,184830,1,0,0:0:0:0:
270,371,184984,1,2,0:0:0:0:
460,66,185138,1,0,0:0:0:0:
106,188,185292,1,2,0:0:0:0:
468,366,185445,1,0,0:0:0:0:
304,18,185599,1,2,0:0:0:0:
170,370,185753,1,0,0:0:0:0:
475,121,185907,1,2,0:0:0:0:
109,300,186061,1,0,0:0:0:0:
359,0,186215,1,2,0:0:0:0:
435,365,186368,1,0,0:0:0:0:
36,141,186522,5,2,0:0:0:0:
455,230,186676,1,8,0:0:0:0:
50,236,186830,5,2,0:0:0:0:
494,140,186984,1,8,0:0:0:0:
167,22,187138,5,2,0:0:0:0:
310,361,187292,1,0,0:0:0:0:
3,191,187445,1,2,0:0:0:0:
355,100,187599,1,0,0:0:0:0:
148,369,187753,1,2,0:0:0:0:
5,69,187907,1,2,0:0:0:0:
356,191,188061,1,2,0:0:0:0:
0,368,188215,1,0,0:0:0:0:
213,22,188368,1,2,3:0:0:0:
0,328,188522,1,2,3:0:0:0:
355,351,188676,1,2,3:0:0:0:
103,61,188830,1,2,3:0:0:0:
456,241,188984,5,2,0:0:0:0:
18,140,189138,1,8,0:0:0:0:
482,139,189292,5,2,0:0:0:0:
38,249,189446,1,8,0:0:0:0:
296,8,189599,5,2,0:0:0:0:
402,372,189753,1,0,0:0:0:0:
43,127,189907,1,2,0:0:0:0:
458,182,190061,1,0,0:0:0:0:
64,371,190215,1,2,0:0:0:0:
203,4,190368,1,0,0:0:0:0:
451,296,190522,1,2,0:0:0:0:
3,195,190676,1,0,0:0:0:0:
401,64,190830,1,2,0:0:0:0:
98,370,190984,1,0,0:0:0:0:
126,12,191138,1,2,0:0:0:0:
416,329,191292,1,0,0:0:0:0:
17,121,191445,5,2,0:0:0:0:
491,261,191599,1,8,0:0:0:0:
26,258,191753,5,2,0:0:0:0:
496,126,191907,1,8,0:0:0:0:
140,27,192061,5,2,0:0:0:0:
228,370,192215,1,0,0:0:0:0:
465,39,192368,1,2,0:0:0:0:
79,244,192522,1,0,0:0:0:0:
493,318,192676,1,2,0:0:0:0:
147,24,192830,1,0,0:0:0:0:
324,370,192984,1,8,0:0:0:0:
505,45,193138,1,0,0:0:0:0:
74,186,193292,1,8,0:0:0:0:
504,262,193445,1,2,0:0:0:0:
219,5,193599,1,8,0:0:0:0:
138,369,193753,1,0,0:0:0:0:
498,155,193907,5,10,0:0:0:0:
19,251,194061,1,8,0:0:0:0:
474,256,194215,5,10,0:0:0:0:
9,122,194368,1,8,0:0:0:0:
134,95,206522,5,0,0:0:0:0:
144,119,206598,1,0,0:0:0:0:
148,145,206675,1,0,0:0:0:0:
147,172,206752,1,0,0:0:0:0:
117,196,206829,1,0,0:0:0:0:
226,267,207138,5,2,0:0:0:0:
400,206,207753,1,2,0:0:0:0:
231,254,208368,5,2,0:0:0:0:
405,193,208983,1,2,0:0:0:0:
236,241,209599,5,2,0:0:0:0:
410,180,210214,1,2,0:0:0:0:
230,154,210522,6,0,P|207:160|176:179,2,47.5000018119813,0|0|0,0:0|0:0|0:0,0:0:0:0:
236,241,210830,2,0,P|220:258|205:291,2,47.5000018119813,2|0|0,0:0|0:0|0:0,0:0:0:0:
302,312,211138,1,0,0:0:0:0:
336,343,211240,1,0,0:0:0:0:
381,358,211343,1,0,0:0:0:0:
428,353,211445,1,2,0:0:0:0:
392,320,211548,1,0,0:0:0:0:
347,305,211650,1,0,0:0:0:0:
301,310,211753,5,2,0:0:0:0:
152,353,212061,1,2,0:0:0:0:
347,305,212368,5,2,0:0:0:0:
199,257,212676,1,2,0:0:0:0:
400,153,212984,5,2,0:0:0:0:
347,305,213138,1,0,0:0:0:0:
325,141,213292,5,2,0:0:0:0:
232,292,213446,1,0,0:0:0:0:
265,97,213599,5,2,0:0:0:0:
131,238,213753,1,0,0:0:0:0:
225,31,213907,5,2,0:0:0:0:
58,145,214061,1,0,0:0:0:0:
454,56,216368,5,0,0:0:0:0:
433,111,216444,1,0,0:0:0:0:
433,170,216521,1,0,0:0:0:0:
453,226,216598,1,0,0:0:0:0:
512,308,216676,6,0,B|481:343|419:330|419:330|398:354|398:354|316:376|230:351,1,285.000010871888,2|8,0:0|0:0,0:0:0:0:
62,336,217138,2,0,P|36:266|62:178,1,142.500005435944,0|2,0:0|0:0,0:0:0:0:
354,94,217445,2,0,P|380:164|354:252,1,142.500005435944,0|8,0:0|0:0,0:0:0:0:
20,366,217753,6,0,L|7:53,1,285.000010871888,0|0,0:0|0:0,0:0:0:0:
150,13,218215,1,8,0:0:0:0:
399,290,218368,1,0,0:0:0:0:
90,330,218522,5,2,0:0:0:0:
346,27,218676,1,0,0:0:0:0:
0,120,218830,1,8,0:0:0:0:
242,373,218984,2,0,L|288:292,1,71.2500027179719,2|2,0:0|0:0,0:0:0:0:
405,85,219138,6,0,B|428:35|432:-11|432:-11|388:24,1,142.500005435944,2|0,0:0|0:0,0:0:0:0:
133,249,219445,1,8,0:0:0:0:
474,193,219599,2,0,B|522:167|554:133|554:133|498:134,2,142.500005435944,0|2|0,0:0|0:0|0:0,0:0:0:0:
127,166,220061,5,8,0:0:0:0:
489,51,220215,1,0,0:0:0:0:
259,374,220368,1,2,0:0:0:0:
113,51,220522,1,0,0:0:0:0:
446,246,220676,1,8,0:0:0:0:
82,303,220830,1,0,0:0:0:0:
499,191,220984,6,0,P|516:275|464:321,1,142.500005435944,2|0,0:0|0:0,0:0:0:0:
75,316,221292,2,0,P|58:232|110:186,1,142.500005435944,8|0,0:0|0:0,0:0:0:0:
326,153,221599,1,2,0:0:0:0:
30,63,221753,5,0,0:0:0:0:
239,369,221907,1,8,0:0:0:0:
328,7,222061,1,0,0:0:0:0:
92,273,222215,1,2,0:0:0:0:
485,167,222368,1,0,0:0:0:0:
128,5,222522,1,8,0:0:0:0:
359,335,222676,1,0,0:0:0:0:
12,114,222830,1,2,0:0:0:0:
400,7,222984,1,0,0:0:0:0:
220,367,223138,1,8,0:0:0:0:
194,3,223292,1,0,0:0:0:0:
512,34,223445,5,0,3:0:0:0:
489,113,223521,1,0,3:0:0:0:
480,195,223598,1,0,3:0:0:0:
484,277,223675,1,0,3:0:0:0:
498,358,223752,1,8,0:0:0:0:
167,347,223907,6,0,L|132:27,1,285.000010871888,2|2,0:0|0:0,0:0:0:0:
501,106,224368,5,8,0:0:0:0:
20,197,224522,1,2,0:0:0:0:
495,268,224676,5,8,0:0:0:0:
36,119,224830,1,2,0:0:0:0:
399,279,224984,6,0,L|414:106,1,142.500005435944,2|2,0:0|0:0,0:0:0:0:
11,106,225292,5,8,0:0:0:0:
492,197,225446,1,2,0:0:0:0:
17,268,225600,5,8,0:0:0:0:
476,119,225754,1,2,0:0:0:0:
167,319,225907,5,8,0:0:0:0:
80,326,225983,1,2,0:0:0:0:
17,268,226060,1,2,0:0:0:0:
19,181,226137,1,2,0:0:0:0:
84,125,226215,1,8,0:0:0:0:
101,121,226291,1,2,0:0:0:0:
131,108,226369,1,8,0:0:0:0:
181,40,226445,1,8,0:0:0:0:
282,39,226522,6,0,B|252:75|276:134|276:134|256:159|256:159|249:243|288:324,1,285.000010871888,2|8,0:0|0:0,0:0:0:0:
447,357,226984,2,0,P|473:287|447:199,1,142.500005435944,0|2,0:0|0:0,0:0:0:0:
132,77,227291,2,0,P|106:147|132:235,1,142.500005435944,0|8,0:0|0:0,0:0:0:0:
415,366,227599,1,0,0:0:0:0:
456,49,227753,6,0,L|378:86,1,71.2500027179719,2|0,0:0|0:0,0:0:0:0:
43,216,227907,2,0,L|173:259,1,71.2500027179719,0|0,0:0|0:0,0:0:0:0:
435,346,228061,2,0,L|358:268,1,71.2500027179719,8|0,0:0|0:0,0:0:0:0:
148,23,228215,2,0,L|166:121,1,71.2500027179719,0|0,0:0|0:0,0:0:0:0:
234,371,228368,2,0,L|259:271,1,71.2500027179719,2|0,0:0|0:0,0:0:0:0:
340,10,228522,2,0,L|268:68,1,71.2500027179719,0|0,0:0|0:0,0:0:0:0:
29,278,228676,2,0,L|110:254,1,71.2500027179719,8|0,0:0|0:0,0:0:0:0:
495,158,228830,2,0,L|406:157,1,71.2500027179719,2|2,0:0|0:0,0:0:0:0:
62,141,228984,5,2,0:0:0:0:
121,178,229060,1,0,0:0:0:0:
154,240,229137,1,0,0:0:0:0:
151,311,229214,1,0,0:0:0:0:
114,371,229291,1,8,0:0:0:0:
156,325,229367,1,0,0:0:0:0:
213,300,229444,1,0,0:0:0:0:
275,301,229521,1,0,0:0:0:0:
331,326,229598,1,2,0:0:0:0:
406,307,229676,1,0,0:0:0:0:
456,248,229753,1,0,0:0:0:0:
465,171,229830,1,0,0:0:0:0:
429,103,229907,1,8,0:0:0:0:
360,66,229984,1,0,0:0:0:0:
284,73,230061,1,0,0:0:0:0:
240,135,230138,1,0,0:0:0:0:
167,164,230215,6,0,L|256:209,1,71.2500027179719,2|0,0:0|0:0,0:0:0:0:
511,365,230368,2,0,L|458:283,1,71.2500027179719,0|0,0:0|0:0,0:0:0:0:
316,0,230522,2,0,L|254:66,1,71.2500027179719,8|0,0:0|0:0,0:0:0:0:
23,269,230676,2,0,L|123:263,1,71.2500027179719,0|0,0:0|0:0,0:0:0:0:
485,249,230830,2,0,L|408:221,1,71.2500027179719,2|0,0:0|0:0,0:0:0:0:
97,86,230984,1,8,0:0:0:0:
97,86,231061,1,8,0:0:0:0:
97,86,231138,2,0,L|149:155,1,71.2500027179719,8|0,0:0|0:0,0:0:0:0:
342,369,231292,1,8,0:0:0:0:
342,369,231368,1,8,0:0:0:0:
342,369,231445,2,0,L|354:256,1,71.2500027179719,8|0,0:0|0:0,0:0:0:0:
386,27,231599,5,0,0:0:0:0:
91,246,231753,1,8,0:0:0:0:
508,216,231907,1,0,0:0:0:0:
151,19,232061,1,2,0:0:0:0:
256,368,232215,1,0,0:0:0:0:
94,26,232368,1,8,0:0:0:0:
506,123,232522,1,0,0:0:0:0:
79,254,232676,1,2,0:0:0:0:
336,0,232830,1,0,0:0:0:0:
397,369,232984,1,8,0:0:0:0:
497,15,233138,1,0,0:0:0:0:
0,34,233292,5,0,3:0:0:0:
23,113,233368,1,0,3:0:0:0:
32,195,233445,1,0,3:0:0:0:
28,277,233522,1,0,3:0:0:0:
14,358,233599,1,8,0:0:0:0:
377,333,233753,6,0,L|412:13,1,285.000010871888,2|2,0:0|0:0,0:0:0:0:
85,46,234215,5,8,0:0:0:0:
497,223,234368,1,2,0:0:0:0:
148,368,234522,5,8,0:0:0:0:
285,6,234676,1,2,0:0:0:0:
104,279,234830,6,0,L|89:106,1,142.500005435944,2|8,0:0|0:0,0:0:0:0:
416,47,235138,5,2,0:0:0:0:
4,224,235291,1,2,0:0:0:0:
353,369,235445,5,8,0:0:0:0:
216,7,235599,1,0,0:0:0:0:
471,265,235753,6,0,L|486:92,1,142.500005435944,2|2,0:0|0:0,0:0:0:0:
399,63,235984,1,8,0:0:0:0:
323,144,236061,1,8,0:0:0:0:
432,355,236215,6,0,L|129:367,1,285.000010871888,2|0,0:0|0:0,0:0:0:0:
2,371,236676,1,8,0:0:0:0:
234,163,236830,1,0,0:0:0:0:
151,351,236984,5,2,0:0:0:0:
12,118,237138,1,0,0:0:0:0:
280,203,237292,1,8,0:0:0:0:
26,250,237445,1,0,0:0:0:0:
205,45,237599,5,2,0:0:0:0:
16,282,237753,1,2,0:0:0:0:
311,227,237907,1,8,0:0:0:0:
11,94,238061,1,0,0:0:0:0:
185,352,238215,6,0,L|197:250,1,71.2500027179719,8|8,0:0|0:0,0:0:0:0:
221,16,238368,2,0,L|256:107,1,71.2500027179719,2|2,0:0|0:0,0:0:0:0:
345,304,238522,2,0,L|259:280,1,71.2500027179719,8|8,0:0|0:0,0:0:0:0:
2,216,238676,2,0,L|96:196,1,71.2500027179719,2|2,0:0|0:0,0:0:0:0:
366,129,238830,5,8,0:0:0:0:
234,348,238984,1,8,0:0:0:0:
158,75,239138,5,8,0:0:0:0:
444,185,239292,1,8,0:0:0:0:
156,326,239445,5,8,0:0:0:0:
215,0,239599,1,8,0:0:0:0:
438,280,239753,5,8,0:0:0:0:
37,280,239907,1,8,0:0:0:0:
329,134,240061,5,0,0:0:0:0:
231,355,240215,1,0,0:0:0:0:
65,103,240368,1,0,0:0:0:0:
343,299,240522,5,0,0:0:0:0:
197,33,240676,1,0,0:0:0:0:
100,300,240830,1,0,0:0:0:0:
407,124,240984,5,0,0:0:0:0:
9,177,241138,1,0,0:0:0:0:
256,192,241157,12,0,243599,0:0:0:0:
400,98,248522,5,2,0:0:0:0:
400,98,248599,1,2,0:0:0:0:
400,98,248676,1,8,0:0:0:0:
137,277,248830,1,2,0:0:0:0:
468,230,248984,5,8,0:0:0:0:
56,133,249138,1,2,0:0:0:0:
430,17,249292,5,8,0:0:0:0:
323,356,249445,1,2,0:0:0:0:
94,39,249599,1,2,0:0:0:0:
124,341,249753,5,8,0:0:0:0:
331,0,249907,1,2,0:0:0:0:
466,344,250061,1,2,0:0:0:0:
507,44,250215,6,0,L|425:80,1,71.2500027179719,2|2,0:0|0:0,0:0:0:0:
67,240,250368,2,0,L|149:204,1,71.2500027179719,2|2,0:0|0:0,0:0:0:0:
507,199,250522,5,8,0:0:0:0:
22,111,250676,1,8,0:0:0:0:
