osu file format v14

[General]
AudioFilename: audio.mp3
AudioLeadIn: 0
PreviewTime: 59543
Countdown: 1
SampleSet: Normal
StackLeniency: 0.7
Mode: 1
LetterboxInBreaks: 0
WidescreenStoryboard: 0

[Editor]
DistanceSpacing: 0.1
BeatDivisor: 4
GridSize: 32
TimelineZoom: 2.6

[Metadata]
Title:MIIRO
TitleUnicode:海色
Artist:AKINO from bless4
ArtistUnicode:AKINO from bless4
Creator:Unmei Muma
Version:Oni
Source:艦隊これくしょん -艦これ-
Tags:kancolle kantai collection op opening tv size
BeatmapID:1345109
BeatmapSetID:633835

[Difficulty]
HPDrainRate:7
CircleSize:2
OverallDifficulty:6.5
ApproachRate:10
SliderMultiplier:1.4
SliderTickRate:1

[Events]
//Background and Video events
0,0,"hibiki.png",0,0
//Break Periods
//Storyboard Layer 0 (Background)
//Storyboard Layer 1 (Fail)
//Storyboard Layer 2 (Pass)
//Storyboard Layer 3 (Foreground)
//Storyboard Sound Samples

[TimingPoints]
5082,307.692307692308,4,1,0,80,1,0
60466,-100,4,1,0,80,0,1
83851,-100,4,1,0,80,0,0

[HitObjects]
256,192,4928,5,0,0:0:0:0:
256,192,5005,1,0,0:0:0:0:
256,192,5082,1,8,0:0:0:0:
256,192,5389,1,0,0:0:0:0:
256,192,5697,1,8,0:0:0:0:
256,192,6005,1,0,0:0:0:0:
256,192,6158,1,0,0:0:0:0:
256,192,6312,1,8,0:0:0:0:
256,192,6620,1,0,0:0:0:0:
256,192,6774,1,8,0:0:0:0:
256,192,7082,1,0,0:0:0:0:
256,192,7235,1,8,0:0:0:0:
256,192,7543,1,0,0:0:0:0:
256,192,8005,1,8,0:0:0:0:
256,192,8466,1,0,0:0:0:0:
256,192,8774,1,0,0:0:0:0:
256,192,8928,1,8,0:0:0:0:
256,192,9082,1,0,0:0:0:0:
256,192,9235,1,0,0:0:0:0:
256,192,9389,1,8,0:0:0:0:
256,192,9543,1,0,0:0:0:0:
256,192,9697,1,0,0:0:0:0:
256,192,9851,1,8,0:0:0:0:
256,192,10005,1,0,0:0:0:0:
256,192,10158,1,0,0:0:0:0:
256,192,10312,1,8,0:0:0:0:
256,192,10466,1,0,0:0:0:0:
256,192,10620,1,0,0:0:0:0:
256,192,10774,1,8,0:0:0:0:
256,192,11082,1,4,0:0:0:0:
256,192,11389,1,0,0:0:0:0:
256,192,11543,1,8,0:0:0:0:
256,192,11851,1,0,0:0:0:0:
256,192,12005,1,0,0:0:0:0:
256,192,12158,1,8,0:0:0:0:
256,192,12312,1,8,0:0:0:0:
256,192,12389,1,8,0:0:0:0:
256,192,12466,1,0,0:0:0:0:
256,192,12620,1,0,0:0:0:0:
256,192,12774,1,8,0:0:0:0:
256,192,12928,1,8,0:0:0:0:
256,192,13005,1,8,0:0:0:0:
256,192,13082,1,0,0:0:0:0:
256,192,13235,1,0,0:0:0:0:
256,192,13312,1,0,0:0:0:0:
256,192,13389,1,8,0:0:0:0:
256,192,13543,1,4,0:0:0:0:
256,192,13851,1,0,0:0:0:0:
256,192,14005,1,8,0:0:0:0:
256,192,14158,1,0,0:0:0:0:
256,192,14312,1,0,0:0:0:0:
256,192,14389,1,0,0:0:0:0:
256,192,14466,1,0,0:0:0:0:
256,192,14620,1,8,0:0:0:0:
256,192,14774,1,0,0:0:0:0:
256,192,14851,1,8,0:0:0:0:
256,192,14928,1,0,0:0:0:0:
256,192,15082,1,0,0:0:0:0:
256,192,15235,1,8,0:0:0:0:
256,192,15389,1,0,0:0:0:0:
256,192,15543,1,8,0:0:0:0:
256,192,15620,1,8,0:0:0:0:
256,192,15697,1,0,0:0:0:0:
256,192,15774,1,0,0:0:0:0:
256,192,15851,1,8,0:0:0:0:
256,192,16005,1,4,0:0:0:0:
256,192,16312,1,0,0:0:0:0:
256,192,16466,1,8,0:0:0:0:
256,192,16620,1,8,0:0:0:0:
256,192,16697,1,8,0:0:0:0:
256,192,16774,1,0,0:0:0:0:
256,192,16928,1,0,0:0:0:0:
256,192,17082,1,8,0:0:0:0:
256,192,17235,1,0,0:0:0:0:
256,192,17543,1,0,0:0:0:0:
256,192,17697,1,8,0:0:0:0:
256,192,17851,1,8,0:0:0:0:
256,192,17928,1,8,0:0:0:0:
256,192,18005,1,0,0:0:0:0:
256,192,18082,1,0,0:0:0:0:
256,192,18158,1,8,0:0:0:0:
256,192,18312,1,8,0:0:0:0:
256,192,18466,1,0,0:0:0:0:
256,192,18543,1,0,0:0:0:0:
256,192,18620,1,8,0:0:0:0:
256,192,18774,1,0,0:0:0:0:
256,192,18851,1,0,0:0:0:0:
256,192,18928,1,8,0:0:0:0:
256,192,19082,1,0,0:0:0:0:
256,192,19158,1,0,0:0:0:0:
256,192,19235,1,8,0:0:0:0:
256,192,19312,1,0,0:0:0:0:
256,192,19389,1,8,0:0:0:0:
256,192,19543,1,0,0:0:0:0:
256,192,19697,1,8,0:0:0:0:
256,192,19851,1,8,0:0:0:0:
256,192,19928,1,0,0:0:0:0:
256,192,20005,1,0,0:0:0:0:
256,192,20082,1,0,0:0:0:0:
256,192,20158,1,8,0:0:0:0:
256,192,20312,1,0,0:0:0:0:
256,192,20466,1,12,0:0:0:0:
256,192,20620,1,12,0:0:0:0:
256,192,21082,1,0,0:0:0:0:
256,192,21389,1,0,0:0:0:0:
256,192,21543,1,0,0:0:0:0:
256,192,21851,1,0,0:0:0:0:
256,192,22158,1,8,0:0:0:0:
256,192,22312,1,0,0:0:0:0:
256,192,22774,1,0,0:0:0:0:
256,192,23235,1,8,0:0:0:0:
256,192,23389,1,8,0:0:0:0:
256,192,23543,1,0,0:0:0:0:
256,192,23851,1,0,0:0:0:0:
256,192,24005,1,0,0:0:0:0:
256,192,24312,1,0,0:0:0:0:
256,192,24620,1,0,0:0:0:0:
256,192,24928,1,8,0:0:0:0:
256,192,25235,1,0,0:0:0:0:
256,192,25697,1,8,0:0:0:0:
256,192,25851,1,8,0:0:0:0:
256,192,26312,1,0,0:0:0:0:
256,192,26620,1,0,0:0:0:0:
256,192,26928,1,0,0:0:0:0:
256,192,27082,1,8,0:0:0:0:
256,192,27389,1,0,0:0:0:0:
256,192,27697,1,8,0:0:0:0:
256,192,28158,1,0,0:0:0:0:
256,192,28312,1,8,0:0:0:0:
256,192,28620,1,0,0:0:0:0:
256,192,28928,1,8,0:0:0:0:
256,192,29389,1,0,0:0:0:0:
256,192,29543,1,8,0:0:0:0:
256,192,29697,1,8,0:0:0:0:
256,192,29902,1,8,0:0:0:0:
256,192,30107,1,8,0:0:0:0:
256,192,30312,1,0,0:0:0:0:
256,192,30517,1,0,0:0:0:0:
256,192,30723,1,0,0:0:0:0:
256,192,30928,1,4,0:0:0:0:
256,192,31082,1,0,0:0:0:0:
256,192,31235,1,8,0:0:0:0:
256,192,31389,1,8,0:0:0:0:
256,192,31466,1,8,0:0:0:0:
256,192,31543,1,0,0:0:0:0:
256,192,31697,1,0,0:0:0:0:
256,192,31851,1,8,0:0:0:0:
256,192,32005,1,8,0:0:0:0:
256,192,32082,1,8,0:0:0:0:
256,192,32158,1,8,0:0:0:0:
256,192,32312,1,0,0:0:0:0:
256,192,32466,1,8,0:0:0:0:
256,192,32620,1,0,0:0:0:0:
256,192,32697,1,8,0:0:0:0:
256,192,32774,1,0,0:0:0:0:
256,192,32928,1,0,0:0:0:0:
256,192,33082,1,8,0:0:0:0:
256,192,33235,1,0,0:0:0:0:
256,192,33543,1,0,0:0:0:0:
256,192,33697,1,8,0:0:0:0:
256,192,33851,1,0,0:0:0:0:
256,192,34005,1,0,0:0:0:0:
256,192,34082,1,0,0:0:0:0:
256,192,34158,1,0,0:0:0:0:
256,192,34312,1,8,0:0:0:0:
256,192,34466,1,0,0:0:0:0:
256,192,34774,1,0,0:0:0:0:
256,192,34928,1,8,0:0:0:0:
256,192,35082,1,0,0:0:0:0:
256,192,35158,1,0,0:0:0:0:
256,192,35235,1,0,0:0:0:0:
256,192,35389,1,0,0:0:0:0:
256,192,35543,1,8,0:0:0:0:
256,192,35620,1,0,0:0:0:0:
256,192,35697,1,8,0:0:0:0:
256,192,35774,1,8,0:0:0:0:
256,192,35851,1,0,0:0:0:0:
256,192,36005,1,0,0:0:0:0:
256,192,36158,1,8,0:0:0:0:
256,192,36466,1,0,0:0:0:0:
256,192,36620,1,0,0:0:0:0:
256,192,36774,1,8,0:0:0:0:
256,192,36851,1,8,0:0:0:0:
256,192,36928,1,0,0:0:0:0:
256,192,37005,1,0,0:0:0:0:
256,192,37082,1,0,0:0:0:0:
256,192,37235,1,0,0:0:0:0:
256,192,37389,1,8,0:0:0:0:
256,192,37543,1,0,0:0:0:0:
256,192,37620,1,8,0:0:0:0:
256,192,37697,1,0,0:0:0:0:
256,192,37774,1,0,0:0:0:0:
256,192,37851,1,0,0:0:0:0:
256,192,38005,1,8,0:0:0:0:
256,192,38158,1,8,0:0:0:0:
256,192,38312,1,4,0:0:0:0:
256,192,38620,1,8,0:0:0:0:
256,192,38928,1,0,0:0:0:0:
256,192,39082,1,0,0:0:0:0:
256,192,39158,1,0,0:0:0:0:
256,192,39235,1,0,0:0:0:0:
256,192,39312,1,0,0:0:0:0:
256,192,39389,1,8,0:0:0:0:
256,192,39543,1,0,0:0:0:0:
256,192,39697,1,8,0:0:0:0:
256,192,39851,1,0,0:0:0:0:
256,192,40005,1,8,0:0:0:0:
256,192,40082,1,8,0:0:0:0:
256,192,40158,1,0,0:0:0:0:
256,192,40312,1,8,0:0:0:0:
256,192,40389,1,0,0:0:0:0:
256,192,40466,1,8,0:0:0:0:
256,192,40543,1,8,0:0:0:0:
256,192,40620,1,0,0:0:0:0:
256,192,40697,1,8,0:0:0:0:
256,192,40774,1,0,0:0:0:0:
256,192,41389,1,0,0:0:0:0:
256,192,42005,1,8,0:0:0:0:
256,192,42466,1,8,0:0:0:0:
256,192,42928,1,0,0:0:0:0:
256,192,43235,1,8,0:0:0:0:
256,192,43543,1,0,0:0:0:0:
256,192,43697,1,8,0:0:0:0:
256,192,44158,1,0,0:0:0:0:
256,192,44466,1,8,0:0:0:0:
256,192,44774,1,0,0:0:0:0:
256,192,44928,1,8,0:0:0:0:
256,192,45389,1,8,0:0:0:0:
256,192,46005,1,8,0:0:0:0:
256,192,46312,1,0,0:0:0:0:
256,192,46620,1,0,0:0:0:0:
256,192,46928,1,8,0:0:0:0:
256,192,47235,1,0,0:0:0:0:
256,192,47389,1,8,0:0:0:0:
256,192,47697,1,0,0:0:0:0:
256,192,47851,1,0,0:0:0:0:
256,192,48158,1,8,0:0:0:0:
256,192,48466,1,0,0:0:0:0:
256,192,48620,1,8,0:0:0:0:
256,192,48928,1,8,0:0:0:0:
256,192,49082,1,0,0:0:0:0:
256,192,49389,1,8,0:0:0:0:
256,192,49697,1,0,0:0:0:0:
256,192,49851,1,8,0:0:0:0:
256,192,50158,1,8,0:0:0:0:
256,192,50312,1,0,0:0:0:0:
256,192,50620,1,8,0:0:0:0:
256,192,50774,1,8,0:0:0:0:
256,192,50928,1,0,0:0:0:0:
256,192,51005,1,0,0:0:0:0:
256,192,51082,1,0,0:0:0:0:
256,192,51235,1,8,0:0:0:0:
256,192,51543,1,0,0:0:0:0:
256,192,51697,1,0,0:0:0:0:
256,192,51851,1,8,0:0:0:0:
256,192,51928,1,8,0:0:0:0:
256,192,52005,1,8,0:0:0:0:
256,192,52158,1,0,0:0:0:0:
256,192,52466,1,8,0:0:0:0:
256,192,52620,1,0,0:0:0:0:
256,192,52928,1,8,0:0:0:0:
256,192,53082,1,0,0:0:0:0:
256,192,53235,1,0,0:0:0:0:
256,192,53389,1,8,0:0:0:0:
256,192,53466,1,8,0:0:0:0:
256,192,53543,1,8,0:0:0:0:
256,192,53697,1,8,0:0:0:0:
256,192,54005,1,0,0:0:0:0:
256,192,54158,1,0,0:0:0:0:
256,192,54312,1,0,0:0:0:0:
256,192,54389,1,0,0:0:0:0:
256,192,54466,1,8,0:0:0:0:
256,192,54620,1,8,0:0:0:0:
256,192,54928,1,8,0:0:0:0:
256,192,55082,1,0,0:0:0:0:
256,192,55389,1,0,0:0:0:0:
256,192,55543,1,8,0:0:0:0:
256,192,55697,1,0,0:0:0:0:
256,192,55851,1,0,0:0:0:0:
256,192,56005,1,0,0:0:0:0:
256,192,56158,1,8,0:0:0:0:
256,192,56312,1,0,0:0:0:0:
256,192,56466,1,0,0:0:0:0:
256,192,56620,1,0,0:0:0:0:
256,192,56774,1,8,0:0:0:0:
256,192,56928,1,0,0:0:0:0:
256,192,57082,1,0,0:0:0:0:
256,192,57235,1,0,0:0:0:0:
256,192,57389,1,8,0:0:0:0:
256,192,57543,1,0,0:0:0:0:
256,192,57851,1,0,0:0:0:0:
256,192,58005,1,8,0:0:0:0:
256,192,58312,1,8,0:0:0:0:
256,192,58466,1,8,0:0:0:0:
256,192,58620,1,0,0:0:0:0:
256,192,58697,1,0,0:0:0:0:
256,192,58774,1,0,0:0:0:0:
256,192,58928,1,0,0:0:0:0:
256,192,59082,1,8,0:0:0:0:
256,192,60312,1,8,0:0:0:0:
256,192,60466,1,4,0:0:0:0:
256,192,60620,1,0,0:0:0:0:
256,192,60697,1,0,0:0:0:0:
256,192,60774,1,8,0:0:0:0:
256,192,60928,1,0,0:0:0:0:
256,192,61082,1,0,0:0:0:0:
256,192,61158,1,0,0:0:0:0:
256,192,61235,1,0,0:0:0:0:
256,192,61389,1,8,0:0:0:0:
256,192,61543,1,0,0:0:0:0:
256,192,61697,1,0,0:0:0:0:
256,192,61774,1,0,0:0:0:0:
256,192,61851,1,0,0:0:0:0:
256,192,62005,1,8,0:0:0:0:
256,192,62158,1,0,0:0:0:0:
256,192,62235,1,0,0:0:0:0:
256,192,62312,1,8,0:0:0:0:
256,192,62389,1,8,0:0:0:0:
256,192,62466,1,0,0:0:0:0:
256,192,62620,1,8,0:0:0:0:
256,192,62774,1,8,0:0:0:0:
256,192,62851,1,8,0:0:0:0:
256,192,62928,1,0,0:0:0:0:
256,192,63082,1,0,0:0:0:0:
256,192,63235,1,8,0:0:0:0:
256,192,63389,1,0,0:0:0:0:
256,192,63543,1,0,0:0:0:0:
256,192,63620,1,0,0:0:0:0:
256,192,63697,1,0,0:0:0:0:
256,192,63774,1,0,0:0:0:0:
256,192,63851,1,8,0:0:0:0:
256,192,64005,1,0,0:0:0:0:
256,192,64312,1,0,0:0:0:0:
256,192,64466,1,8,0:0:0:0:
256,192,64620,1,0,0:0:0:0:
256,192,64697,1,0,0:0:0:0:
256,192,64774,1,0,0:0:0:0:
256,192,64928,1,0,0:0:0:0:
256,192,65082,1,8,0:0:0:0:
256,192,65158,1,0,0:0:0:0:
256,192,65235,1,8,0:0:0:0:
256,192,65312,1,8,0:0:0:0:
256,192,65389,1,0,0:0:0:0:
256,192,65543,1,8,0:0:0:0:
256,192,65697,1,0,0:0:0:0:
256,192,65774,1,0,0:0:0:0:
256,192,65851,1,8,0:0:0:0:
256,192,66005,1,0,0:0:0:0:
256,192,66312,1,8,0:0:0:0:
256,192,66466,1,0,0:0:0:0:
256,192,66620,1,0,0:0:0:0:
256,192,66774,1,0,0:0:0:0:
256,192,66851,1,0,0:0:0:0:
256,192,66928,1,8,0:0:0:0:
256,192,67082,1,0,0:0:0:0:
256,192,67235,1,0,0:0:0:0:
256,192,67312,1,0,0:0:0:0:
256,192,67389,1,0,0:0:0:0:
256,192,67466,1,0,0:0:0:0:
256,192,67543,1,8,0:0:0:0:
256,192,67620,1,8,0:0:0:0:
256,192,67697,1,8,0:0:0:0:
256,192,67851,1,8,0:0:0:0:
256,192,68005,1,0,0:0:0:0:
256,192,68158,1,8,0:0:0:0:
256,192,68466,1,0,0:0:0:0:
256,192,68774,1,8,0:0:0:0:
256,192,68928,1,0,0:0:0:0:
256,192,69082,1,0,0:0:0:0:
256,192,69389,1,8,0:0:0:0:
256,192,69697,1,0,0:0:0:0:
256,192,69851,1,0,0:0:0:0:
256,192,69928,1,0,0:0:0:0:
256,192,70005,1,8,0:0:0:0:
256,192,70158,1,0,0:0:0:0:
256,192,70235,1,8,0:0:0:0:
256,192,70312,1,0,0:0:0:0:
256,192,70466,1,0,0:0:0:0:
256,192,70620,1,8,0:0:0:0:
256,192,70774,1,0,0:0:0:0:
256,192,71082,1,0,0:0:0:0:
256,192,71158,1,0,0:0:0:0:
256,192,71235,1,8,0:0:0:0:
256,192,71389,1,0,0:0:0:0:
256,192,71543,1,0,0:0:0:0:
256,192,71620,1,0,0:0:0:0:
256,192,71697,1,0,0:0:0:0:
256,192,71851,1,8,0:0:0:0:
256,192,72005,1,8,0:0:0:0:
256,192,72158,1,0,0:0:0:0:
256,192,72235,1,0,0:0:0:0:
256,192,72312,1,8,0:0:0:0:
256,192,72389,1,8,0:0:0:0:
256,192,72466,1,8,0:0:0:0:
256,192,72620,1,8,0:0:0:0:
256,192,72774,1,0,0:0:0:0:
256,192,72851,1,0,0:0:0:0:
256,192,72928,1,0,0:0:0:0:
256,192,73082,1,8,0:0:0:0:
256,192,73235,1,0,0:0:0:0:
256,192,73389,1,8,0:0:0:0:
256,192,73466,1,8,0:0:0:0:
256,192,73543,1,0,0:0:0:0:
256,192,73620,1,0,0:0:0:0:
256,192,73697,1,8,0:0:0:0:
256,192,73851,1,0,0:0:0:0:
256,192,74158,1,0,0:0:0:0:
256,192,74312,1,8,0:0:0:0:
256,192,74466,1,0,0:0:0:0:
256,192,74543,1,0,0:0:0:0:
256,192,74620,1,0,0:0:0:0:
256,192,74774,1,0,0:0:0:0:
256,192,74928,1,8,0:0:0:0:
256,192,75082,1,8,0:0:0:0:
256,192,75158,1,8,0:0:0:0:
256,192,75235,1,0,0:0:0:0:
256,192,75389,1,0,0:0:0:0:
256,192,75543,1,8,0:0:0:0:
256,192,75697,1,0,0:0:0:0:
256,192,75851,1,0,0:0:0:0:
256,192,76158,1,8,0:0:0:0:
256,192,76312,1,0,0:0:0:0:
256,192,76466,1,0,0:0:0:0:
256,192,76620,1,0,0:0:0:0:
256,192,76697,1,0,0:0:0:0:
256,192,76774,1,8,0:0:0:0:
256,192,76928,1,0,0:0:0:0:
256,192,77082,1,0,0:0:0:0:
256,192,77158,1,0,0:0:0:0:
256,192,77235,1,0,0:0:0:0:
256,192,77312,1,0,0:0:0:0:
256,192,77389,1,8,0:0:0:0:
256,192,77466,1,8,0:0:0:0:
256,192,77543,1,8,0:0:0:0:
256,192,77697,1,8,0:0:0:0:
256,192,77851,1,0,0:0:0:0:
256,192,78005,1,8,0:0:0:0:
256,192,78312,1,8,0:0:0:0:
256,192,78620,1,8,0:0:0:0:
256,192,78774,1,8,0:0:0:0:
256,192,78928,1,0,0:0:0:0:
256,192,79235,1,8,0:0:0:0:
256,192,79543,1,0,0:0:0:0:
256,192,79697,1,0,0:0:0:0:
256,192,79774,1,0,0:0:0:0:
256,192,79851,1,8,0:0:0:0:
256,192,80005,1,0,0:0:0:0:
256,192,80312,1,0,0:0:0:0:
256,192,80466,1,8,0:0:0:0:
256,192,80774,1,0,0:0:0:0:
256,192,80928,1,0,0:0:0:0:
256,192,81005,1,0,0:0:0:0:
256,192,81082,1,8,0:0:0:0:
256,192,81235,1,0,0:0:0:0:
256,192,81389,1,8,0:0:0:0:
256,192,81466,1,8,0:0:0:0:
256,192,81543,1,0,0:0:0:0:
256,192,81620,1,0,0:0:0:0:
256,192,81697,1,8,0:0:0:0:
256,192,81851,1,0,0:0:0:0:
256,192,81928,1,0,0:0:0:0:
256,192,82005,1,0,0:0:0:0:
256,192,82158,1,0,0:0:0:0:
256,192,82312,1,8,0:0:0:0:
256,192,82466,1,0,0:0:0:0:
256,192,82543,1,8,0:0:0:0:
256,192,82620,1,0,0:0:0:0:
256,192,82774,1,0,0:0:0:0:
256,192,82851,1,0,0:0:0:0:
256,192,82928,1,8,0:0:0:0:
256,192,83082,1,0,0:0:0:0:
256,192,83235,1,0,0:0:0:0:
256,192,83312,1,0,0:0:0:0:
256,192,83389,1,8,0:0:0:0:
256,192,83543,1,8,0:0:0:0:
256,192,83697,1,8,0:0:0:0:
256,192,84928,1,4,0:0:0:0:
256,192,85235,1,0,0:0:0:0:
256,192,85389,1,8,0:0:0:0:
256,192,85697,1,0,0:0:0:0:
256,192,85851,1,0,0:0:0:0:
256,192,85928,1,0,0:0:0:0:
256,192,86005,1,8,0:0:0:0:
256,192,86158,1,0,0:0:0:0:
256,192,86312,1,8,0:0:0:0:
256,192,86389,1,8,0:0:0:0:
256,192,86466,1,0,0:0:0:0:
256,192,86543,1,0,0:0:0:0:
256,192,86620,1,8,0:0:0:0:
256,192,86774,1,0,0:0:0:0:
256,192,86851,1,0,0:0:0:0:
256,192,86928,1,0,0:0:0:0:
256,192,87082,1,0,0:0:0:0:
256,192,87235,1,8,0:0:0:0:
256,192,87389,1,4,0:0:0:0:
256,192,87697,1,0,0:0:0:0:
256,192,87851,1,8,0:0:0:0:
256,192,88158,1,0,0:0:0:0:
256,192,88235,1,0,0:0:0:0:
256,192,88312,1,0,0:0:0:0:
256,192,88466,1,8,0:0:0:0:
256,192,88620,1,0,0:0:0:0:
256,192,88774,1,0,0:0:0:0:
256,192,88928,1,0,0:0:0:0:
256,192,89005,1,0,0:0:0:0:
256,192,89082,1,8,0:0:0:0:
256,192,89235,1,0,0:0:0:0:
256,192,89389,1,0,0:0:0:0:
256,192,89466,1,0,0:0:0:0:
256,192,89543,1,0,0:0:0:0:
256,192,89620,1,0,0:0:0:0:
256,192,89697,1,8,0:0:0:0:
256,192,89851,1,0,0:0:0:0:
256,192,90005,1,0,0:0:0:0:
256,192,90158,1,0,0:0:0:0:
256,192,90235,1,0,0:0:0:0:
256,192,90312,1,8,0:0:0:0:
256,192,90466,1,0,0:0:0:0:
256,192,90543,1,0,0:0:0:0:
256,192,90620,1,8,0:0:0:0:
256,192,90774,1,0,0:0:0:0:
256,192,90928,1,8,0:0:0:0:
256,192,91082,1,8,0:0:0:0:
256,192,91158,1,8,0:0:0:0:
256,192,91235,1,8,0:0:0:0:
256,192,91389,1,0,0:0:0:0:
256,192,91543,1,8,0:0:0:0:
256,192,91697,1,0,0:0:0:0:
256,192,91851,1,12,0:0:0:0:
256,192,92005,1,12,0:0:0:0:
