osu file format v14

[General]
AudioFilename: audio.mp3
AudioLeadIn: 0
PreviewTime: 59543
Countdown: 1
SampleSet: Normal
StackLeniency: 0.7
Mode: 1
LetterboxInBreaks: 0
WidescreenStoryboard: 1

[Editor]
DistanceSpacing: 0.1
BeatDivisor: 2
GridSize: 32
TimelineZoom: 0.5999999

[Metadata]
Title:MIIRO
TitleUnicode:海色
Artist:AKINO from bless4
ArtistUnicode:AKINO from bless4
Creator:Unmei Muma
Version:Kantan
Source:艦隊これくしょん -艦これ-
Tags:kancolle kantai collection op opening tv size
BeatmapID:1345107
BeatmapSetID:633835

[Difficulty]
HPDrainRate:7
CircleSize:2
OverallDifficulty:3.5
ApproachRate:10
SliderMultiplier:1.4
SliderTickRate:1

[Events]
//Background and Video events
0,0,"hibiki.png",0,0
//Break Periods
//Storyboard Layer 0 (Background)
//Storyboard Layer 1 (Fail)
//Storyboard Layer 2 (Pass)
//Storyboard Layer 3 (Foreground)
//Storyboard Sound Samples

[TimingPoints]
5082,307.692307692308,4,1,0,80,1,0
60466,-100,4,1,0,80,0,1
83851,-100,4,1,0,80,0,0

[HitObjects]
256,192,5082,5,0,0:0:0:0:
256,192,6312,1,0,0:0:0:0:
256,192,7543,1,0,0:0:0:0:
256,192,8005,1,0,0:0:0:0:
256,192,8466,1,0,0:0:0:0:
256,192,11082,1,4,0:0:0:0:
256,192,11851,1,0,0:0:0:0:
256,192,12158,1,0,0:0:0:0:
256,192,12466,1,0,0:0:0:0:
256,192,13082,1,0,0:0:0:0:
256,192,13543,1,0,0:0:0:0:
256,192,14312,1,8,0:0:0:0:
256,192,14620,1,8,0:0:0:0:
256,192,14928,1,8,0:0:0:0:
256,192,15543,1,8,0:0:0:0:
256,192,16005,1,8,0:0:0:0:
256,192,16774,1,0,0:0:0:0:
256,192,17082,1,0,0:0:0:0:
256,192,17389,1,0,0:0:0:0:
256,192,18005,1,0,0:0:0:0:
256,192,18620,1,8,0:0:0:0:
256,192,18928,1,8,0:0:0:0:
256,192,19389,1,8,0:0:0:0:
256,192,19851,1,8,0:0:0:0:
256,192,20466,1,12,0:0:0:0:
256,192,21082,1,0,0:0:0:0:
256,192,23543,1,0,0:0:0:0:
256,192,26005,1,0,0:0:0:0:
256,192,28466,1,0,0:0:0:0:
256,192,29697,1,0,0:0:0:0:
256,192,30928,1,4,0:0:0:0:
256,192,31543,1,0,0:0:0:0:
256,192,31851,1,0,0:0:0:0:
256,192,32158,1,0,0:0:0:0:
256,192,32774,1,8,0:0:0:0:
256,192,33389,1,0,0:0:0:0:
256,192,33697,1,0,0:0:0:0:
256,192,34005,1,0,0:0:0:0:
256,192,34620,1,8,0:0:0:0:
256,192,35235,1,8,0:0:0:0:
256,192,35851,1,0,0:0:0:0:
256,192,36466,1,8,0:0:0:0:
256,192,36774,1,8,0:0:0:0:
256,192,37082,1,8,0:0:0:0:
256,192,37697,1,0,0:0:0:0:
256,192,38312,1,12,0:0:0:0:
256,192,39389,1,8,0:0:0:0:
256,192,39697,1,8,0:0:0:0:
256,192,40005,1,8,0:0:0:0:
256,192,40774,1,0,0:0:0:0:
256,192,43235,1,8,0:0:0:0:
256,192,45697,1,0,0:0:0:0:
256,192,48158,1,8,0:0:0:0:
256,192,49389,1,8,0:0:0:0:
256,192,50620,1,0,0:0:0:0:
256,192,50928,1,0,0:0:0:0:
256,192,51235,1,0,0:0:0:0:
256,192,51851,1,8,0:0:0:0:
256,192,52466,1,8,0:0:0:0:
256,192,53082,1,0,0:0:0:0:
256,192,53389,1,0,0:0:0:0:
256,192,53697,1,0,0:0:0:0:
256,192,54312,1,8,0:0:0:0:
256,192,54928,1,8,0:0:0:0:
256,192,55543,1,0,0:0:0:0:
256,192,56158,1,0,0:0:0:0:
256,192,56466,1,0,0:0:0:0:
256,192,56774,1,0,0:0:0:0:
256,192,57389,1,8,0:0:0:0:
256,192,57697,1,8,0:0:0:0:
256,192,58005,1,8,0:0:0:0:
256,192,59082,1,8,0:0:0:0:
256,192,60466,1,4,0:0:0:0:
256,192,61082,1,8,0:0:0:0:
256,192,61389,1,8,0:0:0:0:
256,192,61697,1,8,0:0:0:0:
256,192,62312,1,0,0:0:0:0:
256,192,62928,1,8,0:0:0:0:
256,192,63543,1,0,0:0:0:0:
256,192,63851,1,0,0:0:0:0:
256,192,64158,1,0,0:0:0:0:
256,192,64774,1,8,0:0:0:0:
256,192,65082,1,8,0:0:0:0:
256,192,65389,1,8,0:0:0:0:
256,192,66005,1,0,0:0:0:0:
256,192,66312,1,0,0:0:0:0:
256,192,66620,1,0,0:0:0:0:
256,192,66928,1,0,0:0:0:0:
256,192,67235,1,0,0:0:0:0:
256,192,67697,1,8,0:0:0:0:
256,192,68158,1,8,0:0:0:0:
256,192,68774,1,0,0:0:0:0:
256,192,69082,1,0,0:0:0:0:
256,192,69697,1,0,0:0:0:0:
256,192,70312,1,0,0:0:0:0:
256,192,70928,1,8,0:0:0:0:
256,192,71235,1,8,0:0:0:0:
256,192,71543,1,8,0:0:0:0:
256,192,72158,1,0,0:0:0:0:
256,192,72774,1,0,0:0:0:0:
256,192,73082,1,0,0:0:0:0:
256,192,73389,1,0,0:0:0:0:
256,192,74005,1,8,0:0:0:0:
256,192,74620,1,8,0:0:0:0:
256,192,74928,1,8,0:0:0:0:
256,192,75235,1,8,0:0:0:0:
256,192,75851,1,0,0:0:0:0:
256,192,76158,1,0,0:0:0:0:
256,192,76466,1,0,0:0:0:0:
256,192,76774,1,0,0:0:0:0:
256,192,77082,1,0,0:0:0:0:
256,192,77543,1,8,0:0:0:0:
256,192,78005,1,8,0:0:0:0:
256,192,78620,1,0,0:0:0:0:
256,192,78928,1,0,0:0:0:0:
256,192,79543,1,0,0:0:0:0:
256,192,80005,1,0,0:0:0:0:
256,192,80774,1,8,0:0:0:0:
256,192,81082,1,8,0:0:0:0:
256,192,81389,1,8,0:0:0:0:
256,192,82005,1,8,0:0:0:0:
256,192,82620,1,0,0:0:0:0:
256,192,83082,1,0,0:0:0:0:
256,192,83543,1,0,0:0:0:0:
256,192,84928,1,4,0:0:0:0:
256,192,85697,1,0,0:0:0:0:
256,192,86005,1,0,0:0:0:0:
256,192,86312,1,0,0:0:0:0:
256,192,86928,1,0,0:0:0:0:
256,192,87389,1,0,0:0:0:0:
256,192,88158,1,8,0:0:0:0:
256,192,88466,1,8,0:0:0:0:
256,192,88774,1,8,0:0:0:0:
256,192,89389,1,8,0:0:0:0:
256,192,90004,1,8,0:0:0:0:
256,192,90620,1,8,0:0:0:0:
256,192,91082,1,8,0:0:0:0:
256,192,91543,1,8,0:0:0:0:
256,192,91851,1,12,0:0:0:0:
