osu file format v14

[General]
AudioFilename: audio.mp3
AudioLeadIn: 0
PreviewTime: 55859
Countdown: 0
SampleSet: Soft
StackLeniency: 0.2
Mode: 0
LetterboxInBreaks: 0
WidescreenStoryboard: 1

[Editor]
Bookmarks: 60090
DistanceSpacing: 1.1
BeatDivisor: 4
GridSize: 32
TimelineZoom: 1

[Metadata]
Title:MIIRO (TV Size)
TitleUnicode:海色 (TV Size)
Artist:AKINO from bless4
ArtistUnicode:AKINO from bless4
Creator:lapp
Version:Sparhten's Insane
Source:艦隊これくしょん -艦これ-
Tags:みいろ openみいろ opみいろ opening kaみいろ opening kantai collection kancolle japanese female vocalist anime j-rock jrock rock nevo sparhten killian tachibana_ tachi Ryxliee wanpachi xandit bokeru
BeatmapID:3782267
BeatmapSetID:1783234

[Difficulty]
HPDrainRate:5
CircleSize:3
OverallDifficulty:8
ApproachRate:9
SliderMultiplier:1.69
SliderTickRate:1

[Events]
//Background and Video events
0,0,"Paulbg.jpg",0,0
//Break Periods
//Storyboard Layer 0 (Background)
//Storyboard Layer 1 (Fail)
//Storyboard Layer 2 (Pass)
//Storyboard Layer 3 (Foreground)
//Storyboard Layer 4 (Overlay)
//Storyboard Sound Samples

[TimingPoints]
1299,307.692307692308,4,2,1,50,1,0
1299,-144.927536231884,4,2,1,50,0,0
1453,307.692307692308,4,2,1,50,1,0
1453,-144.927536231884,4,2,1,50,0,0
6991,-59.1715976331361,4,2,1,50,0,0
7453,-59.1715976331361,4,2,1,85,0,0
7914,-77.5193798449612,4,2,1,85,0,0
11991,-77.5193798449612,4,2,1,5,0,0
12068,-77.5193798449612,4,2,1,85,0,0
12299,-77.5193798449612,4,2,1,5,0,0
12376,-77.5193798449612,4,2,1,85,0,0
17452,-112.359550561798,4,2,1,60,0,0
27298,-77.5193798449614,4,2,1,70,0,0
37145,-77.5193798449614,4,2,1,60,0,0
42068,-526.315789473684,4,2,1,60,0,0
46991,-101.010101010101,4,2,1,70,0,0
53760,-91.743119266055,4,2,1,70,0,0
56837,-71.9424460431655,4,2,1,85,0,0
80222,-71.9424460431655,4,2,1,50,0,0
81299,-71.9424460431655,4,2,1,85,0,0

[Colours]
Combo1 : 230,230,230
Combo2 : 255,255,191
Combo3 : 201,199,199
Combo4 : 255,207,185

[HitObjects]
76,55,1299,6,0,L|67:106,2,29.1525000444832,2|2|2,0:0|0:0|0:0,0:0:0:0:
26,200,1760,5,2,0:0:0:0:
26,200,2068,2,0,B|51:182|51:182|93:196,1,58.3050000889664,2|0,0:0|0:0,0:0:0:0:
143,249,2375,1,2,0:0:0:0:
147,257,2529,1,2,0:0:0:0:
193,312,2683,2,0,P|149:300|68:284,1,116.610000177933,2|0,0:0|0:0,0:0:0:0:
235,235,3145,2,0,P|269:197|329:220,1,116.610000177933,2|0,0:0|0:0,0:0:0:0:
299,296,3606,1,2,0:0:0:0:
471,344,3914,6,0,B|493:319|493:319|477:218,1,116.610000177933,2|0,0:0|0:0,0:0:0:0:
448,143,4375,2,0,L|435:268,1,116.610000177933,2|0,0:0|0:0,0:0:0:0:
424,285,4837,1,2,0:0:0:0:
271,349,5145,5,2,0:0:0:0:
181,259,5299,2,0,L|199:180,1,58.3050000889664
277,335,5606,1,2,0:0:0:0:
181,259,5760,2,0,L|199:180,1,58.3050000889664
284,325,6068,1,2,0:0:0:0:
180,259,6222,2,0,L|198:180,1,58.3050000889664
291,317,6529,1,2,0:0:0:0:
180,259,6683,2,0,L|198:180,1,58.3050000889664
263,152,6991,2,0,B|212:54|95:137|176:125|64:215|-2:101,1,285.610005338627,2|0,0:0|0:0,0:0:0:0:
5,177,7452,6,0,P|120:141|306:104,1,285.610005338627,4|0,1:0|1:2,0:0:0:0:
491,27,7914,6,0,B|511:68|511:68|474:160,1,109.005001663284,10|0,0:0|0:0,0:0:0:0:
403,200,8222,2,0,P|366:155|411:103,1,109.005001663284,2|0,1:2|1:2,0:0:0:0:
486,333,8529,2,0,P|438:286|377:316,1,109.005001663284,10|0,0:0|0:0,0:0:0:0:
212,363,8837,5,2,1:2:0:0:
384,303,8991,1,0,1:2:0:0:
237,348,9145,5,10,0:0:0:0:
194,259,9298,2,0,B|167:221|167:221|192:141,1,109.005001663284,2|0,0:0|1:2,0:0:0:0:
306,94,9606,2,0,L|268:218,1,109.005001663284,2|8,1:2|0:0,0:0:0:0:
31,336,9914,2,0,L|100:128,1,218.010003326569,6|0,1:2|1:2,0:0:0:0:
212,42,10375,5,8,0:0:0:0:
208,32,10529,1,0,0:0:0:0:
37,63,10683,2,0,L|69:183,1,109.005001663284,0|0,1:2|1:2,0:2:0:0:
263,265,10991,5,8,0:0:0:0:
138,208,11145,1,2,0:0:0:0:
77,364,11298,5,2,1:2:0:0:
178,285,11452,1,2,1:2:0:0:
72,275,11606,5,10,0:0:0:0:
219,371,11760,2,0,B|280:344|280:344|309:351|309:351|388:325,1,163.507502494926,2|0,0:0|0:0,0:0:0:0:
482,269,12068,2,0,P|411:286|355:217,1,163.507502494926,2|0,1:2|0:0,0:0:0:0:
306,127,12375,2,0,P|400:57|472:115,1,218.010003326569,6|2,1:2|1:2,0:0:0:0:
391,151,12837,5,10,0:0:0:0:
209,99,12991,1,0,0:0:0:0:
26,176,13145,5,0,1:2:0:0:
128,136,13298,1,2,1:2:0:0:
59,61,13452,5,10,0:0:0:0:
69,48,13606,1,0,0:0:0:0:
264,29,13760,5,2,1:2:0:0:
231,109,13914,1,0,1:2:0:0:
207,193,14068,1,10,0:0:0:0:
63,316,14222,2,0,P|111:280|169:308,1,109.005001663284,2|0,0:0|1:2,0:0:0:0:
197,209,14529,2,0,P|250:235|252:299,1,109.005001663284,2|8,1:2|0:0,0:0:0:0:
322,384,14837,1,2,1:2:0:0:
322,384,14914,1,0,1:2:0:0:
322,384,14991,2,0,P|253:371|188:371,1,109.005001663284,12|2,0:0|1:2,0:0:0:0:
440,313,15298,5,10,0:0:0:0:
345,251,15452,1,2,1:2:0:0:
512,154,15606,5,8,0:0:0:0:
418,202,15760,2,0,P|427:149|434:88,1,109.005001663284,8|2,0:0|1:2,0:0:0:0:
183,16,16068,5,10,0:0:0:0:
291,133,16222,2,0,P|256:94|275:46,1,109.005001663284,10|2,0:0|1:2,0:0:0:0:
493,36,16529,2,0,P|461:-2|391:23,1,109.005001663284,10|4,0:0|0:3,0:0:0:0:
410,13,16760,1,0,1:2:0:0:
414,21,16837,5,14,0:0:0:0:
280,153,16991,1,10,0:0:0:0:
16,245,17452,6,0,P|77:233|176:236,1,150.410000114754,2|2,0:0|0:0,0:0:0:0:
61,321,17914,2,0,P|112:314|153:317,1,75.2050000573769,2|0,0:0|0:0,0:0:0:0:
197,377,18222,1,2,0:0:0:0:
512,339,18529,2,0,B|450:374|379:307|441:322|361:244|300:296,1,225.615000172131,2|0,0:0|0:0,0:0:0:0:
311,288,19606,1,2,0:0:0:0:
311,288,19760,1,2,0:0:0:0:
419,231,19914,2,0,L|407:131,1,75.2050000573769,2|0,0:0|0:0,0:0:0:0:
474,85,20222,1,2,0:0:0:0:
311,74,20375,2,0,L|319:148,1,75.2050000573769,2|0,0:0|0:0,0:0:0:0:
419,231,20683,2,0,L|407:131,1,75.2050000573769,2|0,0:0|0:0,0:0:0:0:
485,76,20991,5,2,0:0:0:0:
68,284,21298,1,2,0:0:0:0:
449,335,21606,1,2,0:0:0:0:
311,273,22068,5,2,0:0:0:0:
182,350,22222,1,2,0:0:0:0:
235,287,22683,6,0,P|319:303|407:329,1,150.410000114754,2|2,0:0|0:0,0:0:0:0:
193,104,23298,1,2,0:0:0:0:
147,178,23452,2,0,P|76:194|-20:213,1,150.410000114754,2|2,0:0|0:0,0:0:0:0:
282,177,24068,2,0,P|300:104|321:32,1,150.410000114754,2|0,0:0|0:0,0:0:0:0:
419,19,24529,1,2,0:0:0:0:
470,204,24683,2,0,P|428:168|379:201,1,112.807500086065,2|0,0:0|0:0,0:0:0:0:
384,168,24991,2,0,P|373:222|426:248,1,112.807500086065,2|0,0:0|0:0,0:0:0:0:
441,231,25298,2,0,P|385:243|287:279,1,150.410000114754,2|0,0:0|0:0,0:0:0:0:
206,358,25760,5,2,0:0:0:0:
122,353,25914,2,0,P|113:305|103:258,1,75.2050000573769,2|2,0:0|0:0,0:0:0:0:
0,132,26222,2,0,P|7:168|14:205,1,75.2050000573769,2|0,0:0|0:0,0:0:0:0:
122,353,26529,2,0,P|113:305|103:258,1,75.2050000573769,2|2,0:0|0:0,0:0:0:0:
70,67,26837,5,2,0:0:0:0:
153,101,26991,1,2,0:0:0:0:
235,138,27145,1,2,0:0:0:0:
319,30,27298,6,0,P|343:145|356:201,1,163.507502494926,4|0,1:2|0:0,0:0:0:0:
449,239,27606,2,0,L|326:217,1,109.005001663284,10|0,0:0|0:0,0:0:0:0:
80,275,27914,5,2,1:2:0:0:
257,346,28068,1,0,1:2:0:0:
227,238,28222,5,10,0:0:0:0:
162,353,28375,2,0,P|139:267|106:170,1,163.507502494926,2|0,1:2|0:0,0:0:0:0:
24,122,28683,2,0,P|60:161|117:148,1,109.005001663284,2|8,1:2|0:0,0:0:0:0:
206,11,28991,5,2,0:0:0:0:
286,105,29145,1,0,1:2:0:0:
486,93,29298,6,0,P|399:111|363:129,1,109.005001663284,2|8,1:2|0:0,0:0:0:0:
145,238,29606,2,0,P|251:248|274:255,1,109.005001663284,2|0,0:0|1:2,0:0:0:0:
383,371,29914,2,0,P|402:295|420:241,1,109.005001663284,2|8,0:0|0:0,0:0:0:0:
336,211,30222,1,2,0:0:0:0:
341,199,30375,1,0,1:2:0:0:
288,350,30529,2,0,P|234:340|180:339,1,109.005001663284,2|8,1:2|0:0,0:0:0:0:
47,144,30837,5,2,1:2:0:0:
25,229,30991,2,0,P|45:199|129:210,1,109.005001663284,0|0,0:0|1:2,0:0:0:0:
86,312,31298,5,8,0:0:0:0:
94,294,31452,1,0,0:0:0:0:
210,109,31606,5,2,1:2:0:0:
231,226,31760,1,0,1:2:0:0:
349,182,31914,5,8,0:0:0:0:
355,174,32068,1,0,0:0:0:0:
475,74,32222,2,0,P|449:189|431:294,1,218.010003326569,6|8,1:2|0:0,0:0:0:0:
352,373,32683,1,0,0:0:0:0:
313,260,32837,1,2,1:2:0:0:
215,338,32991,1,0,1:2:0:0:
97,178,33145,5,8,0:0:0:0:
153,277,33298,1,0,1:2:0:0:
12,161,33452,6,0,B|65:190|136:130|75:141|138:56|212:99,1,218.010003326569,2|8,0:0|0:0,0:0:0:0:
264,174,33914,1,0,0:0:0:0:
382,39,34068,5,2,1:2:0:0:
230,9,34222,1,0,1:2:0:0:
292,80,34375,5,8,0:0:0:0:
386,239,34529,1,8,0:0:0:0:
386,239,34606,1,8,0:0:0:0:
386,239,34683,2,0,P|270:207|139:185,1,218.010003326569,6|8,1:2|0:0,0:0:0:0:
464,188,35145,5,0,0:0:0:0:
467,383,35298,2,0,P|491:325|519:272,1,109.005001663284,0|8,1:2|0:0,0:0:0:0:
505,286,35529,1,8,0:0:0:0:
498,288,35606,1,8,0:0:0:0:
360,343,35760,2,0,P|296:327|277:328,1,54.5025008316422,2|0,1:3|0:0,0:0:0:0:
302,211,36068,2,0,P|242:239|228:252,1,54.5025008316422,2|0,1:3|0:0,0:0:0:0:
175,172,36375,2,0,P|139:227|133:245,1,54.5025008316422,6|0,1:2|0:0,0:0:0:0:
17,349,36683,5,8,0:3:0:0:
32,342,36760,1,8,0:3:0:0:
47,336,36837,1,4,0:3:0:0:
63,332,36914,1,4,0:3:0:0:
79,328,36991,1,0,1:2:0:0:
95,324,37068,1,0,1:2:0:0:
111,322,37145,1,4,1:2:0:0:
464,40,37452,5,0,0:0:0:0:
73,128,37760,1,2,0:0:0:0:
434,245,38068,1,2,0:0:0:0:
461,222,38375,5,2,0:0:0:0:
471,187,38837,1,2,0:0:0:0:
460,153,39298,1,2,0:0:0:0:
297,350,39606,5,2,0:0:0:0:
269,327,40068,1,2,0:0:0:0:
259,292,40529,1,2,0:0:0:0:
270,258,40836,5,2,0:0:0:0:
370,174,41298,1,2,0:0:0:0:
359,286,41760,1,2,0:0:0:0:
362,294,42068,6,0,L|365:309,1,16.0549998040161
173,231,42376,1,2,0:0:0:0:
144,210,42683,1,2,0:0:0:0:
107,208,42991,1,2,0:0:0:0:
13,353,43298,5,2,0:0:0:0:
505,174,43760,1,2,0:0:0:0:
5,47,44222,1,2,0:0:0:0:
300,29,44529,5,2,0:0:0:0:
235,129,44991,1,2,0:0:0:0:
308,215,45452,1,2,0:0:0:0:
372,271,45760,5,8,0:3:0:0:
367,279,45799,1,0,0:0:0:0:
333,306,46222,5,4,0:3:0:0:
337,313,46260,1,0,0:0:0:0:
353,318,46683,5,0,1:0:0:0:
352,323,46722,1,0,0:0:0:0:
450,214,46991,5,4,1:2:0:0:
260,256,47145,1,2,0:0:0:0:
335,187,47298,5,2,1:2:0:0:
338,177,47452,1,2,0:0:0:0:
194,318,47606,2,0,P|140:303|28:301,1,167.30999948941,2|0,1:2|1:2,0:0:0:0:
101,182,48068,1,2,0:2:0:0:
24,115,48222,1,2,1:2:0:0:
20,107,48375,1,2,0:2:0:0:
115,66,48529,2,0,P|146:86|210:86,1,83.6549997447052,2|0,1:2|0:0,0:0:0:0:
323,64,48837,5,2,1:2:0:0:
468,50,48991,2,0,P|444:150|443:162,1,83.6549997447052,10|0,0:2|1:2,0:0:0:0:
256,156,49298,5,10,0:2:0:0:
266,167,49452,1,0,1:2:0:0:
359,196,49606,5,2,0:0:0:0:
214,295,49760,1,2,1:2:0:0:
199,304,49914,1,2,0:0:0:0:
302,384,50068,6,0,P|257:346|307:229,1,167.30999948941,2|0,1:2|1:2,0:0:0:0:
360,295,50529,1,2,0:2:0:0:
330,163,50683,1,2,1:2:0:0:
322,156,50837,1,2,0:2:0:0:
464,77,50991,6,8,P|439:158|431:191,1,83.6549997447052,10|8,1:2|0:3,0:0:0:0:
439,156,51222,1,8,0:3:0:0:
439,156,51299,1,8,0:3:0:0:
231,146,51452,2,0,P|252:78|261:39,1,83.6549997447052,8|4,0:3|0:3,0:0:0:0:
507,232,51760,2,0,P|496:272|482:312,1,83.6549997447052,4|12,0:3|0:0,0:0:0:0:
342,211,52068,5,2,1:2:0:0:
245,265,52222,1,14,0:2:0:0:
244,276,52375,1,2,1:2:0:0:
151,159,52529,5,14,0:2:0:0:
141,148,52683,1,2,1:2:0:0:
303,112,52837,5,2,1:2:0:0:
322,97,52991,1,14,0:2:0:0:
240,181,53145,6,0,P|218:113|207:81,1,83.6549997447052,2|2,1:2|1:2,1:2:0:0:
4,249,53452,5,14,0:2:0:0:
93,226,53606,1,2,1:2:0:0:
165,279,53760,5,2,1:2:0:0:
163,376,53914,2,0,P|85:353|44:347,1,92.1050009837875,14|0,0:2|1:2,0:0:0:0:
220,171,54222,5,2,1:2:0:0:
278,234,54375,2,0,P|384:214|496:187,1,184.210001967575,12|8,0:0|1:2,0:0:0:0:
396,299,54837,1,8,0:0:0:0:
320,143,54991,1,8,1:2:0:0:
311,128,55145,1,8,0:0:0:0:
441,78,55298,5,8,0:2:0:0:
441,78,55375,1,8,0:0:0:0:
441,78,55452,2,0,P|459:40|464:9,1,46.0525004918938,2|0,1:3|0:0,0:0:0:0:
256,192,55914,5,2,0:0:0:0:
268,206,56222,5,2,0:0:0:0:
262,212,56375,1,2,0:0:0:0:
39,126,56683,5,2,0:0:0:0:
2,232,56837,2,0,P|55:214|198:173,1,176.182505376663,4|0,1:0|0:0,0:0:0:0:
170,180,57145,5,10,0:2:0:0:
262,90,57298,2,0,P|336:110|388:125,1,117.455003584442,2|0,0:2|1:2,0:0:0:0:
507,353,57606,2,0,B|459:374|409:290|451:335|416:246|343:255,1,176.182505376663,2|0,0:2|0:0,0:0:0:0:
349,270,57914,2,0,P|277:296|213:321,1,117.455003584442,2|0,0:2|1:2,0:0:0:0:
41,206,58222,2,0,P|107:213|138:269,1,117.455003584442,2|10,0:2|0:2,0:0:0:0:
154,351,58529,5,2,0:2:0:0:
282,243,58683,1,2,1:2:0:0:
293,234,58837,1,0,0:0:0:0:
446,257,58991,2,0,P|432:191|382:167,1,117.455003584442,8|10,0:2|0:2,0:0:0:0:
374,155,59222,1,8,0:2:0:0:
353,156,59298,2,0,P|325:237|287:382,1,234.910007168885,2|10,1:2|0:2,0:0:0:0:
211,215,59760,2,0,P|235:162|247:105,1,117.455003584442,2|0,0:2|1:2,0:0:0:0:
353,63,60068,2,0,P|393:135|484:119,1,176.182505376663,2|0,0:2|0:0,0:0:0:0:
474,109,60375,1,2,0:2:0:0:
417,12,60529,6,0,P|324:50|189:94,1,234.910007168885,0|8,1:2|0:2,0:0:0:0:
94,129,60991,1,0,0:0:0:0:
83,137,61145,2,0,P|61:85|94:39,1,117.455003584442,2|0,1:2|0:0,0:0:0:0:
195,118,61452,2,0,P|169:215|146:360,1,234.910007168885,10|4,0:2|1:2,0:0:0:0:
117,229,61914,5,2,0:0:0:0:
240,353,62068,1,10,0:2:0:0:
249,342,62222,1,2,3:2:0:0:
159,155,62375,6,0,P|174:227|181:296,1,117.455003584442,2|0,1:2|3:2,0:0:0:0:
402,379,62683,5,10,0:2:0:0:
289,257,62837,1,2,3:2:0:0:
358,314,62991,6,0,P|442:338|512:364,1,117.455003584442,2|0,1:2|3:2,0:0:0:0:
421,138,63298,1,10,0:2:0:0:
492,259,63453,2,0,P|528:212|497:148,1,117.455003584442,2|8,3:2|1:3,0:0:0:0:
503,163,63683,1,8,1:3:0:0:
494,168,63760,1,8,0:0:0:0:
291,148,63914,5,8,0:0:0:0:
400,213,64068,2,0,P|367:81|342:18,1,176.182505376663,6|0,1:2|0:0,0:0:0:0:
352,43,64375,1,2,1:2:0:0:
172,125,64529,1,14,0:0:0:0:
159,112,64837,1,14,0:0:0:0:
28,148,65145,5,2,0:0:0:0:
157,230,65298,1,2,1:2:0:0:
242,365,65452,5,14,0:0:0:0:
237,352,65760,1,14,0:0:0:0:
470,373,66068,5,8,1:2:0:0:
454,381,66145,1,8,0:0:0:0:
436,384,66222,1,8,0:0:0:0:
418,381,66299,1,8,0:0:0:0:
404,369,66375,2,8,P|414:320|421:277,3,58.7275017922211,8|8|8|8,1:2|0:0|0:0|0:0,0:0:0:0:
388,384,66683,6,0,P|338:306|212:335,1,234.910007168885,4|10,1:0|0:2,0:0:0:0:
118,384,67145,2,0,P|106:305|96:254,1,117.455003584442,2|0,0:2|1:2,0:0:0:0:
198,205,67452,2,0,P|219:151|179:90,1,117.455003584442,2|10,0:2|0:2,0:0:0:0:
14,48,67760,2,0,P|-6:102|33:163,1,117.455003584442,2|0,0:2|1:2,0:0:0:0:
99,94,68068,2,0,P|166:115|246:132,1,117.455003584442,2|10,0:2|0:2,0:0:0:0:
384,83,68375,5,2,0:2:0:0:
466,127,68529,1,2,1:2:0:0:
323,229,68683,2,0,P|372:178|427:211,1,117.455003584442,0|8,0:0|0:2,0:0:0:0:
510,337,68991,1,10,0:2:0:0:
510,337,69068,1,8,0:2:0:0:
510,337,69145,2,0,P|460:305|276:228,1,234.910007168885,2|10,1:2|0:2,0:0:0:0:
0,334,69606,2,0,P|74:312|125:288,1,117.455003584442,2|0,0:2|1:2,0:0:0:0:
282,111,69914,2,0,P|208:89|157:65,1,117.455003584442,2|8,0:2|0:2,0:0:0:0:
99,29,70222,2,0,P|132:93|196:249,1,234.910007168885,2|0,0:2|0:0,0:0:0:0:
266,315,70683,1,8,0:2:0:0:
73,173,70837,5,0,0:0:0:0:
206,111,70991,2,0,P|176:190|162:260,1,117.455003584442,2|8,1:2|0:2,0:0:0:0:
181,248,71222,1,8,0:2:0:0:
213,251,71298,1,10,0:2:0:0:
231,228,71375,1,8,0:2:0:0:
259,220,71452,1,8,0:2:0:0:
287,226,71529,1,8,0:2:0:0:
311,243,71606,1,4,1:2:0:0:
418,192,71760,5,2,0:0:0:0:
495,290,71914,1,10,0:2:0:0:
503,305,72068,1,2,3:2:0:0:
394,330,72222,6,0,P|411:272|432:207,1,117.455003584442,2|0,1:2|3:2,0:0:0:0:
353,128,72529,2,0,P|370:70|391:5,1,117.455003584442,10|2,0:2|3:2,0:0:0:0:
482,119,72837,6,0,P|378:149|233:206,1,234.910007168885,2|10,1:2|0:2,0:0:0:0:
34,183,73298,2,0,B|107:222|168:126|117:159|170:72|243:88,1,234.910007168885,2|8,3:2|0:0,0:0:0:0:
272,49,73683,1,8,0:0:0:0:
277,42,73760,1,8,0:0:0:0:
56,49,73914,6,0,P|111:130|186:272,1,234.910007168885,6|2,1:2|1:2,0:0:0:0:
128,319,74375,5,14,0:0:0:0:
437,363,74683,1,14,0:0:0:0:
430,379,74991,5,2,1:2:0:0:
320,220,75145,1,14,0:0:0:0:
387,287,75298,6,0,P|421:242|403:189,1,117.455003584442,2|0,1:2|1:2,0:0:0:0:
207,204,75606,2,0,P|243:259|291:364,1,176.182505376663,14|0,0:0|0:0,0:0:0:0:
289,359,75914,1,10,1:2:0:0:
90,292,76068,1,10,0:0:0:0:
176,342,76222,5,8,1:2:0:0:
2,374,76375,2,0,P|40:269|73:148,1,234.910007168885,4|0,1:2|0:0,0:0:0:0:
189,22,76837,5,10,0:0:0:0:
236,99,76991,1,0,0:0:0:0:
362,93,77145,6,0,P|286:180|267:217,1,117.455003584442,2|0,1:2|0:0,0:0:0:0:
304,360,77452,5,10,0:0:0:0:
459,263,77606,1,2,0:0:0:0:
496,348,77760,6,0,B|433:382|361:310|408:331|354:255|274:272,1,234.910007168885,2|8,1:2|0:0,0:0:0:0:
167,269,78222,5,2,0:0:0:0:
158,282,78375,1,0,1:2:0:0:
64,206,78529,1,0,1:2:0:0:
125,134,78683,5,10,0:0:0:0:
42,329,78837,1,0,1:2:0:0:
48,319,78914,1,0,1:2:0:0:
51,307,78991,2,0,P|32:158|28:61,1,234.910007168885,10|8,0:0|0:0,0:0:0:0:
151,26,79452,5,10,0:0:0:0:
291,132,79606,1,8,0:0:0:0:
384,0,79760,5,8,0:0:0:0:
243,41,79914,1,10,0:0:0:0:
176,175,80068,1,8,0:0:0:0:
263,134,80222,5,2,0:0:0:0:
354,229,80376,2,0,L|325:350,1,117.455003584442
263,147,80683,1,0,0:0:0:0:
354,229,80837,2,0,L|325:350,1,117.455003584442,2|2,0:0|0:0,0:0:0:0:
263,160,81145,1,0,0:0:0:0:
474,130,81298,5,4,1:0:0:0:
256,192,81375,12,0,86068,0:0:0:0:
456,71,86222,5,0,1:2:0:0:
450,87,86298,1,0,1:2:0:0:
445,103,86375,1,12,0:0:0:0:
325,35,86529,1,2,1:2:0:0:
237,159,86683,5,14,0:0:0:0:
338,140,86837,1,2,1:2:0:0:
393,321,86991,5,12,0:0:0:0:
317,232,87145,2,0,P|297:307|279:367,1,117.455003584442,0|2,1:2|1:2,0:0:0:0:
183,353,87452,5,14,0:0:0:0:
396,288,87606,1,2,1:2:0:0:
411,275,87760,1,2,1:2:0:0:
204,253,87914,5,14,0:0:0:0:
277,315,88068,1,4,0:3:0:0:
281,130,88222,5,10,0:0:0:0:
66,227,88375,1,10,0:0:0:0:
