osu file format v14

[General]
AudioFilename: audio.mp3
AudioLeadIn: 0
PreviewTime: 55859
Countdown: 0
SampleSet: Soft
StackLeniency: 0.7
Mode: 0
LetterboxInBreaks: 0
WidescreenStoryboard: 1

[Editor]
Bookmarks: 60090
DistanceSpacing: 1.6
BeatDivisor: 4
GridSize: 16
TimelineZoom: 1

[Metadata]
Title:MIIRO (TV Size)
TitleUnicode:海色 (TV Size)
Artist:AKINO from bless4
ArtistUnicode:AKINO from bless4
Creator:lapp
Version:Extra
Source:艦隊これくしょん -艦これ-
Tags:みいろ openみいろ opみいろ opening kaみいろ opening kantai collection kancolle japanese female vocalist anime j-rock jrock rock nevo sparhten killian tachibana_ tachi Ryxliee wanpachi xandit bokeru
BeatmapID:3651962
BeatmapSetID:1783234

[Difficulty]
HPDrainRate:5.6
CircleSize:3.8
OverallDifficulty:9
ApproachRate:9.3
SliderMultiplier:1.94
SliderTickRate:1

[Events]
//Background and Video events
0,0,"bg.jpg",0,0
//Break Periods
//Storyboard Layer 0 (Background)
//Storyboard Layer 1 (Fail)
//Storyboard Layer 2 (Pass)
//Storyboard Layer 3 (Foreground)
//Storyboard Layer 4 (Overlay)
//Storyboard Sound Samples

[TimingPoints]
1299,307.692307692308,4,2,1,50,1,0
1453,307.692307692308,4,2,1,50,1,0
1453,-156.25,4,2,1,50,0,0
3914,-263.157894736842,4,2,1,50,0,0
5145,-156.25,4,2,1,50,0,0
6991,-416.666666666667,4,2,1,50,0,0
7453,-106.382978723404,4,2,1,85,0,0
17453,-135.135135135135,4,2,1,60,0,0
27299,-119.047619047619,4,2,1,70,0,0
37145,-357.142857142857,4,2,1,60,0,0
46991,-135.135135135135,4,2,1,70,0,0
51914,-106.382978723404,4,2,1,70,0,0
56837,-96.1538461538461,4,2,1,85,0,1
80222,-96.1538461538461,4,2,1,50,0,1
81299,-106.382978723404,4,2,1,85,0,0

[Colours]
Combo1 : 237,175,207
Combo2 : 91,236,233
Combo3 : 107,60,232

[HitObjects]
62,103,1299,5,2,0:0:0:0:
62,103,1375,1,2,0:0:0:0:
62,103,1452,1,2,0:0:0:0:
62,103,1760,6,0,P|73:141|87:187,1,62.08,2|0,0:0|0:0,0:0:0:0:
128,246,2068,2,0,P|117:284|103:330,1,62.08,2|0,0:0|0:0,0:0:0:0:
219,196,2376,1,2,0:0:0:0:
219,196,2529,1,2,0:0:0:0:
308,318,2683,6,0,P|257:331|174:355,1,124.16,2|0,0:0|0:0,0:0:0:0:
301,226,3145,2,0,P|360:243|420:258,1,124.16,2|0,0:0|0:0,0:0:0:0:
493,153,3606,2,0,P|505:193|516:229,1,62.08,2|0,0:0|0:0,0:0:0:0:
403,120,3914,6,0,B|355:136|311:145|311:145|286:202|286:202|239:210|180:239,1,258.019996850342,2|0,0:0|0:0,0:0:0:0:
88,159,5145,6,0,P|58:150|28:142,2,62.08,2|0|0,0:0|0:0|0:0,0:0:0:0:
144,46,5606,2,0,P|114:54|84:62,2,62.08,2|0|0,0:0|0:0|0:0,0:0:0:0:
255,105,6068,6,0,P|262:68|270:27,2,62.08,2|0|0,0:0|0:0|0:0,0:0:0:0:
203,230,6529,2,0,P|208:260|214:290,2,62.08,2|0|0,0:0|0:0|0:0,0:0:0:0:
327,197,6991,2,0,P|334:215|323:198,1,58.2000014208985,2|0,0:0|0:0,0:0:0:0:
366,285,7453,6,0,B|331:248|270:243|270:243|249:280|196:297,1,182.359997217407,4|0,1:0|1:2,0:0:0:0:
54,220,7914,2,0,P|71:274|87:326,1,91.1799986087036,10|0,0:0|0:0,0:0:0:0:
28,126,8222,2,0,P|11:72|-5:20,1,91.1799986087036,2|0,1:2|1:2,0:0:0:0:
221,181,8529,2,0,P|176:171|132:161,1,91.1799986087036,10|0,0:0|0:0,0:0:0:0:
298,85,8837,5,2,1:2:0:0:
176,270,8991,1,0,1:2:0:0:
363,147,9145,1,10,0:0:0:0:
173,7,9299,2,0,P|187:53|203:106,1,91.1799986087036,2|0,0:0|1:2,0:0:0:0:
398,14,9607,1,2,1:2:0:0:
277,212,9760,1,8,0:0:0:0:
466,125,9914,6,0,B|425:102|425:102|392:119|392:119|347:84|273:87,1,182.359997217407,6|0,1:2|1:2,0:0:0:0:
418,269,10376,2,0,P|462:255|505:241,1,91.1799986087036,8|0,0:0|0:0,0:0:0:0:
311,207,10683,1,0,1:2:0:0:
417,367,10837,1,0,1:2:0:0:
221,239,10991,1,8,0:0:0:0:
407,142,11145,1,2,0:0:0:0:
407,142,11222,1,2,0:0:0:0:
407,142,11299,5,2,1:2:0:0:
276,309,11453,1,2,1:2:0:0:
480,183,11607,1,10,0:0:0:0:
262,73,11760,2,0,P|311:59|370:42,1,91.1799986087036,2|0,0:0|1:2,0:0:0:0:
131,39,12068,1,2,1:2:0:0:
286,170,12222,1,8,0:0:0:0:
90,313,12376,6,0,P|39:268|64:139,1,182.359997217407,6|2,1:2|1:2,0:0:0:0:
264,273,12837,2,0,P|251:326|240:372,1,91.1799986087036,10|0,0:0|0:0,0:0:0:0:
136,220,13145,1,2,1:2:0:0:
287,150,13299,1,0,1:2:0:0:
390,309,13453,2,0,P|447:310|510:239,1,136.769997913055,10|0,0:0|0:0,0:0:0:0:
512,221,13760,6,0,P|499:168|488:122,1,91.1799986087036,2|0,1:2|1:2,0:0:0:0:
305,245,14068,1,10,0:0:0:0:
453,52,14222,2,0,P|409:66|366:79,1,91.1799986087036,2|0,0:0|1:2,0:0:0:0:
229,20,14529,1,2,1:2:0:0:
374,190,14683,1,8,0:0:0:0:
164,124,14837,1,2,1:2:0:0:
164,124,14914,1,0,1:2:0:0:
164,124,14991,5,12,0:0:0:0:
97,311,15145,1,2,1:2:0:0:
115,41,15299,5,10,0:0:0:0:
231,267,15453,1,2,1:2:0:0:
33,130,15606,5,8,0:0:0:0:
268,24,15760,2,0,P|255:73|240:121,1,91.1799986087036,8|2,0:0|1:2,0:0:0:0:
338,304,16068,5,10,0:0:0:0:
445,101,16222,2,0,P|458:150|473:198,1,91.1799986087036,10|2,0:0|1:2,0:0:0:0:
414,343,16529,1,10,0:0:0:0:
226,222,16684,1,4,0:3:0:0:
248,216,16760,1,0,1:2:0:0:
270,209,16837,1,14,0:0:0:0:
423,20,16991,1,10,0:0:0:0:
423,20,17453,6,0,P|410:67|397:98,1,71.7800017524415,2|0,0:0|0:0,0:0:0:0:
347,186,17760,1,2,0:0:0:0:
347,186,17914,2,0,P|360:233|373:264,1,71.7800017524415,2|0,0:0|0:0,0:0:0:0:
500,194,18222,2,0,P|461:178|424:156,1,71.7800017524415,2|0,0:0|0:0,0:0:0:0:
255,115,18529,1,2,0:0:0:0:
255,115,18683,6,0,P|281:80|381:84,1,143.560003504883
311,213,19145,2,0,B|279:197|279:197|253:208|253:208|218:184|154:185,1,143.560003504883
71,91,19606,2,0,P|85:138|99:173,1,71.7800017524415,2|2,0:0|0:0,0:0:0:0:
0,230,19914,6,0,P|37:240|81:259,1,71.7800017524415,2|0,0:0|0:0,0:0:0:0:
187,331,20222,1,2,0:0:0:0:
187,331,20376,2,0,P|150:272|179:209,1,143.560003504883,2|2,0:0|0:0,0:0:0:0:
276,153,20837,1,0,0:0:0:0:
276,153,20991,2,0,P|266:190|259:227,1,71.7800017524415,2|0,0:0|0:0,0:0:0:0:
313,312,21299,6,0,B|350:279|396:275|396:275|418:304|453:312,1,143.560003504883,2|2,0:0|0:0,0:0:0:0:
503,152,21760,2,0,P|493:185|475:220,1,71.7800017524415
390,89,22068,1,2,0:0:0:0:
468,46,22222,1,2,0:0:0:0:
381,182,22376,6,0,P|346:170|299:149,1,71.7800017524415
216,58,22683,2,0,B|220:82|231:106|231:106|214:139|214:139|230:169|232:199,2,143.560003504883,2|2|2,0:0|0:0|0:0,0:0:0:0:
72,170,23453,6,0,P|109:179|149:200,1,71.7800017524415,2|0,0:0|0:0,0:0:0:0:
216,274,23760,2,0,P|179:283|139:304,1,71.7800017524415,2|0,0:0|0:0,0:0:0:0:
16,380,24068,2,0,P|58:319|31:231,1,143.560003504883,2|0,0:0|0:0,0:0:0:0:
0,157,24529,1,2,0:0:0:0:
0,157,24683,6,0,P|13:123|22:89,1,71.7800017524415,2|0,0:0|0:0,0:0:0:0:
108,19,24991,2,0,P|117:53|130:86,1,71.7800017524415,2|0,0:0|0:0,0:0:0:0:
211,152,25299,2,0,B|235:144|262:133|262:133|299:150|299:150|328:136|356:129,1,143.560003504883,2|0,0:0|0:0,0:0:0:0:
469,33,25760,2,0,P|435:20|403:3,1,71.7800017524415,2|2,0:0|0:0,0:0:0:0:
441,199,26068,6,0,P|459:148|481:99,2,95.7066690032553,2|2|2,0:0|0:0|0:0,0:0:0:0:
413,292,26683,2,0,P|395:343|373:392,2,95.7066690032553,2|2|2,0:0|0:0|0:0,0:0:0:0:
284,140,27299,6,0,P|231:134|167:207,1,122.219996270142,4|0,1:2|0:0,0:0:0:0:
165,215,27606,2,0,P|207:225|262:241,1,81.4799975134278,10|0,0:0|0:0,0:0:0:0:
432,149,27914,1,2,1:2:0:0:
314,335,28068,1,0,1:2:0:0:
489,245,28222,1,10,0:0:0:0:
331,111,28376,6,0,P|349:176|384:285,1,162.959995026856,2|2,1:2|1:2,0:0:0:0:
226,174,28837,1,8,0:0:0:0:
187,304,28991,2,0,P|229:288|270:275,1,81.4799975134278,2|0,0:0|1:2,0:0:0:0:
107,214,29299,2,0,P|65:198|24:185,1,81.4799975134278,2|8,1:2|0:0,0:0:0:0:
169,21,29606,6,0,P|186:77|227:177,1,162.959995026856,2|2,0:0|0:0,0:0:0:0:
369,47,30068,1,8,0:0:0:0:
417,180,30222,2,0,P|370:168|324:156,1,81.4799975134278,2|0,0:0|1:2,0:0:0:0:
404,338,30529,2,0,P|451:326|497:314,1,81.4799975134278,2|8,1:2|0:0,0:0:0:0:
325,262,30837,5,2,1:2:0:0:
222,382,30991,1,0,0:0:0:0:
98,242,31145,1,0,1:2:0:0:
226,166,31299,2,0,P|216:214|208:246,1,81.4799975134278,8|0,0:0|0:0,0:0:0:0:
43,159,31606,1,2,1:2:0:0:
149,320,31760,1,0,1:2:0:0:
17,264,31914,2,0,P|72:249|111:238,1,81.4799975134278,8|0,0:0|0:0,0:0:0:0:
211,84,32222,6,0,B|185:78|155:68|155:68|117:87|117:87|83:73|45:62,2,162.959995026856,6|8|2,1:2|0:0|1:2,0:0:0:0:
374,28,32991,1,0,1:2:0:0:
255,174,33145,1,8,0:0:0:0:
424,110,33299,1,0,1:2:0:0:
424,110,33376,1,0,1:0:0:0:
424,110,33453,6,0,P|412:149|393:204,1,81.4799975134278,2|0,0:0|1:2,0:0:0:0:
294,279,33760,2,0,P|306:318|325:373,1,81.4799975134278,8|8,0:0|0:0,0:0:0:0:
331,384,33991,1,8,0:0:0:0:
331,384,34068,1,2,1:2:0:0:
172,280,34222,1,0,1:2:0:0:
289,176,34376,1,8,0:0:0:0:
180,81,34529,1,8,0:0:0:0:
180,81,34606,1,8,0:0:0:0:
180,81,34683,6,0,P|220:66|258:52,1,81.4799975134278,6|0,1:2|0:0,0:0:0:0:
115,205,34991,2,0,P|75:190|37:176,1,81.4799975134278,8|0,0:0|0:0,0:0:0:0:
289,176,35299,2,0,P|275:229|266:263,1,81.4799975134278,0|8,1:2|0:0,0:0:0:0:
261,293,35529,1,8,0:0:0:0:
261,293,35606,1,8,0:0:0:0:
451,157,35760,1,2,1:3:0:0:
451,157,36068,5,2,1:3:0:0:
331,357,36222,1,8,0:0:0:0:
502,274,36376,2,0,P|462:264|423:251,1,81.4799975134278,6|0,1:2|0:0,0:0:0:0:
310,97,36683,1,8,0:3:0:0:
311,106,36759,1,8,0:3:0:0:
314,117,36836,1,4,0:3:0:0:
316,128,36913,1,4,0:3:0:0:
318,139,36990,1,0,1:2:0:0:
321,150,37067,1,0,1:2:0:0:
323,161,37145,6,0,B|172:109|212:264|58:190|58:190|131:203|172:148,1,407.400004973145,4|2,1:2|0:0,0:0:0:0:
175,122,39529,1,2,0:0:0:0:
175,122,39606,6,0,P|182:91|190:38,2,81.4800009946289,2|2|2,0:0|0:0|0:0,0:0:0:0:
123,228,40837,6,0,P|128:268|137:308,2,81.4800009946289,2|2|2,0:0|0:0|0:0,0:0:0:0:
211,127,42068,6,0,B|266:106|314:138|314:138|363:77|429:75|429:75|454:157|398:199,1,380.240004641602,0|2,0:0|0:0,0:0:0:0:
318,258,44529,6,0,P|295:245|237:232,2,81.4800009946289,2|2|2,0:0|0:0|0:0,0:0:0:0:
413,342,45760,5,8,0:3:0:0:
512,189,46222,5,4,0:3:0:0:
322,99,46683,5,0,1:0:0:0:
430,31,46837,1,0,1:0:0:0:
430,31,46914,1,0,1:0:0:0:
430,31,46991,6,0,P|420:69|406:120,1,71.7800017524415,4|2,1:2|0:0,0:0:0:0:
247,66,47299,1,2,1:2:0:0:
247,66,47453,1,2,0:0:0:0:
364,199,47606,2,0,P|324:208|285:219,1,71.7800017524415,2|0,1:2|0:0,0:0:0:0:
138,299,47914,2,0,P|177:308|216:319,1,71.7800017524415,0|2,1:2|1:2,0:0:0:0:
245,333,48145,1,0,1:0:0:0:
245,333,48222,5,2,1:2:0:0:
84,204,48376,1,2,0:2:0:0:
211,134,48529,2,0,P|204:171|191:230,1,71.7800017524415,2|0,1:2|0:0,0:0:0:0:
320,142,48837,1,2,1:2:0:0:
188,42,48991,1,10,0:2:0:0:
275,6,49145,1,0,1:2:0:0:
115,141,49299,1,10,0:2:0:0:
278,250,49453,6,0,P|326:240|369:230,1,71.7800017524415,0|2,1:2|0:0,0:0:0:0:
289,350,49760,1,2,1:2:0:0:
289,350,49914,1,2,0:0:0:0:
445,265,50068,2,0,P|432:307|417:351,1,71.7800017524415,2|0,1:2|0:0,0:0:0:0:
512,183,50376,2,0,P|499:144|486:105,1,71.7800017524415,0|2,1:2|1:2,0:0:0:0:
475,76,50606,1,0,1:0:0:0:
475,76,50683,5,2,1:2:0:0:
386,190,50837,1,2,0:2:0:0:
264,93,50991,1,2,1:2:0:0:
388,12,51145,2,0,P|375:50|362:89,1,71.7800017524415,8|8,0:3|0:3,0:0:0:0:
298,227,51453,1,8,0:3:0:0:
193,148,51606,1,4,0:3:0:0:
304,315,51760,1,4,0:3:0:0:
94,378,51914,5,12,0:0:0:0:
298,227,52068,1,2,1:2:0:0:
56,115,52222,5,14,0:2:0:0:
227,275,52376,1,2,1:2:0:0:
198,50,52529,5,14,0:2:0:0:
66,277,52683,1,2,1:2:0:0:
242,148,52837,1,2,1:2:0:0:
352,344,52991,5,14,0:2:0:0:
164,214,53145,1,2,1:2:0:0:
335,97,53299,1,2,1:2:0:0:
132,328,53453,5,14,0:2:0:0:
189,89,53606,1,2,1:2:0:0:
258,284,53760,1,2,1:2:0:0:
98,81,53914,5,14,0:2:0:0:
343,220,54068,1,0,1:2:0:0:
132,328,54222,1,2,1:2:0:0:
230,0,54376,5,12,0:0:0:0:
263,31,54452,1,8,0:0:0:0:
281,73,54529,1,8,0:0:0:0:
280,118,54606,1,8,0:0:0:0:
261,157,54684,1,8,1:2:0:0:
240,198,54760,1,8,0:0:0:0:
239,243,54837,1,8,0:0:0:0:
258,284,54914,1,8,0:0:0:0:
292,313,54991,1,8,1:2:0:0:
336,324,55068,1,8,0:0:0:0:
381,316,55145,1,8,0:0:0:0:
417,289,55222,1,8,0:0:0:0:
438,248,55299,1,8,0:2:0:0:
439,203,55376,1,8,0:0:0:0:
415,158,55453,1,2,1:3:0:0:
61,117,56529,5,8,0:0:0:0:
61,117,56606,1,8,0:0:0:0:
61,117,56683,1,10,0:0:0:0:
61,117,56760,1,8,0:0:0:0:
61,117,56837,2,0,B|98:106|137:94|137:94|186:120|186:120|219:107|260:96,1,201.759998768555,4|10,1:0|0:2,0:0:0:0:
372,243,57299,2,0,P|324:226|276:209,1,100.879999384277,2|0,0:2|1:2,0:0:0:0:
425,145,57606,1,2,0:2:0:0:
258,308,57760,1,10,0:2:0:0:
475,227,57914,6,0,P|485:277|497:337,1,100.879999384277,2|0,0:2|1:2,0:0:0:0:
334,140,58222,2,0,P|324:90|312:30,1,100.879999384277,2|10,0:2|0:2,0:0:0:0:
255,240,58529,1,2,0:2:0:0:
85,51,58683,1,2,1:2:0:0:
242,148,58837,1,0,0:0:0:0:
71,285,58991,1,8,0:2:0:0:
189,66,59145,1,10,0:2:0:0:
189,66,59222,1,8,0:2:0:0:
189,66,59299,6,0,P|279:58|341:157,1,201.759998768555,2|10,1:2|0:2,0:0:0:0:
147,213,59760,2,0,P|97:198|45:182,1,100.879999384277,2|0,0:2|1:2,0:0:0:0:
150,358,60068,2,0,P|198:343|246:328,1,100.879999384277,2|8,0:2|0:2,0:0:0:0:
121,117,60376,1,2,0:2:0:0:
314,258,60529,6,0,P|375:273|510:306,1,201.759998768555,0|8,1:2|0:2,0:0:0:0:
290,156,60991,1,0,0:0:0:0:
475,56,61145,2,0,P|455:105|434:157,1,100.879999384277,2|0,1:2|0:0,0:0:0:0:
214,217,61453,2,0,P|234:266|255:318,1,100.879999384277,10|8,0:2|0:2,0:0:0:0:
261,336,61683,1,8,0:2:0:0:
261,336,61760,5,4,1:2:0:0:
371,219,61914,1,2,0:0:0:0:
169,106,62068,2,0,P|219:122|281:144,1,100.879999384277,10|2,0:2|3:2,0:0:0:0:
112,290,62376,2,0,P|62:274|0:252,1,100.879999384277,2|0,1:2|3:2,0:0:0:0:
214,217,62683,1,10,0:2:0:0:
72,384,62837,1,2,3:2:0:0:
282,270,62991,6,0,P|266:317|248:369,1,100.879999384277,2|0,1:2|3:2,0:0:0:0:
190,137,63299,1,10,0:2:0:0:
375,264,63453,1,2,3:2:0:0:
476,65,63606,1,8,1:3:0:0:
476,65,63683,1,8,3:0:0:0:
476,65,63760,1,8,0:0:0:0:
476,65,63837,1,8,0:0:0:0:
476,65,63914,1,8,0:0:0:0:
287,154,64068,6,0,B|323:109|390:100|390:100|409:147|472:170,1,201.759998768555,6|2,1:2|1:2,0:0:0:0:
221,305,64529,5,14,0:0:0:0:
135,98,64683,1,0,1:2:0:0:
310,266,64837,5,14,0:0:0:0:
218,47,64991,1,0,1:2:0:0:
69,249,65145,1,10,0:0:0:0:
92,239,65221,1,8,0:0:0:0:
115,229,65298,1,10,1:2:0:0:
362,149,65453,5,14,0:0:0:0:
135,98,65606,1,0,1:2:0:0:
404,63,65760,5,14,0:0:0:0:
191,162,65913,1,0,1:2:0:0:
446,290,66068,5,8,1:2:0:0:
310,177,66222,1,8,0:0:0:0:
316,201,66298,1,8,0:0:0:0:
325,225,66375,1,8,1:2:0:0:
205,93,66529,1,8,0:0:0:0:
186,123,66606,1,8,0:0:0:0:
178,154,66683,6,0,B|192:201|192:201|173:238|173:238|212:290|198:364,1,201.759998768555,4|10,1:0|0:2,0:0:0:0:
0,215,67145,2,0,P|48:197|99:179,1,100.879999384277,2|0,0:2|1:2,0:0:0:0:
282,214,67453,1,2,0:2:0:0:
122,68,67606,1,10,0:2:0:0:
347,134,67760,6,0,P|334:85|320:37,1,100.879999384277,2|0,0:2|1:2,0:0:0:0:
383,265,68068,2,0,P|397:313|414:379,1,100.879999384277,2|10,0:2|0:2,0:0:0:0:
429,114,68376,1,2,0:2:0:0:
297,308,68529,1,2,1:2:0:0:
493,194,68683,1,0,0:0:0:0:
320,36,68837,1,8,0:2:0:0:
207,239,68991,1,10,0:2:0:0:
207,239,69068,1,8,0:2:0:0:
207,239,69145,6,0,B|260:220|314:201|314:201|361:231|334:297,1,201.759998768555,2|10,1:2|0:2,0:0:0:0:
170,121,69606,2,0,P|186:66|200:19,1,100.879999384277,2|0,0:2|1:2,0:0:0:0:
104,268,69914,2,0,P|120:323|134:370,1,100.879999384277,2|8,0:2|0:2,0:0:0:0:
0,215,70222,1,2,0:2:0:0:
170,121,70376,6,0,B|200:131|239:138|239:138|267:183|267:183|310:191|352:205,1,201.759998768555,0|8,1:2|0:2,0:0:0:0:
229,312,70837,1,0,0:0:0:0:
445,199,70991,2,0,P|430:259|416:310,1,100.879999384277,2|8,1:2|0:2,0:0:0:0:
417,326,71222,1,8,0:2:0:0:
417,326,71299,1,10,0:2:0:0:
286,125,71453,1,8,0:2:0:0:
310,117,71529,1,8,0:2:0:0:
334,109,71606,5,4,1:2:0:0:
229,312,71760,1,2,0:0:0:0:
100,111,71914,2,0,P|145:122|201:138,1,100.879999384277,10|2,0:2|3:2,0:0:0:0:
326,284,72222,2,0,P|278:298|229:311,1,100.879999384277,2|0,1:2|3:2,0:0:0:0:
439,355,72529,1,10,0:2:0:0:
332,195,72683,1,2,3:2:0:0:
508,120,72837,6,0,P|495:168|481:221,1,100.879999384277,2|0,1:2|3:2,0:0:0:0:
305,98,73145,1,10,0:2:0:0:
487,26,73299,1,2,3:2:0:0:
332,195,73453,1,8,1:3:0:0:
332,195,73529,1,8,3:0:0:0:
332,195,73606,1,8,0:0:0:0:
332,195,73683,1,8,0:0:0:0:
332,195,73760,1,8,0:0:0:0:
367,18,73914,6,0,P|271:7|199:109,1,201.759998768555,6|2,1:2|1:2,0:0:0:0:
10,248,74376,5,14,0:0:0:0:
103,32,74529,1,0,1:2:0:0:
140,291,74683,5,14,0:0:0:0:
27,87,74836,1,0,0:0:0:0:
255,219,74991,1,2,1:2:0:0:
230,225,75067,1,0,1:3:0:0:
206,232,75145,1,14,0:0:0:0:
374,102,75299,5,2,1:2:0:0:
282,319,75453,1,0,1:2:0:0:
485,162,75606,2,0,P|433:175|372:190,1,100.879999384277,14|0,0:0|0:0,0:0:0:0:
222,98,75914,1,10,1:2:0:0:
399,287,76068,1,10,0:0:0:0:
399,287,76145,1,8,0:0:0:0:
399,287,76222,1,8,1:2:0:0:
399,287,76299,1,8,0:0:0:0:
399,287,76376,6,0,B|329:264|329:264|287:286|287:286|244:273|184:258,1,201.759998768555,4|0,1:2|0:0,0:0:0:0:
31,188,76837,2,0,P|44:229|63:293,1,100.879999384277,10|0,0:0|0:0,0:0:0:0:
131,80,77145,2,0,P|68:59|21:42,1,100.879999384277,2|0,1:2|0:0,0:0:0:0:
242,22,77453,1,10,0:0:0:0:
131,172,77606,1,2,0:0:0:0:
315,72,77760,6,0,P|361:112|328:236,1,201.759998768555,2|8,1:2|0:0,0:0:0:0:
181,316,78222,2,0,P|223:328|283:346,1,100.879999384277,2|0,0:0|1:2,0:0:0:0:
199,164,78529,1,0,1:2:0:0:
380,301,78683,1,10,0:0:0:0:
328,120,78837,1,0,1:2:0:0:
321,96,78913,1,0,1:2:0:0:
315,72,78991,5,10,0:0:0:0:
225,306,79145,1,8,0:0:0:0:
398,201,79299,1,8,0:0:0:0:
189,96,79453,1,10,0:0:0:0:
383,0,79606,5,8,0:0:0:0:
312,309,79760,1,8,0:0:0:0:
68,169,79914,1,10,0:0:0:0:
220,0,80068,1,8,0:0:0:0:
279,150,80222,5,2,0:0:0:0:
474,203,81299,6,0,B|439:166|378:161|378:161|357:198|304:215,1,182.359997217407,4|0,1:0|1:2,0:0:0:0:
156,87,81760,2,0,P|211:72|261:59,1,91.1799986087036,10|0,0:0|0:0,0:0:0:0:
107,250,82068,2,0,P|62:238|18:226,1,91.1799986087036,2|0,1:2|1:2,0:0:0:0:
224,186,82376,2,0,P|239:247|249:287,1,91.1799986087036,10|0,0:0|0:0,0:0:0:0:
449,152,82683,5,2,1:2:0:0:
338,323,82837,1,0,1:2:0:0:
512,210,82991,1,10,0:0:0:0:
313,98,83145,2,0,P|365:85|411:75,1,91.1799986087036,2|0,0:0|1:2,0:0:0:0:
209,31,83453,1,2,1:2:0:0:
371,193,83606,1,8,0:0:0:0:
137,99,83760,6,0,B|156:132|156:132|147:167|147:167|192:212|198:284,1,182.359997217407,6|0,1:2|1:2,0:0:0:0:
358,349,84222,2,0,P|314:363|271:377,1,91.1799986087036,8|0,0:0|0:0,0:0:0:0:
461,236,84529,1,0,1:2:0:0:
295,152,84683,1,0,1:2:0:0:
475,343,84837,1,8,0:0:0:0:
409,158,84991,1,2,0:0:0:0:
409,158,85068,1,2,0:0:0:0:
409,158,85145,5,2,1:2:0:0:
276,275,85299,1,2,1:2:0:0:
144,140,85453,1,10,0:0:0:0:
302,30,85606,2,0,P|291:81|280:126,1,91.1799986087036,2|0,0:0|1:2,0:0:0:0:
110,222,85914,1,2,1:2:0:0:
249,354,86068,1,8,0:0:0:0:
144,140,86222,1,0,1:2:0:0:
144,140,86299,1,0,1:2:0:0:
144,140,86376,5,12,0:0:0:0:
383,206,86529,1,2,1:2:0:0:
110,222,86683,5,14,0:0:0:0:
372,294,86836,1,2,1:2:0:0:
82,306,86991,5,12,0:0:0:0:
359,383,87144,1,0,1:2:0:0:
291,88,87299,1,2,1:2:0:0:
291,88,87376,1,0,1:3:0:0:
291,88,87453,6,0,B|284:121|272:153|272:153|287:191|287:191|272:225|258:279,1,182.359997217407,14|2,0:0|1:2,0:0:0:0:
175,90,87914,1,14,0:0:0:0:
363,26,88068,1,4,0:3:0:0:
114,174,88222,5,10,0:0:0:0:
398,327,88376,1,10,0:0:0:0:
