osu file format v14

[General]
AudioFilename: audio.mp3
AudioLeadIn: 0
PreviewTime: 55774
Countdown: 0
SampleSet: Drum
StackLeniency: 1
Mode: 0
LetterboxInBreaks: 0
WidescreenStoryboard: 0

[Editor]
DistanceSpacing: 1.1
BeatDivisor: 4
GridSize: 16
TimelineZoom: 1

[Metadata]
Title:MIIRO (TV Size)
TitleUnicode:海色 (TV Size)
Artist:AKINO from bless4
ArtistUnicode:AKINO from bless4
Creator:Wixdom
Version:Expert
Source:艦隊これくしょん -艦これ-
Tags:
BeatmapID:2216940
BeatmapSetID:1058505

[Difficulty]
HPDrainRate:5
CircleSize:3.8
OverallDifficulty:8
ApproachRate:9.6
SliderMultiplier:1.4
SliderTickRate:1

[Events]
//Background and Video events
0,0,"bg.jpg",0,0
//Break Periods
//Storyboard Layer 0 (Background)
//Storyboard Layer 1 (Fail)
//Storyboard Layer 2 (Pass)
//Storyboard Layer 3 (Foreground)
//Storyboard Layer 4 (Overlay)
//Storyboard Sound Samples

[TimingPoints]
1314,307.692307692308,4,3,1,100,1,0
1314,-200,4,3,1,100,0,0
1467,307.692307692308,4,3,1,100,1,0
7005,-133.333333333333,4,3,1,100,0,0
7313,-133.333333333333,4,3,1,5,0,0
7467,-83.3333333333333,4,3,1,100,0,0
17467,-100,4,3,22,40,0,0
26082,-83.3333333333333,4,3,22,50,0,0
27313,-83.3333333333333,4,3,1,100,0,0
35467,-83.3333333333333,4,3,1,50,0,0
35620,-83.3333333333333,4,3,1,100,0,0
35774,-66.6666666666667,4,3,1,100,0,0
36697,-133.333333333333,4,3,22,60,0,0
37159,-133.333333333333,4,3,1,100,0,0
37774,-133.333333333333,4,3,22,50,0,0
47005,-100,4,3,22,50,0,0
51928,-83.3333333333333,4,3,1,100,0,0
54697,-100,4,3,1,40,0,0
55928,-100,4,3,22,80,0,0
56851,-74.0740740740741,4,3,1,100,0,1
66390,-74.0740740740741,4,3,1,60,0,1
66697,-74.0740740740741,4,3,1,100,0,1
80236,-133.333333333333,4,3,1,100,0,1
81313,-83.3333333333333,4,3,1,100,0,1
88390,-66.6666666666667,4,3,1,100,0,0

[HitObjects]
86,106,1314,5,2,0:0:0:0:
101,113,1390,1,2,0:0:0:0:
115,122,1467,2,0,P|136:167|143:191,1,70,2|0,0:0|0:0,0:0:0:0:
71,284,1775,2,0,P|107:309|139:319,1,70
319,235,2083,2,0,B|326:191|295:148|311:80,1,140,0|0,0:0|0:0,3:0:0:0:
231,220,2544,1,0,0:0:0:0:
385,90,2698,5,2,0:0:0:0:
412,184,2852,1,2,0:0:0:0:
313,96,3006,1,2,0:0:0:0:
306,204,3160,1,2,0:0:0:0:
218,69,3314,1,2,0:0:0:0:
224,186,3467,1,2,0:0:0:0:
138,75,3621,1,2,0:0:0:0:
114,197,3775,1,2,0:0:0:0:
0,227,3929,6,0,P|30:288|91:321,1,140,2|0,0:0|0:0,0:0:0:0:
230,329,4390,2,0,B|225:255|225:255|235:172,1,140,2|0,0:0|0:0,0:0:0:0:
148,191,4852,2,0,L|64:152,1,70,2|0,0:0|0:0,0:0:0:0:
341,143,5160,5,0,0:0:0:0:
242,241,5314,1,0,0:0:0:0:
205,105,5467,1,0,0:0:0:0:
350,217,5621,5,0,0:0:0:0:
211,216,5775,1,0,0:0:0:0:
281,94,5929,1,0,0:0:0:0:
305,277,6083,5,0,0:0:0:0:
207,178,6237,1,0,0:0:0:0:
343,141,6390,1,0,0:0:0:0:
230,286,6544,5,0,0:0:0:0:
231,147,6698,1,0,0:0:0:0:
353,217,6852,1,0,0:0:0:0:
171,241,7006,6,0,P|115:227|68:201,1,105.000004005432,2|0,0:0|0:0,0:0:0:0:
211,133,7467,6,0,P|259:179|280:281,1,167.999994873047,6|0,0:0|0:0,0:0:0:0:
132,132,7929,2,0,P|128:61|115:24,1,83.9999974365235,8|0,0:0|0:0,0:0:0:0:
52,250,8237,1,0,0:0:0:0:
231,85,8390,1,0,0:0:0:0:
229,314,8544,6,0,P|175:309|129:316,1,83.9999974365235,8|0,0:0|0:0,0:0:0:0:
329,233,8852,2,0,P|370:236|412:231,1,83.9999974365235
218,143,9160,1,8,0:0:0:0:
436,137,9314,2,0,P|467:164|493:197,1,83.9999974365235
392,330,9621,1,8,0:0:0:0:
335,152,9775,1,8,0:0:0:0:
262,257,9929,6,0,B|214:234|135:268|91:229,1,167.999994873047,4|0,0:0|0:0,0:0:0:0:
274,150,10390,2,0,P|324:164|464:169,1,167.999994873047,8|0,0:0|0:0,0:0:0:0:
322,83,10852,1,0,0:0:0:0:
353,258,11006,1,8,0:0:0:0:
212,134,11160,5,0,0:0:0:0:
403,148,11314,1,0,0:0:0:0:
178,45,11467,1,0,0:0:0:0:
189,257,11621,1,8,0:0:0:0:
259,125,11775,2,0,P|281:82|288:36,1,83.9999974365235
163,178,12083,2,0,P|172:225|194:265,1,83.9999974365235,8|8,0:0|0:0,0:0:0:0:
348,222,12390,2,0,B|337:172|373:113|357:52,1,167.999994873047,4|0,0:0|0:0,0:0:0:0:
301,283,12852,6,0,P|372:305|401:284,1,83.9999974365235,8|0,0:0|0:0,0:0:0:0:
256,149,13160,2,0,L|153:128,1,83.9999974365235
234,238,13467,2,0,P|235:291|249:329,1,83.9999974365235,8|0,0:0|0:0,0:0:0:0:
337,141,13775,2,0,P|336:87|322:49,1,83.9999974365235
256,149,14083,5,8,0:0:0:0:
399,238,14237,1,8,0:0:0:0:
211,72,14390,1,0,0:0:0:0:
230,253,14544,1,8,0:0:0:0:
148,163,14698,1,0,0:0:0:0:
230,253,14852,6,0,P|290:274|402:254,1,167.999994873047,4|0,0:0|0:0,0:0:0:0:
199,78,15314,1,8,0:0:0:0:
379,144,15467,1,0,0:0:0:0:
184,216,15621,1,8,0:0:0:0:
242,31,15775,1,8,0:0:0:0:
242,32,16083,5,8,0:0:0:0:
308,225,16237,1,0,0:0:0:0:
173,141,16390,1,0,0:0:0:0:
326,104,16544,2,0,L|371:92,1,41.9999987182618,8|0,0:0|0:0,0:0:0:0:
466,141,16698,2,0,L|421:153,1,41.9999987182618
365,302,16852,5,8,0:0:0:0:
452,46,17006,1,8,0:0:0:0:
260,291,17160,5,2,0:0:0:0:
260,291,17467,6,0,L|214:372,1,70
160,218,17775,1,0,0:0:0:0:
233,154,17929,1,0,0:0:0:0:
233,154,18083,1,0,0:0:0:0:
258,292,18237,2,0,P|261:342|275:386,1,70
358,206,18544,6,0,P|346:158|324:117,1,70
206,152,18852,1,0,0:0:0:0:
276,193,19006,1,0,0:0:0:0:
241,67,19160,1,0,0:0:0:0:
186,237,19314,1,0,0:0:0:0:
186,237,19467,1,0,0:0:0:0:
276,193,19621,5,0,0:0:0:0:
150,110,19775,1,0,0:0:0:0:
279,109,19929,2,0,P|338:128|375:133,1,70
339,35,20237,1,0,0:0:0:0:
429,185,20390,2,0,P|421:226|407:259,1,70
251,331,20698,2,0,P|258:289|276:252,1,70
351,175,21006,5,0,0:0:0:0:
207,124,21160,1,0,0:0:0:0:
344,79,21314,2,0,P|380:37|392:12,1,70
207,124,21621,2,0,B|184:188|213:222|177:283,1,140
110,229,22083,5,0,0:0:0:0:
289,168,22237,1,0,0:0:0:0:
87,110,22390,1,0,0:0:0:0:
207,124,22544,1,0,0:0:0:0:
193,233,22698,6,0,P|199:279|192:332,1,70
90,193,23006,2,0,P|84:147|89:94,1,70
183,141,23314,1,0,0:0:0:0:
121,292,23467,2,0,P|118:333|123:373,1,70
264,176,23775,2,0,P|266:134|260:94,1,70
214,270,24083,6,0,B|254:266|289:272|289:272|317:238|358:212,1,140
457,253,24544,1,0,0:0:0:0:
304,352,24698,2,0,L|208:352,1,70
261,188,25006,2,0,L|320:128,1,70
307,263,25314,2,0,P|236:263|159:223,1,140
320,128,25775,1,0,0:0:0:0:
406,229,25929,1,0,0:0:0:0:
240,179,26083,6,0,B|194:146|194:146|116:115,2,111.999996582031,8|8|8,0:0|0:0|0:0,0:0:0:0:
323,291,26698,2,0,B|380:291|380:291|451:333,2,111.999996582031,8|8|8,0:0|0:0|0:0,0:0:0:0:
182,339,27313,6,0,P|117:308|74:210,1,167.999994873047,4|8,0:0|0:0,0:0:0:0:
249,198,27774,1,0,0:0:0:0:
156,106,27928,2,0,P|108:92|65:62,1,83.9999974365235
267,64,28236,1,8,0:0:0:0:
161,193,28390,6,0,P|175:241|205:284,1,83.9999974365235
356,310,28697,2,0,P|342:261|312:218,1,83.9999974365235,0|8,0:0|0:0,0:0:0:0:
225,137,29005,1,0,0:0:0:0:
267,298,29159,1,0,0:0:0:0:
333,89,29313,1,0,0:0:0:0:
182,233,29467,1,8,0:0:0:0:
387,287,29620,6,0,P|427:274|468:273,1,83.9999974365235
264,220,29928,2,0,P|222:220|181:232,1,83.9999974365235,0|8,0:0|0:0,0:0:0:0:
255,306,30236,1,0,0:0:0:0:
346,179,30390,1,0,0:0:0:0:
151,150,30543,1,0,0:0:0:0:
346,179,30697,1,8,0:0:0:0:
181,232,30851,6,0,P|139:231|98:219,1,83.9999974365235
177,53,31159,1,0,0:0:0:0:
181,232,31313,1,8,0:0:0:0:
91,9,31467,1,0,0:0:0:0:
270,207,31620,6,0,P|265:267|257:298,1,83.9999974365235
172,150,31928,2,0,P|176:89|184:58,1,83.9999974365235,8|0,0:0|0:0,0:0:0:0:
172,306,32236,6,0,P|135:333|8:317,2,167.999994873047,2|8|0,0:0|0:0|0:0,0:0:0:0:
155,127,33005,1,0,0:0:0:0:
88,257,33159,1,8,0:0:0:0:
75,94,33313,1,0,0:0:0:0:
172,306,33467,6,0,P|245:268|325:287,2,167.999994873047,2|8|0,0:0|0:0|0:0,0:0:0:0:
263,366,34236,1,0,0:0:0:0:
340,200,34390,1,8,0:0:0:0:
186,197,34543,1,0,0:0:0:0:
325,287,34697,6,0,P|398:324|478:305,2,167.999994873047,2|8|0,0:0|0:0|0:0,0:0:0:0:
279,156,35467,1,8,0:0:0:0:
279,156,35543,1,8,0:0:0:0:
279,156,35620,1,8,0:0:0:0:
90,145,35774,6,0,P|44:182|14:250,1,105.000004005432,2|0,0:0|0:0,0:0:0:0:
198,209,36082,2,0,L|192:83,1,105.000004005432,2|8,0:0|0:0,0:0:0:0:
113,227,36390,2,0,P|150:273|218:303,1,105.000004005432,2|0,0:0|0:0,0:0:0:0:
297,132,36697,5,0,0:0:0:0:
281,110,36773,1,0,0:0:0:0:
259,98,36850,1,0,0:0:0:0:
233,96,36927,1,0,0:0:0:0:
209,106,37004,1,0,0:0:0:0:
191,125,37081,1,0,0:0:0:0:
184,150,37159,1,4,0:0:0:0:
330,221,37774,6,0,L|316:272,1,52.5000020027161,2|0,0:0|0:0,0:0:0:0:
244,223,38082,2,0,L|258:172,1,52.5000020027161,2|0,0:0|0:0,0:0:0:0:
319,124,38390,2,0,P|350:127|419:188,1,105.000004005432,2|0,0:0|0:0,0:0:0:0:
266,196,38851,2,0,P|246:171|240:80,1,105.000004005432,2|0,0:0|0:0,0:0:0:0:
342,215,39313,2,0,L|344:279,1,52.5000020027161,2|0,0:0|0:0,0:0:0:0:
183,85,39620,6,0,P|244:66|301:86,1,105.000004005432,2|0,0:0|0:0,0:0:0:0:
170,185,40082,2,0,P|113:155|87:100,1,105.000004005432,2|0,0:0|0:0,0:0:0:0:
240,149,40543,2,0,L|273:204,1,52.5000020027161,2|0,0:0|0:0,0:0:0:0:
157,306,40851,6,0,P|95:287|59:239,1,105.000004005432,2|0,0:0|0:0,0:0:0:0:
224,240,41313,2,0,P|254:296|245:356,1,105.000004005432,2|0,0:0|0:0,0:0:0:0:
144,224,41774,2,0,L|144:160,1,52.5000020027161,2|0,0:0|0:0,0:0:0:0:
226,112,42390,6,0,L|226:176,1,52.5000020027161,2|0,0:0|0:0,0:0:0:0:
304,96,42697,2,0,L|304:43,1,52.5000020027161,2|0,0:0|0:0,0:0:0:0:
368,160,43005,2,0,L|351:209,1,52.5000020027161,2|0,0:0|0:0,0:0:0:0:
292,125,43313,2,0,P|329:89|380:77,1,105.000004005432,2|0,0:0|0:0,0:0:0:0:
318,222,43774,2,0,P|266:220|222:193,1,105.000004005432,2|0,0:0|0:0,0:0:0:0:
369,163,44236,2,0,L|429:191,1,52.5000020027161,2|0,0:0|0:0,0:0:0:0:
291,222,44543,6,0,B|279:177|296:111|274:60,2,157.500006008148,2|2|2,0:0|0:0|0:0,0:0:0:0:
175,158,45774,6,0,P|124:209|171:284,2,157.500006008148,2|2|2,0:0|0:0|0:0,0:0:0:0:
319,205,47005,1,4,0:0:0:0:
330,87,47159,5,2,0:0:0:0:
241,173,47313,1,2,0:0:0:0:
410,146,47467,1,2,0:0:0:0:
356,302,47620,6,0,P|316:325|218:313,1,140,2|0,0:0|0:0,0:0:0:0:
301,198,48082,1,2,0:0:0:0:
133,238,48236,1,2,0:0:0:0:
283,250,48390,1,2,0:0:0:0:
149,129,48543,2,0,P|96:114|55:115,1,70,2|0,0:0|0:0,0:0:0:0:
272,220,48851,1,2,0:0:0:0:
320,92,49005,6,0,P|379:91|420:104,1,70,10|0,0:0|0:0,0:0:0:0:
189,205,49313,2,0,P|130:206|89:193,1,70,10|4,0:0|0:0,0:0:0:0:
239,110,49620,5,2,0:0:0:0:
256,260,49774,1,2,0:0:0:0:
156,126,49928,1,2,0:0:0:0:
336,189,50082,2,0,P|376:182|424:185,1,70,2|0,0:0|0:0,0:0:0:0:
230,173,50390,1,0,0:0:0:0:
293,282,50543,5,2,0:0:0:0:
310,74,50697,1,2,0:0:0:0:
401,266,50851,1,2,0:0:0:0:
231,140,51005,2,0,P|190:127|131:132,1,70,2|0,0:0|0:0,0:0:0:0:
293,282,51313,1,2,0:0:0:0:
341,113,51467,2,0,P|347:70|377:19,1,70,10|0,0:0|0:0,0:0:0:0:
382,203,51774,1,8,0:0:0:0:
195,60,51928,5,4,0:0:0:0:
297,305,52082,1,0,0:0:0:0:
262,133,52236,5,8,0:0:0:0:
189,330,52390,1,0,0:0:0:0:
355,206,52543,5,8,0:0:0:0:
136,221,52697,1,0,0:0:0:0:
297,305,52851,5,8,0:0:0:0:
249,89,53005,1,0,0:0:0:0:
127,338,53159,5,8,0:0:0:0:
334,175,53313,1,0,0:0:0:0:
75,163,53467,5,8,0:0:0:0:
307,250,53620,1,0,0:0:0:0:
249,89,53774,5,8,0:0:0:0:
161,288,53928,1,0,0:0:0:0:
355,140,54082,1,8,0:0:0:0:
98,196,54236,1,0,0:0:0:0:
329,273,54390,2,0,L|424:247,1,83.9999974365235,4|0,0:0|0:0,0:0:0:0:
267,227,54697,5,8,0:0:0:0:
245,254,54773,1,8,0:0:0:0:
241,288,54850,1,8,0:0:0:0:
255,320,54927,1,8,0:0:0:0:
284,339,55005,5,8,0:0:0:0:
295,306,55081,1,8,0:0:0:0:
289,272,55158,1,8,0:0:0:0:
267,245,55235,1,8,0:0:0:0:
235,232,55312,1,8,0:0:0:0:
201,235,55389,1,8,0:0:0:0:
172,255,55466,1,8,0:0:0:0:
272,128,55928,5,2,0:0:0:0:
336,192,56236,2,0,L|336:270,1,70,2|2,0:0|0:0,0:0:0:0:
240,256,56543,5,8,0:0:0:0:
240,256,56620,1,8,0:0:0:0:
240,256,56697,2,0,L|240:192,1,35,8|8,0:0|0:0,0:0:0:0:
168,109,56851,6,0,P|108:167|101:288,1,189.000000720978,4|8,0:0|0:0,0:0:0:0:
263,137,57313,2,0,P|253:81|239:36,1,94.5000003604889
185,255,57620,1,0,0:0:0:0:
387,165,57774,1,8,0:0:0:0:
118,311,57928,6,0,P|160:333|231:330,1,94.5000003604889
374,182,58236,2,0,P|326:179|267:140,1,94.5000003604889,0|8,0:0|0:0,0:0:0:0:
366,42,58543,1,0,0:0:0:0:
486,247,58697,1,0,0:0:0:0:
254,79,58851,1,0,0:0:0:0:
354,237,59005,1,8,0:0:0:0:
267,328,59159,5,0,0:0:0:0:
267,328,59236,1,0,0:0:0:0:
267,328,59313,2,0,P|216:351|102:284,1,189.000000720978,4|8,0:0|0:0,0:0:0:0:
276,203,59774,2,0,P|347:222|381:260,1,94.5000003604889
199,271,60082,2,0,P|162:207|165:156,1,94.5000003604889,0|8,0:0|0:0,0:0:0:0:
232,15,60390,6,0,P|263:89|247:198,1,189.000000720978
124,101,60851,1,8,0:0:0:0:
351,101,61005,1,0,0:0:0:0:
242,191,61159,2,0,L|149:215,1,94.5000003604889
365,19,61467,2,0,P|419:51|448:103,1,94.5000003604889,8|0,0:0|0:0,0:0:0:0:
255,103,61774,6,0,L|153:91,1,94.5000003604889,4|0,0:0|0:0,0:0:0:0:
76,180,62082,1,8,0:0:0:0:
102,25,62236,1,0,0:0:0:0:
168,192,62390,2,0,P|191:245|234:279,1,94.5000003604889
314,143,62697,1,8,0:0:0:0:
155,90,62851,1,0,0:0:0:0:
318,255,63005,6,0,P|371:278|405:321,1,94.5000003604889,0|0,2:0|0:0,0:0:0:0:
226,313,63313,1,8,0:0:0:0:
188,144,63467,2,0,B|265:120|265:54|337:33,1,189.000000720978
336,33,63851,1,0,0:0:0:0:
336,34,63928,1,8,0:0:0:0:
340,142,64082,2,0,P|296:157|174:94,1,189.000000720978,4|0,0:0|0:0,0:0:0:0:
278,56,64543,5,8,0:0:0:0:
311,328,64697,1,0,0:0:0:0:
232,65,64851,5,8,0:0:0:0:
186,364,65005,1,0,0:0:0:0:
346,122,65159,1,8,0:0:0:0:
146,164,65313,1,8,0:0:0:0:
423,217,65467,5,8,0:0:0:0:
80,258,65620,1,0,0:0:0:0:
425,139,65774,5,8,0:0:0:0:
91,87,65928,1,0,0:0:0:0:
267,282,66082,1,8,0:0:0:0:
254,39,66236,1,8,0:0:0:0:
176,299,66390,5,8,0:0:0:0:
188,329,66466,1,8,0:0:0:0:
211,352,66543,1,8,0:0:0:0:
242,364,66620,1,8,0:0:0:0:
275,362,66697,6,0,P|303:322|306:165,1,189.000000720978,4|8,0:0|0:0,0:0:0:0:
190,54,67159,2,0,P|175:123|197:170,1,94.5000003604889
307,103,67467,2,0,P|345:43|393:25,1,94.5000003604889,0|8,0:0|0:0,0:0:0:0:
379,197,67774,5,0,0:0:0:0:
120,146,67928,1,0,0:0:0:0:
394,113,68082,2,0,P|453:151|471:199,1,94.5000003604889,0|8,0:0|0:0,0:0:0:0:
316,275,68390,1,0,0:0:0:0:
386,32,68543,1,0,0:0:0:0:
384,196,68697,1,0,0:0:0:0:
238,42,68851,1,8,0:0:0:0:
316,275,69005,1,8,0:0:0:0:
316,275,69082,1,8,0:0:0:0:
316,275,69159,6,0,P|283:323|131:312,1,189.000000720978,4|8,0:0|0:0,0:0:0:0:
264,197,69620,2,0,P|309:176|349:146,1,94.5000003604889
150,157,69928,2,0,P|102:161|56:155,1,94.5000003604889,0|8,0:0|0:0,0:0:0:0:
214,65,70236,2,0,P|260:59|307:63,1,94.5000003604889
56,155,70543,1,0,0:0:0:0:
269,140,70697,1,8,0:0:0:0:
86,59,70851,1,0,0:0:0:0:
212,226,71005,6,0,P|212:295|205:331,1,94.5000003604889
51,249,71313,2,0,P|50:180|58:144,1,94.5000003604889,8|0,0:0|0:0,0:0:0:0:
235,141,71620,2,0,P|288:182|307:240,1,94.5000003604889,4|0,0:0|0:0,0:0:0:0:
128,199,71928,1,8,0:0:0:0:
221,233,72082,1,0,0:0:0:0:
139,66,72236,6,0,P|196:32|257:36,1,94.5000003604889
160,164,72543,2,0,P|126:196|109:240,1,94.5000003604889,8|0,0:0|0:0,0:0:0:0:
295,98,72851,2,0,P|313:55|313:8,1,94.5000003604889
238,193,73159,1,8,0:0:0:0:
387,89,73313,1,0,0:0:0:0:
399,296,73467,1,0,0:0:0:0:
315,146,73620,5,0,0:0:0:0:
315,146,73697,1,0,0:0:0:0:
315,146,73774,1,8,0:0:0:0:
243,297,73928,2,0,P|182:253|134:152,1,189.000000720978,4|0,0:0|0:0,0:0:0:0:
208,48,74390,5,8,0:0:0:0:
311,335,74543,1,0,0:0:0:0:
291,82,74697,5,8,0:0:0:0:
188,369,74850,1,0,0:0:0:0:
346,158,75005,1,8,0:0:0:0:
112,240,75159,1,8,0:0:0:0:
463,219,75313,5,8,0:0:0:0:
122,149,75466,1,0,0:0:0:0:
428,124,75620,5,8,0:0:0:0:
81,249,75773,1,0,0:0:0:0:
352,207,75928,1,8,0:0:0:0:
134,63,76082,1,0,0:0:0:0:
196,304,76236,1,8,0:0:0:0:
196,304,76313,1,8,0:0:0:0:
196,304,76390,6,0,P|245:322|379:305,1,189.000000720978,4|0,0:0|0:0,0:0:0:0:
225,157,76851,2,0,P|153:147|106:162,1,94.5000003604889,8|0,0:0|0:0,0:0:0:0:
289,240,77159,2,0,P|346:196|369:152,1,94.5000003604889
304,32,77467,1,8,0:0:0:0:
225,157,77620,1,0,0:0:0:0:
358,178,77774,6,0,P|387:141|427:116,1,94.5000003604889
395,275,78082,1,8,0:0:0:0:
255,155,78236,2,0,P|230:114|193:85,1,94.5000003604889
211,353,78543,1,0,0:0:0:0:
166,174,78697,1,8,0:0:0:0:
166,174,79005,6,0,P|266:186|332:265,1,189.000000720978,4|8,0:0|0:0,0:0:0:0:
132,279,79467,1,8,0:0:0:0:
356,78,79620,1,8,0:0:0:0:
364,351,79774,1,8,0:0:0:0:
208,9,79928,1,8,0:0:0:0:
205,356,80082,1,8,0:0:0:0:
279,167,80236,6,0,L|287:104,1,52.5000020027161,2|2,0:0|0:0,0:0:0:0:
189,187,80543,2,0,L|202:248,1,52.5000020027161,2|2,0:0|0:0,0:0:0:0:
314,250,80851,1,0,0:0:0:0:
192,102,81005,2,0,P|145:93|121:92,1,52.5000020027161
277,346,81313,6,0,P|361:315|409:253,1,167.999994873047,4|0,0:0|0:0,0:0:0:0:
240,168,81774,2,0,P|179:154|136:133,1,83.9999974365235,8|0,0:0|0:0,0:0:0:0:
336,96,82082,1,0,0:0:0:0:
333,222,82236,1,0,0:0:0:0:
173,62,82390,2,0,P|112:76|69:97,1,83.9999974365235,8|0,0:0|0:0,0:0:0:0:
240,168,82697,6,0,P|281:169|322:178,1,83.9999974365235
179,245,83005,1,8,0:0:0:0:
229,68,83159,2,0,P|259:39|295:17,1,83.9999974365235
324,191,83467,2,0,P|353:221|375:257,1,83.9999974365235,0|8,0:0|0:0,0:0:0:0:
173,237,83774,6,0,L|176:47,1,167.999994873047,4|0,0:0|0:0,0:0:0:0:
324,191,84236,2,0,P|324:242|330:283,1,83.9999974365235,8|0,0:0|0:0,0:0:0:0:
419,118,84543,1,0,0:0:0:0:
209,78,84697,1,0,0:0:0:0:
328,274,84851,1,8,0:0:0:0:
339,82,85005,1,0,0:0:0:0:
186,239,85159,5,0,0:0:0:0:
351,131,85313,1,0,0:0:0:0:
136,144,85467,1,8,0:0:0:0:
321,56,85620,2,0,P|372:57|421:82,1,83.9999974365235
111,238,85928,2,0,P|75:201|58:148,1,83.9999974365235,0|8,0:0|0:0,0:0:0:0:
322,217,86236,1,0,0:0:0:0:
322,217,86313,1,0,0:0:0:0:
322,217,86390,5,12,0:0:0:0:
44,79,86543,1,0,0:0:0:0:
163,292,86697,1,8,0:0:0:0:
159,33,86851,1,0,0:0:0:0:
62,342,87005,5,8,0:0:0:0:
237,134,87159,1,8,0:0:0:0:
237,134,87313,2,0,P|289:132|337:150,1,83.9999974365235,0|8,0:0|0:0,0:0:0:0:
107,277,87620,5,8,0:0:0:0:
307,46,87774,1,0,0:0:0:0:
38,120,87928,1,8,0:0:0:0:
382,198,88082,1,0,0:0:0:0:
144,16,88236,5,12,0:0:0:0:
144,368,88390,1,12,0:0:0:0:
