osu file format v14

[General]
AudioFilename: audio.mp3
AudioLeadIn: 0
PreviewTime: 37618
Countdown: 0
SampleSet: Soft
StackLeniency: 0.7
Mode: 0
LetterboxInBreaks: 0
WidescreenStoryboard: 0

[Editor]
DistanceSpacing: 1
BeatDivisor: 4
GridSize: 4
TimelineZoom: 1

[Metadata]
Title:MIIRO (TV Size)
TitleUnicode:海色 (TV Size)
Artist:AKINO from bless4
ArtistUnicode:AKINO from bless4
Creator:Sonnyc
Version:Normal
Source:艦隊これくしょん -艦これ-
Tags:みいろ opening kantai collection kancolle tatoe japanese anime pop
BeatmapID:2642684
BeatmapSetID:1167072

[Difficulty]
HPDrainRate:3
CircleSize:3
OverallDifficulty:4
ApproachRate:5
SliderMultiplier:1
SliderTickRate:2

[Events]
//Background and Video events
0,0,"bg.jpg",0,0
//Break Periods
2,12388,15957
//Storyboard Layer 0 (Background)
//Storyboard Layer 1 (Fail)
//Storyboard Layer 2 (Pass)
//Storyboard Layer 3 (Foreground)
//Storyboard Layer 4 (Overlay)
//Storyboard Sound Samples

[TimingPoints]
1465,307.692307692308,4,2,1,30,1,0
3926,-100,4,2,1,40,0,0
5157,-100,4,2,1,30,0,0
7003,-100,4,2,1,40,0,0
7465,-100,4,2,1,60,0,0
12080,-100,4,2,1,5,0,0
17157,-111.111111111111,4,2,1,30,0,0
26080,-111.111111111111,4,2,1,45,0,0
27311,-100,4,2,1,60,0,0
31618,-100,4,2,1,60,0,0
34695,-100,4,2,1,60,0,0
35772,-100,4,2,1,60,0,0
37772,-111.111111111111,4,2,1,30,0,0
45772,-111.111111111111,4,2,1,50,0,0
47003,-100,4,2,1,60,0,0
55926,-100,4,2,1,40,0,0
56695,-100,4,2,1,60,0,0
56849,-100,4,2,1,70,0,1
58849,-100,4,2,1,80,0,1
59618,-100,4,2,1,70,0,1
61926,-100,4,2,1,60,0,0
64541,-100,4,2,1,80,0,0
65157,-100,4,2,1,60,0,0
65465,-100,4,2,1,80,0,0
66081,-100,4,2,1,60,0,0
66695,-100,4,2,1,70,0,1
68541,-100,4,2,1,70,0,1
68952,-100,4,2,1,80,0,1
69618,-100,4,2,1,70,0,1
71772,-100,4,2,1,60,0,0
74387,-100,4,2,1,80,0,0
75003,-100,4,2,1,60,0,0
86234,-100,4,2,1,5,0,0

[Colours]
Combo1 : 255,255,128
Combo2 : 0,255,255
Combo3 : 255,128,64
Combo4 : 0,128,255

[HitObjects]
130,95,1772,22,0,L|120:205,1,100,2|2,0:0|0:0,0:0:0:0:
320,166,2695,2,0,L|335:17,2,150,2|2|0,0:0|0:0|0:0,0:0:0:0:
382,243,3926,22,0,P|314:201|245:354,1,300,2|0,0:1|0:0,0:0:0:0:
340,377,5157,1,2,0:0:0:0:
256,192,7465,21,6,0:1:0:0:
256,192,7618,12,0,12080,0:0:0:0:
52,104,17157,53,0,0:0:0:0:
133,65,17465,2,0,P|166:126|173:236,2,179.999994506836,2|0|2,0:0|0:0|0:0,0:0:0:0:
327,143,19618,21,0,0:0:0:0:
408,103,19926,2,0,P|442:165|448:274,1,179.999994506836,2|0,0:0|0:0,0:0:0:0:
291,361,21157,2,0,P|258:300|252:191,1,179.999994506836,2|0,0:0|0:0,0:0:0:0:
99,95,22388,22,0,P|86:135|86:199,2,89.9999972534181,2|0|0,0:0|0:0|0:0,0:0:0:0:
271,147,23618,2,0,P|258:107|257:43,2,89.9999972534181,2|0|0,0:0|0:0|0:0,0:0:0:0:
445,105,24849,2,0,P|433:145|432:209,2,89.9999972534181,2|0|0,0:0|0:0|0:0,0:0:0:0:
341,252,26080,21,2,0:0:0:0:
341,252,26695,1,2,0:0:0:0:
199,128,27311,6,0,L|96:138,1,100,4|0,0:1|1:0,0:0:0:0:
68,232,27926,2,0,L|167:222,1,100,2|0,0:0|1:0,0:0:0:0:
250,277,28541,2,0,L|240:376,1,100,2|0,0:0|1:0,0:0:0:0:
335,344,29157,2,0,L|344:244,1,100,2|0,0:0|1:0,0:0:0:0:
354,144,29772,21,2,0:0:0:0:
440,194,30080,1,0,1:0:0:0:
499,113,30388,2,0,L|490:13,2,100,2|0|2,0:0|1:0|0:0,0:0:0:0:
392,282,31618,22,0,P|299:252|182:227,1,200,2|4,0:0|0:0,0:0:0:0:
6,173,32849,2,0,P|101:142|198:120,1,200,2|2,0:0|0:0,0:0:0:0:
392,68,34080,2,0,P|299:38|182:13,1,200,2|4,0:0|0:0,0:0:0:0:
303,287,35772,21,2,0:0:0:0:
303,287,36388,1,4,0:0:0:0:
243,94,37772,37,2,0:0:0:0:
111,114,38388,1,2,0:0:0:0:
111,114,39618,2,0,P|144:88|185:264,1,359.999989013672,2|2,0:0|0:0,0:0:0:0:
377,102,42080,21,2,0:0:0:0:
249,123,42695,1,0,0:0:0:0:
377,102,43311,1,2,0:0:0:0:
377,102,44541,2,0,P|275:92|270:232,1,269.999991760254,2|0,0:0|0:3,0:0:0:0:
194,283,45772,2,0,P|223:332|300:343,2,134.999995880127,0|8|4,1:0|1:3|1:3,0:0:0:0:
94,296,47003,38,0,L|110:97,1,200,4|2,0:0|0:0,0:0:0:0:
176,21,47926,1,0,1:0:0:0:
249,88,48234,2,0,L|450:71,1,200,2|2,0:0|0:0,0:0:0:0:
308,214,49465,22,0,L|109:230,1,200,2|2,0:0|0:0,0:0:0:0:
33,296,50388,1,0,1:0:0:0:
88,378,50695,2,0,L|287:362,1,200,2|2,0:0|0:0,0:0:0:0:
397,194,51926,37,0,1:0:0:0:
429,289,52234,1,0,1:0:0:0:
375,374,52541,1,0,1:0:0:0:
275,384,52849,1,0,1:0:0:0:
205,313,53157,1,0,1:0:0:0:
217,214,53465,1,0,1:0:0:0:
302,161,53772,1,0,1:0:0:0:
441,17,54388,22,0,L|425:372,1,350,0|2,1:0|0:0,0:0:0:0:
469,187,56849,22,0,P|469:142|429:105,1,100,6|0,0:1|1:0,0:0:0:0:
381,96,57311,2,0,L|280:109,1,100,2|2,0:1|0:0,0:1:0:0:
201,48,57926,2,0,L|100:61,1,100,2|2,0:1|0:0,0:1:0:0:
3,81,58541,1,2,0:0:0:0:
3,81,58695,1,2,0:1:0:0:
179,175,59311,6,2,P|121:175|102:255,1,150,2|2,0:1|0:1,0:1:0:0:
46,338,60080,1,2,0:1:0:0:
141,367,60388,2,2,L|391:351,1,250,2|2,0:1|0:0,0:1:0:0:
463,282,61465,1,0,1:0:0:0:
369,246,61772,6,0,L|372:146,1,100,4|0,0:0|1:0,0:0:0:0:
408,52,62388,2,0,L|308:49,1,100,2|0,0:0|1:0,0:0:0:0:
212,20,63003,2,0,L|207:172,1,150,2|2,0:0|0:0,0:0:0:0:
312,326,64080,6,0,P|303:266|368:203,1,150,2|2,0:1|1:0,0:0:0:0:
452,243,64849,1,2,1:0:0:0:
511,51,65465,1,2,1:1:0:0:
412,66,65772,1,2,1:0:0:0:
313,81,66080,1,2,1:0:0:0:
123,17,66695,6,0,P|78:17|41:57,1,100,6|0,0:1|1:0,0:0:0:0:
32,105,67157,2,0,L|45:206,1,100,2|2,0:1|0:0,0:1:0:0:
137,165,67772,2,0,L|150:266,1,100,2|2,0:1|0:0,0:1:0:0:
168,362,68388,1,2,0:0:0:0:
168,362,68541,1,2,0:1:0:0:
319,231,69157,6,2,P|319:289|399:308,1,150,2|2,0:1|0:1,0:1:0:0:
482,364,69926,1,2,0:1:0:0:
511,269,70234,2,2,L|495:19,1,250,2|2,0:1|0:0,0:1:0:0:
410,72,71311,1,0,1:0:0:0:
310,68,71618,6,0,L|210:65,1,100,4|0,0:0|1:0,0:0:0:0:
116,29,72234,2,0,L|113:129,1,100,2|0,0:0|1:0,0:0:0:0:
84,224,72849,2,0,L|234:228,1,150,2|2,0:0|0:0,0:0:0:0:
380,90,73926,6,0,P|440:81|503:146,1,150,2|2,0:1|1:0,0:0:0:0:
463,230,74695,1,2,1:0:0:0:
273,166,75311,1,2,1:1:0:0:
288,265,75618,1,2,1:0:0:0:
303,363,75926,1,2,1:0:0:0:
73,192,76849,38,0,L|83:302,2,100,0|2|0,1:0|0:0|1:0,0:0:0:0:
171,214,77772,1,2,0:0:0:0:
246,83,78234,22,0,L|395:98,1,150,2|0,0:0|1:0,0:0:0:0:
361,193,79003,2,0,L|212:178,2,150,0|0|0,1:0|1:0|1:0,0:0:0:0:
459,344,81311,21,6,0:1:0:0:
256,192,81465,12,0,86234,0:0:0:0:
